osu file format v13

[General]
AudioFilename: Knife+Party-Rage+Valley.mp3
AudioLeadIn: 0
PreviewTime: -1
Countdown: 0
SampleSet: Normal
StackLeniency: 0.7
Mode: 0
LetterboxInBreaks: 1
WidescreenStoryboard: 0

[Editor]
Bookmarks: 119298
DistanceSpacing: 0.5
BeatDivisor: 4
GridSize: 4
TimelineZoom: 2.599999

[Metadata]
Title:Rage Valley
TitleUnicode:Rage Valley
Artist:Knife Party
ArtistUnicode:Knife Party
Creator:Koller
Version:EX
Source:
Tags:Pendulum dubstep
BeatmapID:527620
BeatmapSetID:226243

[Difficulty]
HPDrainRate:6
CircleSize:4
OverallDifficulty:7.5
ApproachRate:9
SliderMultiplier:2.2
SliderTickRate:1

[Events]
//Background and Video events
0,0,"bg.jpg",0,0
//Break Periods
//Storyboard Layer 0 (Background)
//Storyboard Layer 1 (Fail)
//Storyboard Layer 2 (Pass)
//Storyboard Layer 3 (Foreground)
//Storyboard Sound Samples
//Background Colour Transformations
3,100,163,162,255

[TimingPoints]
72580,468.75,4,1,0,40,1,0
72580,-133.333333333333,4,2,1,30,0,0
75392,-133.333333333333,4,2,1,40,0,0
76330,-100,4,2,1,20,0,0
76798,-100,4,2,1,25,0,0
77267,-100,4,2,1,30,0,0
77736,-100,4,2,1,40,0,0
78205,-83.3333333333333,4,2,1,50,0,0
81720,-66.6666666666667,4,2,1,65,0,0
82892,-66.6666666666667,4,2,1,75,0,0
84298,-83.3333333333333,4,2,1,80,0,0
85705,-66.6666666666667,4,2,1,85,0,0
86642,-66.6666666666667,4,2,1,90,0,0
88048,-66.6666666666667,4,2,1,95,0,0
89220,-66.6666666666667,4,2,1,100,0,0
89721,-100,4,3,0,70,0,0
91330,-83.3333333333333,4,2,1,90,0,1
91798,-100,4,2,1,70,0,1
93205,-71.4285714285714,4,2,1,80,0,1
93673,-71.4285714285714,4,1,0,80,0,1
94611,-83.3333333333333,4,2,1,80,0,1
95080,-71.4285714285714,4,2,1,70,0,1
96955,-83.3333333333333,4,2,1,60,0,0
97892,-83.3333333333333,4,2,1,75,0,0
98361,-50,4,2,1,90,0,1
98830,-83.3333333333333,4,2,1,70,0,0
100705,-66.6666666666667,4,2,1,90,0,1
101173,-66.6666666666667,4,1,1,90,0,1
102111,-83.3333333333333,4,2,1,85,0,0
102580,-83.3333333333333,4,2,1,70,0,0
104455,-66.6666666666667,4,2,1,70,0,0
105392,-66.6666666666667,4,2,1,85,0,0
106330,-83.3333333333333,4,2,1,70,0,0
108673,-66.6666666666667,4,1,0,85,0,0
109611,-66.6666666666667,4,2,1,85,0,0
110080,-83.3333333333333,4,2,1,70,0,0
113830,-66.6666666666667,4,2,1,50,0,0
114298,-66.6666666666667,4,2,1,70,0,0
116173,-66.6666666666667,4,1,1,85,0,1
117111,-66.6666666666667,4,2,1,60,0,1
117580,-66.6666666666667,4,2,1,85,0,1
118048,-83.3333333333333,4,2,1,70,0,0
120392,-66.6666666666667,4,2,1,85,0,0
121330,-71.4285714285714,4,1,0,60,0,0
124142,-71.4285714285714,4,1,0,75,0,0
125080,-71.4285714285714,4,1,0,60,0,0
127892,-66.6666666666667,4,1,0,75,0,0
128361,-66.6666666666667,4,1,0,80,0,0
128830,-83.3333333333333,4,1,0,60,0,0
130705,-66.6666666666667,4,1,0,60,0,0
131642,-66.6666666666667,4,1,0,80,0,0
132580,-66.6666666666667,4,1,0,65,0,0
133986,-83.3333333333333,4,1,0,75,0,0
134455,-83.3333333333333,4,1,0,85,0,1
134611,-83.3333333333333,4,1,0,65,0,1
134767,-83.3333333333333,4,1,0,85,0,1
135080,-83.3333333333333,4,1,0,65,0,1
135236,-83.3333333333333,4,1,0,80,0,1
137267,-100,4,1,0,65,0,0
139923,-133.333333333333,4,1,0,65,0,0
140548,-100,4,1,0,65,0,0
143361,-66.6666666666667,4,1,0,65,0,0
144767,-100,4,1,0,65,0,0
148517,-66.6666666666667,4,1,0,65,0,0
149455,-100,4,1,0,50,0,0
149923,-133.333333333333,4,1,0,45,0,0
150392,-200,4,1,0,35,0,0

[HitObjects]
51,292,72580,6,2,B|112:264|115:216|115:216|151:239,1,123.750004720688,4|0,0:0|0:0,0:0:0:0:
242,304,73283,1,4,0:0:0:0:
377,294,73634,1,0,0:0:0:0:
419,164,73986,2,0,P|410:93|452:43,2,123.750004720688,4|0|4,0:0|0:0|0:0,0:0:0:0:
377,294,75040,5,0,0:0:0:0:
269,210,75392,1,4,0:0:0:0:
210,87,75744,2,0,B|146:100|146:100|123:154,1,123.750004720688,0|4,0:0|0:0,0:0:0:0:
90,268,76330,6,0,L|152:328,3,55,4|0|0|0,0:0|0:0|0:0|0:0,0:0:0:0:
228,303,76798,2,0,L|287:360,3,55,4|0|0|0,0:0|0:0|0:0|0:0,0:0:0:0:
243,175,77267,2,0,L|282:213,3,55,4|0|0|0,0:0|0:0|0:0|0:0,0:0:0:0:
378,216,77736,2,0,L|439:274,3,55,4|0|0|0,0:0|0:0|0:0|0:0,0:0:0:0:
372,100,78205,6,0,P|378:64|423:70,1,65.9999979858399,6|0,0:0|0:0,0:0:0:0:
337,59,78439,2,0,P|342:90|372:100,1,65.9999979858399,8|0,0:0|0:0,0:0:0:0:
304,100,78673,2,0,P|310:64|355:70,1,65.9999979858399,2|0,0:0|0:0,0:0:0:0:
269,59,78908,2,0,P|274:90|304:100,1,65.9999979858399,8|0,0:0|0:0,0:0:0:0:
240,100,79142,2,0,P|246:64|291:70,1,65.9999979858399,2|0,0:0|0:0,0:0:0:0:
205,59,79376,2,0,P|210:90|240:100,1,65.9999979858399,8|0,0:0|0:0,0:0:0:0:
176,104,79611,2,0,P|182:68|227:74,1,65.9999979858399,2|0,0:0|0:0,0:0:0:0:
141,63,79845,2,0,P|146:94|176:104,1,65.9999979858399,0|0,0:0|0:0,0:0:0:0:
131,176,80080,6,0,B|84:237|90:230,3,65.9999979858399,6|0|0|0,0:0|0:0|0:0|0:0,0:0:0:0:
200,312,80548,2,0,B|268:360,1,65.9999979858399,2|0,0:0|0:0,0:0:0:0:
340,276,80783,1,4,0:0:0:0:
362,243,80900,1,0,0:0:0:0:
381,208,81017,2,0,B|429:140,3,65.9999979858399,4|0|0|0,0:0|0:0|0:0|0:0,0:0:0:0:
312,72,81486,2,0,B|244:24,1,65.9999979858399,2|0,0:0|0:0,0:0:0:0:
172,108,81720,1,4,0:0:0:0:
150,143,81837,1,0,0:0:0:0:
131,176,81955,6,0,P|217:209|250:180,1,82.5000031471254,6|0,0:0|0:0,0:0:0:0:
240,317,82189,2,0,P|273:231|244:198,1,82.5000031471254,0|0,0:0|0:0,0:0:0:0:
381,208,82423,2,0,P|295:175|262:204,1,82.5000031471254,2|0,0:0|0:0,0:0:0:0:
272,67,82658,2,0,P|239:153|268:186,1,82.5000031471254,0|0,0:0|0:0,0:0:0:0:
358,119,82892,6,0,B|363:55|363:55|385:35,1,82.5000031471254,6|0,0:0|0:0,0:0:0:0:
495,138,83126,2,0,B|490:202|490:202|476:214,1,82.5000031471254,2|0,0:0|0:0,0:0:0:0:
438,246,83361,1,4,0:0:0:0:
398,275,83478,1,0,0:0:0:0:
358,304,83595,1,4,0:0:0:0:
318,333,83712,1,0,0:0:0:0:
276,360,83830,6,0,P|244:359|184:308,3,82.5000031471254,4|0|0|0,0:0|0:0|0:0|0:0,0:0:0:0:
104,312,84298,2,0,L|44:264,1,65.9999979858399,4|0,0:0|0:0,0:0:0:0:
152,240,84533,2,0,L|204:192,1,65.9999979858399
96,164,84767,2,0,L|40:104,1,65.9999979858399,4|0,0:0|0:0,0:0:0:0:
156,104,85001,2,0,L|236:24,1,65.9999979858399
228,137,85236,5,6,0:0:0:0:
256,169,85353,1,0,0:0:0:0:
314,169,85470,1,0,0:0:0:0:
342,137,85587,1,0,0:0:0:0:
379,103,85705,2,0,P|376:28|426:-6,1,82.5000031471254,2|0,0:0|0:0,0:0:0:0:
377,25,85939,2,0,P|452:22|485:76,1,82.5000031471254,2|0,0:0|0:0,0:0:0:0:
379,104,86173,2,0,B|388:155|365:195|365:195,3,82.5000031471254,2|0|2|0,0:0|0:0|0:0|0:0,0:0:0:0:
369,184,86642,5,6,0:3:0:0:
361,198,86759,1,0,0:3:0:0:
340,242,86876,1,2,0:3:0:0:
343,258,86994,1,0,0:3:0:0:
347,307,87111,5,6,0:3:0:0:
331,310,87228,1,0,0:3:0:0:
282,322,87345,1,6,0:3:0:0:
267,322,87462,1,0,0:3:0:0:
228,322,87580,5,6,0:3:0:0:
211,318,87697,1,0,0:3:0:0:
163,307,87814,1,6,0:3:0:0:
167,290,87931,1,0,0:3:0:0:
170,242,88048,5,6,0:3:0:0:
163,226,88165,1,0,0:3:0:0:
140,183,88283,1,6,0:3:0:0:
143,166,88400,1,0,0:3:0:0:
154,127,88517,5,2,0:3:0:0:
154,127,88634,1,2,0:3:0:0:
154,127,88751,2,0,L|216:194,1,82.5000031471254,6|4,0:0|0:0,0:3:0:0:
240,215,88986,1,6,0:3:0:0:
288,223,89103,1,2,0:3:0:0:
332,185,89220,1,2,0:3:0:0:
382,142,89337,1,2,0:3:0:0:
435,89,89455,1,6,0:3:0:0:
254,132,89689,6,0,L|254:194,1,55,8|0,0:0|0:0,0:0:0:0:
255,88,90040,5,4,0:0:0:0:
200,184,90158,1,2,0:0:0:0:
311,184,90275,1,12,0:0:0:0:
337,231,90392,2,4,L|367:295,1,55,0|0,0:0|0:0,0:0:0:0:
256,288,90626,2,0,L|256:207,1,55
179,226,90861,2,4,B|135:309|135:309|46:320,1,165,0|0,0:0|0:0,0:0:0:0:
88,224,91330,6,0,B|80:200|80:200|96:204|96:204|96:180|96:180|144:72|197:73,1,219.999993286133,6|0,0:0|0:0,0:0:0:0:
264,84,91798,1,6,0:0:0:0:
392,51,91955,1,4,0:0:0:0:
468,158,92111,1,4,0:0:0:0:
412,276,92267,6,0,L|368:344,2,73.3333333333333,6|0|4,0:0|0:0|0:0,0:0:0:0:
468,157,92736,1,6,0:0:0:0:
412,276,92892,1,0,0:0:0:0:
271,274,93048,1,0,0:0:0:0:
271,274,93205,2,0,B|200:251|142:292|142:292|71:182,1,256.666658833822,6|0,0:0|0:0,0:0:0:0:
76,190,93673,5,6,0:0:0:0:
284,38,93830,1,2,0:0:0:0:
311,294,93986,1,2,0:0:0:0:
153,81,94142,5,6,0:0:0:0:
163,275,94298,1,2,0:0:0:0:
337,168,94455,1,2,0:0:0:0:
169,172,94611,2,0,B|239:126|298:220|351:155,1,175.999994628906,6|0,0:0|0:0,0:0:0:0:
289,129,95080,6,0,P|315:223|307:219,1,256.666658833822,6|0,0:0|0:0,0:0:0:0:
407,282,95548,1,6,0:0:0:0:
477,155,95705,1,0,0:0:0:0:
411,27,95861,1,0,0:0:0:0:
267,29,96017,6,0,P|217:101|177:97,1,102.666663533529,4|0,0:0|0:0,0:0:0:0:
110,29,96330,1,0,0:0:0:0:
51,136,96486,1,4,0:0:0:0:
113,238,96642,1,0,0:0:0:0:
47,354,96798,1,0,0:0:0:0:
46,355,96955,2,0,B|140:350|140:350|157:296|152:255|110:237,1,219.999993286133,6|0,0:0|0:0,0:0:0:0:
184,175,97423,5,2,0:0:0:0:
184,175,97580,2,0,L|262:256,1,87.9999973144532
269,144,97892,2,0,L|352:70,2,87.9999973144532,4|0|4,0:0|0:0|0:0,0:0:0:0:
320,271,98361,6,4,B|379:271|379:271|495:335,2,146.666666666667,6|0|4,0:0|0:0|0:0,0:0:0:0:
164,312,98830,1,2,0:0:0:0:
92,76,99298,5,4,0:0:0:0:
159,169,99455,2,0,P|172:122|222:93,1,87.9999973144532,0|0,0:0|0:0,0:0:0:0:
306,0,99767,1,4,0:0:0:0:
343,138,99923,1,0,0:0:0:0:
201,98,100080,1,0,0:0:0:0:
256,192,100236,6,0,P|284:224|326:234,2,87.9999973144532,2|0|4,0:0|0:0|0:0,0:0:0:0:
256,192,100705,2,0,B|254:136|317:177|341:277|137:274|186:171|317:64|245:21,1,275.000010490418,4|0,0:0|0:0,0:0:0:0:
262,63,101173,5,6,0:0:0:0:
494,134,101330,1,2,0:0:0:0:
402,232,101486,1,2,0:0:0:0:
402,160,101642,5,6,0:0:0:0:
482,272,101798,1,2,0:0:0:0:
290,337,101955,1,2,0:0:0:0:
152,316,102111,2,0,B|132:300|132:300|124:260|100:200|140:128,1,175.999994628906,6|2,0:0|0:0,0:0:0:0:
192,72,102580,1,2,0:0:0:0:
360,68,103048,5,0,0:0:0:0:
316,172,103205,1,0,0:0:0:0:
316,172,103361,1,0,0:0:0:0:
424,216,103517,1,0,0:0:0:0:
436,328,103673,2,0,B|384:372|324:328,1,87.9999973144532
240,344,103986,1,0,0:0:0:0:
128,316,104142,2,0,L|80:236,1,87.9999973144532
20,120,104455,6,0,B|152:120|152:120|196:188|196:188|280:140,1,275.000010490418,4|0,0:0|0:0,0:0:0:0:
312,128,104923,1,0,0:0:0:0:
432,76,105080,1,0,0:0:0:0:
492,196,105236,1,0,0:0:0:0:
361,268,105392,6,0,P|304:320|208:338,1,165.000006294251,6|0,0:0|0:0,0:0:0:0:
232,268,105705,2,0,P|152:257|92:175,1,165.000006294251,2|0,0:0|0:0,0:0:0:0:
178,172,106017,1,6,0:0:0:0:
60,204,106330,6,0,P|150:293|280:296,1,219.999993286133,4|0,0:0|0:0,0:0:0:0:
238,306,106798,1,2,0:0:0:0:
360,384,106955,1,0,0:0:0:0:
460,240,107111,1,0,0:0:0:0:
372,128,107267,6,0,B|392:80|392:80|432:48,2,87.9999973144532,2|0|2,0:0|0:0|0:0,0:0:0:0:
136,48,107736,1,0,0:0:0:0:
40,124,107892,1,0,0:0:0:0:
136,48,108048,1,0,0:0:0:0:
372,128,108205,2,0,P|344:56|240:32,1,175.999994628906
160,128,108673,5,6,0:0:0:0:
300,204,108830,1,2,0:0:0:0:
380,244,108986,5,2,0:0:0:0:
160,268,109142,1,2,0:0:0:0:
92,316,109298,5,2,0:0:0:0:
296,348,109455,1,2,0:0:0:0:
374,382,109611,2,0,B|448:352|448:352|486:317|488:208,1,220.000008392334,6|6,0:0|0:0,0:0:0:0:
474,298,110080,6,0,B|409:238|409:238|387:139|463:121|463:121,1,219.999993286133,4|0,0:0|0:0,0:0:0:0:
451,125,110548,1,4,0:0:0:0:
334,168,110705,1,0,0:0:0:0:
255,23,110861,1,0,0:0:0:0:
181,172,111017,1,4,0:0:0:0:
61,125,111173,1,4,0:0:0:0:
181,172,111330,1,0,0:0:0:0:
127,282,111486,6,0,B|92:338|92:338|31:348,2,87.9999973144532,6|0|0,0:0|0:0|0:0,0:0:0:0:
215,322,111955,1,6,0:0:0:0:
236,323,112033,1,0,0:0:0:0:
257,322,112111,1,0,0:0:0:0:
278,317,112189,1,0,0:0:0:0:
296,312,112267,1,0,0:0:0:0:
368,288,112423,1,2,0:0:0:0:
456,380,112580,1,0,0:0:0:0:
502,262,112736,1,0,0:0:0:0:
380,158,112892,5,6,0:0:0:0:
397,108,113048,1,0,0:0:0:0:
415,56,113205,1,0,0:0:0:0:
260,164,113361,5,4,0:0:0:0:
415,56,113517,1,0,0:0:0:0:
488,224,113673,1,0,0:0:0:0:
488,224,113830,6,2,L|473:162,5,55.0000020980836,4|0|0|0|0|0,0:0|0:0|0:0|0:0|0:0|0:0,0:0:0:0:
488,224,114298,1,4,0:0:0:0:
397,108,114455,1,0,0:0:0:0:
260,164,114611,1,0,0:0:0:0:
260,164,114767,5,4,0:0:0:0:
125,236,114923,1,0,0:0:0:0:
57,134,115080,1,0,0:0:0:0:
162,38,115236,2,0,B|208:-6|277:6|277:6,1,110.000004196167,2|0,0:0|0:0,0:0:0:0:
263,4,115548,1,0,0:0:0:0:
381,61,115705,2,2,B|388:102|349:168|349:168|367:199|405:203|405:203|371:277|377:317,1,275.000010490418
376,290,116173,5,6,0:0:0:0:
186,233,116330,1,2,0:0:0:0:
394,298,116486,1,2,0:0:0:0:
172,225,116642,1,6,0:0:0:0:
408,305,116798,1,2,0:0:0:0:
191,348,116955,5,0,0:0:0:0:
272,249,117111,1,2,0:0:0:0:
293,218,117189,1,0,0:0:0:0:
315,188,117267,1,0,0:0:0:0:
336,157,117345,1,0,0:0:0:0:
357,126,117423,1,0,0:0:0:0:
372,96,117501,1,0,0:0:0:0:
396,64,117580,2,0,B|400:85|400:85|420:79|432:53|420:-57|207:138|306:156|206:89|191:66,1,275.000010490418,4|0,0:0|0:0,0:0:0:0:
144,60,118048,6,0,L|36:16,2,87.9999973144532,4|0|0,0:0|0:0|0:0,0:0:0:0:
84,160,118517,1,0,0:0:0:0:
196,180,118673,1,2,0:0:0:0:
84,160,118830,1,0,0:0:0:0:
120,268,118986,2,0,L|56:336,1,87.9999973144532
4,384,119298,5,0,0:0:0:0:
168,384,119455,2,4,B|260:336|352:388|352:388,1,175.999994628906
440,320,119923,1,0,0:0:0:0:
512,188,120080,1,0,0:0:0:0:
436,52,120236,1,0,0:0:0:0:
376,156,120392,1,0,0:0:0:0:
368,172,120470,1,0,0:0:0:0:
360,188,120548,2,0,L|316:256,1,55.0000020980836
256,196,120705,5,6,0:0:0:0:
240,224,120783,1,0,0:0:0:0:
224,252,120861,2,0,L|192:300,1,55.0000020980836
104,260,121017,5,6,1:0:0:0:
28,152,121330,5,4,0:0:0:0:
160,112,121486,2,0,L|228:8,1,102.666663533529,0|8,0:0|0:0,0:0:0:0:
256,140,121798,1,0,0:0:0:0:
295,26,121955,2,0,L|352:112,1,102.666663533529,0|8,0:0|0:0,0:0:0:0:
484,152,122267,5,4,0:0:0:0:
376,228,122423,1,0,0:0:0:0:
256,140,122580,1,8,0:0:0:0:
256,140,122736,1,0,0:0:0:0:
136,228,122892,1,0,0:0:0:0:
28,152,123048,1,8,0:0:0:0:
68,300,123205,6,0,B|16:348|0:400|0:400,2,102.666663533529,4|0|8,0:0|0:0|0:0,0:0:0:0:
172,256,123673,1,0,0:0:0:0:
256,380,123830,1,0,0:0:0:0:
404,336,123986,1,8,0:0:0:0:
316,252,124142,5,4,0:0:0:0:
289,214,124220,1,0,0:0:0:0:
271,171,124298,1,0,0:0:0:0:
262,126,124376,1,0,0:0:0:0:
265,80,124454,1,8,0:0:0:0:
280,41,124532,1,0,0:0:0:0:
324,54,124610,1,0,0:0:0:0:
370,58,124688,1,0,0:0:0:0:
416,52,124767,2,0,L|460:40,6,25.6666658833822,8|0|0|0|0|0|0,0:0|0:0|0:0|0:0|0:0|0:0|0:0,0:0:0:0:
440,45,125080,5,4,0:0:0:0:
496,152,125236,2,0,L|464:268,1,102.666663533529,0|8,0:0|0:0,0:0:0:0:
348,224,125548,1,0,0:0:0:0:
292,332,125705,2,0,B|208:324|228:240|228:240,1,102.666663533529,0|8,0:0|0:0,0:0:0:0:
168,160,126017,1,4,0:0:0:0:
76,0,126173,1,0,0:0:0:0:
75,160,126330,1,8,0:0:0:0:
214,80,126486,5,0,0:0:0:0:
29,80,126642,1,0,0:0:0:0:
168,0,126798,1,8,0:0:0:0:
292,0,126955,2,0,L|320:56,1,51.3333317667644,4|0,0:0|0:0,0:0:0:0:
376,48,127111,2,0,L|404:104,1,51.3333317667644
460,100,127267,2,0,L|488:156,1,51.3333317667644,8|0,0:0|0:0,0:0:0:0:
480,212,127423,6,0,B|400:280|424:324|424:324,1,102.666663533529
280,280,127736,1,8,0:0:0:0:
208,368,127892,2,0,B|72:280|114:190|128:184|128:184|148:212|180:212|180:212,1,275.000010490418,4|0,0:0|0:0,0:0:0:0:
200,228,128361,1,2,0:0:0:0:
235,242,128439,1,0,0:0:0:0:
273,243,128517,1,0,0:0:0:0:
310,233,128595,1,0,0:0:0:0:
345,216,128673,1,2,0:0:0:0:
104,212,128830,6,0,L|132:304,1,87.9999973144532,4|0,0:0|0:0,0:0:0:0:
152,364,129142,1,8,0:0:0:0:
408,172,129298,2,0,L|380:80,1,87.9999973144532
360,20,129610,1,8,0:0:0:0:
256,0,129767,2,0,L|188:96|188:96,1,87.9999973144532,0|0,0:0|0:0,0:0:0:0:
256,192,130080,1,8,0:0:0:0:
256,384,130236,5,6,0:0:0:0:
180,308,130392,1,0,0:0:0:0:
256,192,130548,1,8,0:0:0:0:
368,268,130705,2,0,B|408:328|408:328|464:348|464:348,2,110.000004196167,4|0|8,0:0|0:0|0:0,0:0:0:0:
144,116,131173,2,0,B|104:56|104:56|48:36|48:36,2,110.000004196167,0|0|8,0:0|0:0|0:0,0:0:0:0:
92,212,131642,5,4,0:0:0:0:
118,239,131720,1,0,0:0:0:0:
145,267,131798,1,0,0:0:0:0:
172,294,131876,1,0,0:0:0:0:
199,322,131955,2,0,L|244:368,1,55.0000020980836,8|0,0:0|0:0,0:0:0:0:
291,299,132111,5,0,0:0:0:0:
328,291,132189,1,0,0:0:0:0:
360,270,132267,1,0,0:0:0:0:
380,237,132345,1,0,0:0:0:0:
385,199,132423,1,8,0:0:0:0:
304,104,132580,6,0,B|328:52|400:48|400:48,1,110.000004196167,4|0,0:0|0:0,0:0:0:0:
220,56,132892,1,8,0:0:0:0:
144,148,133048,2,0,B|131:211|168:256|168:256,1,110.000004196167
220,360,133361,1,8,0:0:0:0:
365,259,133517,5,4,0:0:0:0:
420,296,133673,1,0,0:0:0:0:
476,332,133830,1,8,0:0:0:0:
476,332,133986,5,0,0:0:0:0:
368,192,134142,1,0,0:0:0:0:
476,52,134298,1,8,0:0:0:0:
319,34,134455,5,4,0:0:0:0:
159,259,134611,1,0,0:0:0:0:
362,241,134767,1,8,0:0:0:0:
88,215,134923,5,4,0:0:0:0:
362,241,135080,1,4,0:0:0:0:
149,142,135236,1,8,0:0:0:0:
360,325,135392,5,4,0:0:0:0:
152,200,135548,1,4,0:0:0:0:
352,124,135705,1,8,0:0:0:0:
226,24,135861,5,4,0:0:0:0:
125,300,136017,1,4,0:0:0:0:
363,241,136173,1,12,0:0:0:0:
83,248,137267,5,2,0:0:0:0:
152,168,137423,1,0,0:0:0:0:
220,249,137580,1,8,0:0:0:0:
308,308,137736,2,0,B|376:372|420:311|420:311,2,73.3333333333333,0|0|8,0:0|0:0|0:0,0:0:0:0:
396,248,138205,6,2,B|424:189|328:124|239:176|239:176|197:114|288:47,1,366.666666666667,4|0,0:0|0:0,0:0:0:0:
366,15,139142,1,0,0:0:0:0:
443,71,139298,2,0,P|487:101|508:166,1,73.3333333333333
508,212,139611,5,0,0:0:0:0:
480,312,139767,1,0,0:0:0:0:
398,375,139923,2,2,B|330:330|273:421|222:358,1,165.000006294251,0|0,0:0|0:0,0:0:0:0:
189,300,140548,1,0,0:0:0:0:
265,256,140705,1,0,0:0:0:0:
186,215,140861,1,0,0:0:0:0:
106,178,141017,2,0,B|66:158|46:108|46:107,2,73.3333333333333,0|0|0,0:0|0:0|0:0,0:0:0:0:
183,136,141486,5,0,0:0:0:0:
261,95,141642,1,0,0:0:0:0:
346,157,141798,1,0,0:0:0:0:
356,171,141876,1,0,0:0:0:0:
365,184,141955,2,0,P|363:245|284:303,1,146.666666666667
207,290,142345,1,0,0:0:0:0:
207,290,142424,2,0,P|156:258|144:160,1,146.666666666667
194,100,142814,1,0,0:0:0:0:
194,100,142893,2,0,P|248:72|338:111,1,146.666666666667
255,193,143361,2,0,B|291:189|296:210|256:254|186:228|179:107|322:158|312:184,2,165.000006294251,0|0|0,0:0|0:0|0:0,0:0:0:0:
58,66,144767,6,4,L|125:135,1,73.3333333333333
184,60,145080,1,10,0:0:0:0:
188,192,145236,2,2,B|284:192|284:192|324:192|324:192|304:140|304:140|260:128|260:128,1,220
404,96,146173,6,2,B|476:164|476:164|424:212,1,146.666666666667
428,212,146564,1,0,0:0:0:0:
412,228,146642,1,4,0:0:0:0:
448,316,146798,1,0,0:0:0:0:
372,376,146955,1,8,0:0:0:0:
256,328,147111,1,8,0:0:0:0:
144,372,147267,1,0,0:0:0:0:
72,296,147423,1,12,0:0:0:0:
72,276,147501,1,0,0:0:0:0:
72,252,147580,2,2,B|72:216|-44:268|-40:80|76:104|76:104,1,220
100,104,148517,6,0,B|144:88|152:64|152:64|172:136,1,110,0|0,0:0|0:0,0:0:0:0:
256,184,148830,1,0,0:0:0:0:
412,104,148986,2,0,B|368:88|360:64|360:64|340:136,1,110
256,184,149298,1,0,0:0:0:0:
112,260,149455,6,0,B|152:332|228:316,1,110,4|8,0:0|0:0,0:0:0:0:
396,276,149923,6,2,B|392:312|332:320,1,82.5000031471254,4|8,0:0|0:0,0:0:0:0:
256,129,150392,6,0,L|256:184,1,55,4|8,0:0|0:0,0:0:0:0:
256,184,150861,1,4,0:0:0:0:
