osu file format v12

[General]
AudioFilename: Knife Party - Rage Valley.mp3
AudioLeadIn: 3
PreviewTime: -1
Countdown: 1
SampleSet: Soft
StackLeniency: 0.7
Mode: 0
LetterboxInBreaks: 1
WidescreenStoryboard: 0

[Editor]
DistanceSpacing: 1
BeatDivisor: 8
GridSize: 32

[Metadata]
Title:Rage Valley
TitleUnicode:Rage Valley
Artist:Knife Party
ArtistUnicode:Knife Party
Creator:-Accelerator
Version:DeadStep
Source:
Tags:
BeatmapID:377936
BeatmapSetID:153808

[Difficulty]
HPDrainRate:9
CircleSize:4
OverallDifficulty:7
ApproachRate:9
SliderMultiplier:2.8
SliderTickRate:1

[Events]
//Background and Video events
0,0,"BG.jpg",0,0
//Break Periods
//Storyboard Layer 0 (Background)
//Storyboard Layer 1 (Fail)
//Storyboard Layer 2 (Pass)
//Storyboard Layer 3 (Foreground)
//Storyboard Sound Samples
//Background Colour Transformations
3,100,163,162,255

[TimingPoints]
1259,468.75,4,2,0,100,1,0
15673,-200,4,2,0,100,0,0
16141,-100,4,2,0,100,0,0

[HitObjects]
64,192,1259,2,0,L|32:96,1,70
128,160,1493,2,0,L|128:64,1,70
192,128,1727,2,0,L|224:64,1,70
256,96,1962,2,0,L|352:32,1,70
352,192,2196,6,0,L|416:288,1,70
320,256,2430,2,0,L|288:320,1,70
256,288,2665,2,0,L|160:288,1,70
224,224,2899,2,0,L|160:192,1,70
128,128,3134,5,0,0:0:0:0:
224,128,3251,1,0,0:0:0:0:
224,64,3368,2,0,L|224:160,1,70
320,128,3602,1,0,0:0:0:0:
224,128,3719,1,0,0:0:0:0:
224,192,3837,2,0,L|224:96,1,70
128,320,4071,5,0,0:0:0:0:
192,320,4188,1,0,0:0:0:0:
256,320,4305,1,0,0:0:0:0:
320,320,4423,1,0,0:0:0:0:
416,96,4540,5,0,0:0:0:0:
352,96,4657,1,0,0:0:0:0:
288,96,4774,1,0,0:0:0:0:
224,96,4891,1,0,0:0:0:0:
256,192,5009,6,0,L|320:256,1,70
256,192,5243,2,0,L|192:128,1,70
256,192,5477,2,0,L|320:128,1,70
256,192,5712,2,0,L|192:256,1,70
320,256,5946,1,0,0:0:0:0:
192,128,6063,1,0,0:0:0:0:
320,128,6180,1,0,0:0:0:0:
192,256,6298,1,0,0:0:0:0:
192,128,6415,5,0,0:0:0:0:
320,128,6532,1,0,0:0:0:0:
320,256,6649,1,0,0:0:0:0:
192,256,6766,1,0,0:0:0:0:
160,160,6884,1,0,0:0:0:0:
288,96,6994,1,0,0:0:0:0:
352,224,7112,1,0,0:0:0:0:
224,288,7230,1,0,0:0:0:0:
128,128,7348,1,0,0:0:0:0:
320,64,7467,1,0,0:0:0:0:
384,256,7585,1,0,0:0:0:0:
192,320,7703,1,0,0:0:0:0:
160,96,7821,5,0,0:0:0:0:
352,96,7938,1,0,0:0:0:0:
352,288,8055,1,0,0:0:0:0:
160,288,8173,1,0,0:0:0:0:
160,64,8290,2,0,L|288:64,1,70
416,96,8524,2,0,L|416:192,1,70
352,352,8759,2,0,L|256:352,1,70
96,288,8993,2,0,L|96:192,1,70
320,64,9227,5,0,0:0:0:0:
288,224,9344,1,0,0:0:0:0:
128,160,9462,1,0,0:0:0:0:
224,32,9579,1,0,0:0:0:0:
352,160,9696,1,0,0:0:0:0:
224,256,9813,1,0,0:0:0:0:
128,128,9930,1,0,0:0:0:0:
288,32,10048,1,0,0:0:0:0:
256,160,10165,1,0,0:0:0:0:
192,96,10282,1,0,0:0:0:0:
288,96,10399,1,0,0:0:0:0:
192,192,10516,1,0,0:0:0:0:
192,192,10629,1,0,0:0:0:0:
128,288,10751,5,0,0:0:0:0:
352,256,10868,1,0,0:0:0:0:
192,96,10985,1,0,0:0:0:0:
256,320,11102,1,0,0:0:0:0:
384,128,11219,1,0,0:0:0:0:
96,192,11337,1,0,0:0:0:0:
384,288,11456,1,0,0:0:0:0:
224,32,11574,1,0,0:0:0:0:
256,128,11692,5,0,0:0:0:0:
320,192,11805,1,0,0:0:0:0:
256,256,11923,1,0,0:0:0:0:
192,192,12040,1,0,0:0:0:0:
320,128,12157,1,0,0:0:0:0:
320,256,12274,1,0,0:0:0:0:
192,256,12391,1,0,0:0:0:0:
192,128,12509,1,0,0:0:0:0:
384,160,12626,1,0,0:0:0:0:
288,320,12743,1,0,0:0:0:0:
128,224,12860,1,0,0:0:0:0:
224,64,12977,1,0,0:0:0:0:
416,224,13094,5,0,0:0:0:0:
224,352,13212,1,0,0:0:0:0:
96,160,13329,1,0,0:0:0:0:
288,32,13446,1,0,0:0:0:0:
384,288,13563,1,0,0:0:0:0:
160,320,13680,1,0,0:0:0:0:
128,96,13798,1,0,0:0:0:0:
320,96,13915,1,0,0:0:0:0:
352,256,14032,1,0,0:0:0:0:
192,288,14149,1,0,0:0:0:0:
160,128,14266,1,0,0:0:0:0:
320,128,14384,5,0,0:0:0:0:
320,256,14501,1,0,0:0:0:0:
192,256,14618,1,0,0:0:0:0:
192,128,14735,1,0,0:0:0:0:
288,192,14852,6,0,L|384:192,1,70
192,192,15087,1,0,0:0:0:0:
96,192,15204,1,0,0:0:0:0:
192,128,15321,2,0,L|96:128,1,70
288,128,15555,1,0,0:0:0:0:
384,128,15673,1,0,0:0:0:0:
256,96,15790,2,0,L|256:192,1,70
256,288,16259,5,0,0:0:0:0:
320,288,16376,1,0,0:0:0:0:
192,288,16493,1,0,0:0:0:0:
288,224,16610,1,0,0:0:0:0:
224,224,16727,1,0,0:0:0:0:
320,160,16844,1,0,0:0:0:0:
256,160,16962,1,0,0:0:0:0:
192,160,17079,1,0,0:0:0:0:
288,96,17196,6,0,L|192:96,1,70
256,32,17430,1,0,0:0:0:0:
256,32,17548,1,0,0:0:0:0:
384,64,17665,1,0,0:0:0:0:
384,64,17782,1,0,0:0:0:0:
448,160,17899,1,0,0:0:0:0:
448,160,18016,1,0,0:0:0:0:
448,288,18134,1,0,0:0:0:0:
448,288,18251,1,0,0:0:0:0:
352,320,18368,1,0,0:0:0:0:
352,320,18485,1,0,0:0:0:0:
256,320,18602,6,0,L|160:320,1,70
256,256,18837,2,0,L|160:256,1,70
256,192,19071,2,0,L|160:192,1,70
256,128,19305,2,0,L|160:128,1,70
256,64,19540,1,0,0:0:0:0:
384,128,19657,1,0,0:0:0:0:
384,256,19774,1,0,0:0:0:0:
256,352,19891,1,0,0:0:0:0:
128,288,20009,6,0,L|256:288,1,70
128,224,20243,2,0,L|224:224,1,70
128,160,20477,2,0,L|224:160,1,70
128,96,20712,2,0,L|224:96,1,70
416,96,20946,5,0,0:0:0:0:
64,192,21063,1,0,0:0:0:0:
416,288,21180,1,0,0:0:0:0:
128,288,21298,2,0,L|224:288,1,70
128,96,21532,2,0,L|224:96,1,70
416,160,21766,2,0,L|288:160,1,70
416,352,22001,2,0,L|320:352,1,70
96,352,22235,2,0,L|192:352,1,70
288,256,22469,5,0,0:0:0:0:
192,288,22587,1,0,0:0:0:0:
352,128,22704,1,0,0:0:0:0:
160,128,22821,1,0,0:0:0:0:
352,288,22938,1,0,0:0:0:0:
256,64,23055,1,0,0:0:0:0:
256,320,23173,1,0,0:0:0:0:
32,224,23290,6,0,L|128:224,1,70
448,224,23524,2,0,L|352:224,1,70
256,192,23759,1,0,0:0:0:0:
352,192,23876,1,0,0:0:0:0:
352,96,23993,2,0,L|288:160,1,70
256,64,24227,1,0,0:0:0:0:
256,192,24344,1,0,0:0:0:0:
256,64,24462,2,0,L|192:96,1,70
256,192,24696,1,0,0:0:0:0:
160,96,24813,5,0,0:0:0:0:
160,192,24930,2,0,L|256:192,1,70
160,192,25165,1,0,0:0:0:0:
160,288,25282,1,0,0:0:0:0:
256,192,25399,1,0,0:0:0:0:
160,288,25516,1,0,0:0:0:0:
256,288,25634,1,0,0:0:0:0:
256,288,25751,1,0,0:0:0:0:
256,288,25868,1,0,0:0:0:0:
256,192,25985,1,0,0:0:0:0:
256,288,26102,5,0,0:0:0:0:
320,288,26219,1,0,0:0:0:0:
320,288,26337,1,0,0:0:0:0:
320,288,26454,1,0,0:0:0:0:
320,192,26571,1,0,0:0:0:0:
320,288,26688,1,0,0:0:0:0:
320,288,26805,1,0,0:0:0:0:
320,288,26923,5,0,0:0:0:0:
384,288,27040,1,0,0:0:0:0:
384,192,27157,1,0,0:0:0:0:
384,288,27274,5,0,0:0:0:0:
384,288,27391,1,0,0:0:0:0:
384,224,27509,1,4,0:0:0:0:
384,128,27743,1,0,0:0:0:0:
384,128,27860,1,0,0:0:0:0:
384,128,27977,1,4,0:0:0:0:
256,128,28212,5,0,0:0:0:0:
256,192,28329,1,0,0:0:0:0:
256,256,28446,1,4,0:0:0:0:
128,128,28680,5,0,0:0:0:0:
256,320,28797,1,0,0:0:0:0:
384,128,28914,1,4,0:0:0:0:
64,192,29149,5,0,0:0:0:0:
256,192,29266,1,0,0:0:0:0:
448,192,29383,1,4,0:0:0:0:
352,64,29501,1,0,0:0:0:0:
256,320,29618,1,0,0:0:0:0:
160,64,29735,1,0,0:0:0:0:
256,192,29852,1,0,0:0:0:0:
256,320,29969,1,0,0:0:0:0:
256,64,30087,1,0,0:0:0:0:
128,320,30204,1,0,0:0:0:0:
384,320,30321,5,0,0:0:0:0:
352,320,30380,1,0,0:0:0:0:
320,320,30438,1,0,0:0:0:0:
288,320,30497,1,0,0:0:0:0:
256,320,30555,1,0,0:0:0:0:
224,320,30614,1,0,0:0:0:0:
192,320,30673,1,0,0:0:0:0:
160,320,30731,1,0,0:0:0:0:
128,320,30790,5,4,0:0:0:0:
384,160,31259,2,0,B|400:201|384:256|384:256,1,70
288,288,31493,2,0,P|255:293|192:288,1,70
128,224,31727,2,0,P|121:172|128:128,1,70
224,64,31962,2,0,P|244:57|320:64,1,70
352,192,32196,2,0,B|352:256|320:288|320:288,1,70
224,288,32430,2,0,P|192:288|160:256,1,70
128,160,32664,2,0,P|128:128|160:96,1,70
256,64,32899,2,0,P|288:64|320:96,1,70
352,224,33134,2,0,P|320:256|288:256,1,70
160,256,33368,2,0,P|128:224|128:192,1,70
160,96,33602,2,0,P|192:64|224:64,1,70
320,96,33837,2,0,P|352:128|352:160,1,70
224,256,34071,2,0,B|256:288|288:288|288:288,1,70
128,160,34305,2,0,P|96:192|96:224,1,70
256,64,34540,2,0,P|224:32|192:32,1,70
320,192,34774,2,0,P|352:192|384:160,1,70
320,32,35009,6,0,L|288:128,1,70
224,256,35243,2,0,L|192:352,1,70
384,128,35478,2,0,L|320:160,1,70
224,192,35712,2,0,L|160:224,1,70
384,256,35946,2,0,L|288:224,1,70
192,160,36180,2,0,L|128:128,1,70
320,352,36415,2,0,L|288:288,1,70
224,128,36649,2,0,L|192:64,1,70
384,192,36884,6,0,L|288:192,1,70
192,192,37118,2,0,L|128:192,2,35
384,96,37352,2,0,L|320:128,1,70
192,192,37587,2,0,L|128:192,2,35
384,288,37821,2,0,L|320:256,1,70
192,192,38055,2,0,L|128:192,2,35
288,192,38290,5,0,0:0:0:0:
320,256,38407,1,0,0:0:0:0:
352,128,38524,1,0,0:0:0:0:
416,224,38641,1,0,0:0:0:0:
320,320,38759,1,0,0:0:0:0:
160,256,38876,1,0,0:0:0:0:
256,64,38993,1,0,0:0:0:0:
448,160,39110,1,0,0:0:0:0:
256,288,39227,1,0,0:0:0:0:
160,192,39344,1,0,0:0:0:0:
256,96,39462,1,0,0:0:0:0:
352,192,39579,1,0,0:0:0:0:
160,128,39696,1,0,0:0:0:0:
320,96,39813,5,0,0:0:0:0:
352,256,39930,1,0,0:0:0:0:
192,288,40048,1,0,0:0:0:0:
192,64,40165,1,0,0:0:0:0:
384,128,40282,1,0,0:0:0:0:
320,320,40399,1,0,0:0:0:0:
128,256,40516,1,0,0:0:0:0:
160,96,40634,5,0,0:0:0:0:
160,288,40751,1,0,0:0:0:0:
352,288,40868,1,0,0:0:0:0:
352,96,40985,1,0,0:0:0:0:
160,192,41102,1,0,0:0:0:0:
256,288,41219,1,0,0:0:0:0:
352,192,41337,1,0,0:0:0:0:
256,96,41454,1,0,0:0:0:0:
256,160,41571,6,0,L|192:160,1,35
224,192,41688,2,0,L|224:256,1,35
256,224,41805,2,0,L|320:224,1,35
288,192,41923,2,0,L|288:128,1,35
