osu file format v13

[General]
AudioFilename: Knife Party - Internet Friends (Revolvr Bootleg) [Free Download].mp3
AudioLeadIn: 0
PreviewTime: 182247
Countdown: 0
SampleSet: Soft
StackLeniency: 0.7
Mode: 0
LetterboxInBreaks: 0
WidescreenStoryboard: 0

[Editor]
Bookmarks: 25238,40238,55238,70238,85238,100238,115238,126019,163518,194876,211718,228560,271849,279349
DistanceSpacing: 2
BeatDivisor: 4
GridSize: 4
TimelineZoom: 1.4

[Metadata]
Title:Internet Friends
TitleUnicode:Internet Friends
Artist:Knife Party
ArtistUnicode:Knife Party
Creator:Tician
Version:lets see
Source:
Tags:
BeatmapID:561620
BeatmapSetID:243483

[Difficulty]
HPDrainRate:6
CircleSize:4
OverallDifficulty:8
ApproachRate:9.4
SliderMultiplier:1.92
SliderTickRate:2

[Events]
//Background and Video events
0,0,"knife party.jpg",0,0
//Break Periods
2,115438,125479
//Storyboard Layer 0 (Background)
//Storyboard Layer 1 (Fail)
//Storyboard Layer 2 (Pass)
//Storyboard Layer 3 (Foreground)
//Storyboard Sound Samples

[TimingPoints]
12113,468.75,4,2,0,100,1,0
62269,-66.6666666666667,4,2,0,100,0,0
62738,-100,4,2,0,100,0,0
77269,-66.6666666666667,4,2,0,100,0,0
77738,-100,4,2,0,100,0,0
83831,-66.6666666666667,4,2,0,100,0,0
85238,-133.333333333333,4,2,0,100,0,0
100238,-100,4,2,0,100,0,0
100238,-90.9090909090909,4,2,0,100,0,0
102113,-83.3333333333333,4,2,0,100,0,0
103988,-76.9230769230769,4,2,0,100,0,0
105863,-71.4285714285714,4,2,0,100,0,0
107738,-66.6666666666667,4,2,0,100,0,0
109613,-62.5,4,2,0,100,0,0
111488,-58.8235294117647,4,2,0,100,0,0
113363,-55.5555555555556,4,2,0,100,0,0
126019,468.75,4,2,0,100,1,0
129769,-90.9090909090909,4,2,0,100,0,0
130237,-83.3333333333333,4,2,0,100,0,0
130706,-76.9230769230769,4,2,0,100,0,0
131175,-71.4285714285714,4,2,0,100,0,0
131644,-66.6666666666667,4,2,0,100,0,0
132112,-62.5,4,2,0,100,0,0
133050,-33.3333333333334,4,2,0,100,0,0
133518,-133.333333333333,4,2,0,100,0,1
134222,-57.1428571428571,4,2,0,100,0,1
135394,-133.333333333333,4,2,0,100,0,1
136097,-57.1428571428571,4,2,0,100,0,1
137269,-83.3333333333333,4,2,0,100,0,1
141019,-133.333333333333,4,2,0,100,0,1
141722,-57.1428571428571,4,2,0,100,0,1
142894,-133.333333333333,4,2,0,100,0,1
143597,-57.1428571428571,4,2,0,100,0,1
144769,-66.6666666666667,4,2,0,100,0,1
146409,-50,4,2,0,100,0,1
146643,-50,4,2,0,100,0,0
148518,-83.3333333333333,4,2,0,100,0,1
150159,-50,4,2,0,100,0,1
150628,-83.3333333333333,4,2,0,100,0,1
156019,-100,4,2,0,100,0,1
163519,-133.333333333333,4,2,0,100,0,1
163987,-57.1428571428571,4,2,0,100,0,1
165394,-133.333333333333,4,2,0,100,0,1
165862,-57.1428571428571,4,2,0,100,0,1
167269,-83.3333333333333,4,2,0,100,0,1
168675,-66.6666666666667,4,2,0,100,0,1
168909,-83.3333333333333,4,2,0,100,0,1
170550,-66.6666666666667,4,2,0,100,0,1
170784,-83.3333333333333,4,2,0,100,0,1
171019,-57.1428571428571,4,2,0,100,0,1
176643,-100,4,2,0,100,0,0
178518,468.75,4,2,0,100,1,0
178986,468.75,4,2,0,100,1,0
179454,468.75,4,2,0,100,1,0
179952,468.75,4,2,0,100,1,0
180420,468.75,4,2,0,100,1,0
180918,468.75,4,2,0,100,1,0
181386,468.75,4,2,0,100,1,0
181883,468.75,4,2,0,100,1,0
182384,468.75,4,2,0,100,1,0
182882,468.75,4,2,0,100,1,0
183380,468.75,4,2,0,100,1,0
183878,468.75,4,2,0,100,1,0
184376,468.75,4,2,0,100,1,0
184874,468.75,4,2,0,100,1,0
185401,468.75,4,2,0,100,1,0
185928,468.75,4,2,0,100,1,0
186455,526.315789473684,4,2,0,100,1,0
190665,-66.6666666666667,4,2,0,100,0,0
194876,-133.333333333333,4,2,0,100,0,0
199086,-66.6666666666667,4,2,0,100,0,0
203297,-133.333333333333,4,2,0,100,0,0
207507,-66.6666666666667,4,2,0,100,0,0
211718,-133.333333333333,4,2,0,100,0,0
215928,-66.6666666666667,4,2,0,100,0,0
216718,-200,4,2,0,100,0,0
218033,-66.6666666666667,4,2,0,100,0,0
219086,-200,4,2,0,100,0,0
219612,-66.6666666666667,4,2,0,100,0,0
220139,-133.333333333333,4,2,0,100,0,0
224349,-66.6666666666667,4,2,0,100,0,0
248954,399.935789473684,4,2,0,100,1,0
249353,476.235789473685,4,2,0,100,1,0
264349,468.75,4,2,0,100,1,0
279349,-100,4,2,0,100,0,1
309349,-100,4,2,0,100,0,0

[Colours]
Combo1 : 255,0,0
Combo2 : 192,192,192
Combo3 : 92,92,92
Combo4 : 251,182,79
Combo5 : 108,108,0

[HitObjects]
132,184,12113,6,0,P|172:136|208:120,1,96
256,112,12464,1,0,0:0:0:0:
310,121,12581,2,0,P|352:145|380:184,1,96
420,292,13050,1,0,0:0:0:0:
320,348,13284,2,0,L|228:304,1,96
264,196,13753,1,0,0:0:0:0:
66,270,13988,6,0,L|152:228,1,96,0|0,0:0|0:0,0:0:0:0:
87,132,14456,2,0,P|132:115|180:116,1,96
264,196,14925,1,0,0:0:0:0:
348,120,15159,2,0,B|364:140|372:168|372:168|412:180,1,96
412,180,15628,1,0,0:0:0:0:
428,296,15863,6,0,L|368:280,1,48
269,299,16097,2,0,L|316:312,1,48
200,280,16331,2,0,B|176:268|176:268|148:264|148:264|132:240|104:232,1,96,0|0,0:0|0:0,0:0:0:0:
48,340,16800,1,0,0:0:0:0:
0,224,17034,2,0,B|8:212|8:212|4:200|4:200|8:188|8:188|4:176|4:176|12:152|4:128,1,96
236,40,17503,1,0,0:0:0:0:
120,84,17738,6,0,L|146:176,1,96
282,324,18206,2,0,L|256:232,1,96
260,108,18675,2,0,L|288:68,1,48
188,116,18909,2,0,L|160:156,1,48
288,68,19144,2,0,P|336:56|380:68,1,96
340,280,19613,6,0,L|340:184,1,96,0|0,0:0|0:0,0:0:0:0:
464,292,20081,2,0,P|436:336|388:356,1,96
236,332,20550,1,0,0:0:0:0:
108,232,20784,1,0,0:0:0:0:
48,92,21019,2,0,P|76:48|124:28,1,96
88,184,21488,6,0,P|35:181|-5:150,1,96
152,104,21956,2,0,P|176:150|169:201,1,96
48,92,22425,1,0,0:0:0:0:
172,192,22659,2,0,L|248:256,1,96
245,253,23128,1,0,0:0:0:0:
481,145,23363,6,0,L|408:84,1,96
296,140,23831,1,0,0:0:0:0:
321,161,23948,1,0,0:0:0:0:
347,183,24065,1,0,0:0:0:0:
373,204,24182,1,0,0:0:0:0:
399,226,24299,1,0,0:0:0:0:
424,348,24534,1,0,0:0:0:0:
304,308,24769,2,0,P|264:308|208:292,1,96
160,178,25120,1,0,0:0:0:0:
160,178,25238,6,0,P|200:178|256:194,1,96
109,269,25706,1,0,0:0:0:0:
253,192,25941,1,0,0:0:0:0:
66,180,26175,1,0,0:0:0:0:
381,121,26409,2,0,P|405:162|405:209,1,96
253,192,26878,1,0,0:0:0:0:
397,42,27113,6,0,P|438:65|461:106,1,96
404,209,27581,1,0,0:0:0:0:
305,133,27816,1,0,0:0:0:0:
416,217,28050,1,0,0:0:0:0:
294,125,28284,2,0,L|216:67,2,96,0|0|0,0:0|0:0|0:0,0:0:0:0:
298,269,28988,6,0,P|270:308|228:331,1,96
96,308,29456,1,0,0:0:0:0:
181,204,29691,1,0,0:0:0:0:
298,269,29925,1,0,0:0:0:0:
181,204,30159,2,0,P|132:191|88:202,1,96
228,330,30628,1,0,0:0:0:0:
261,165,30863,6,0,P|225:129|181:116,1,96
30,135,31331,2,0,L|22:159,6,24,0|0|0|0|0|0|0,0:0|0:0|0:0|0:0|0:0|0:0|0:0,0:0:0:0:
26,231,31800,1,0,0:0:0:0:
152,318,32034,2,0,L|182:324,4,24,0|0|0|0|0,0:0|0:0|0:0|0:0|0:0,0:0:0:0:
303,345,32503,1,0,0:0:0:0:
303,345,32620,1,0,0:0:0:0:
303,345,32738,6,0,P|332:308|337:260,1,96
271,121,33206,1,0,0:0:0:0:
248,273,33441,1,0,0:0:0:0:
391,218,33675,1,0,0:0:0:0:
239,194,33909,2,0,P|192:216|172:253,1,96
303,345,34378,1,0,0:0:0:0:
391,218,34613,6,0,P|399:171|381:126,1,96
239,194,35081,1,0,0:0:0:0:
381,127,35316,1,0,0:0:0:0:
306,260,35550,1,0,0:0:0:0:
289,107,35784,2,0,P|242:94|197:102,1,96
306,260,36253,1,0,0:0:0:0:
122,202,36488,6,0,P|109:249|117:294,1,96
264,364,36956,1,0,0:0:0:0:
214,208,37191,1,0,0:0:0:0:
350,297,37425,1,0,0:0:0:0:
308,139,37659,2,0,L|295:44,2,96,0|0|0,0:0|0:0|0:0,0:0:0:0:
202,301,38363,5,0,0:0:0:0:
202,301,38831,5,0,0:0:0:0:
163,112,39066,1,0,0:0:0:0:
318,223,39300,1,0,0:0:0:0:
244,45,39534,1,0,0:0:0:0:
128,198,39769,1,0,0:0:0:0:
318,223,40003,1,0,0:0:0:0:
318,223,40238,6,0,L|403:267,2,96,0|0|0,0:0|0:0|0:0,0:0:0:0:
424,160,40941,2,0,L|518:209,1,96,0|0,0:0|0:0,0:0:0:0:
204,276,41409,2,0,L|289:320,1,96,0|0,0:0|0:0,0:0:0:0:
220,152,41878,1,0,0:0:0:0:
61,222,42113,6,0,L|104:200,1,48
53,88,42347,2,0,L|52:136,1,48
172,145,42581,2,0,L|132:120,1,48
132,120,42816,1,0,0:0:0:0:
356,12,43050,1,0,0:0:0:0:
244,68,43284,2,0,L|322:123,1,96
244,68,43753,1,0,0:0:0:0:
268,316,43988,6,0,L|189:260,1,96
388,284,44456,2,0,P|460:292|496:280,1,96
440,168,44925,1,0,0:0:0:0:
340,96,45159,2,0,P|332:48|340:0,1,96
456,52,45628,1,0,0:0:0:0:
440,168,45863,6,0,P|404:200|348:220,1,96
72,168,46331,2,0,P|108:200|164:220,1,96
256,148,46800,1,0,0:0:0:0:
352,67,47034,2,0,P|394:46|442:39,2,96,0|0|0,0:0|0:0|0:0,0:0:0:0:
228,40,47738,5,0,0:0:0:0:
196,48,47855,1,0,0:0:0:0:
168,64,47972,1,0,0:0:0:0:
144,88,48089,1,0,0:0:0:0:
128,116,48206,2,0,L|88:212,1,96
420,179,48675,1,0,0:0:0:0:
235,240,48909,2,0,L|272:152,1,96
188,356,49378,1,0,0:0:0:0:
140,240,49613,6,0,L|240:240,1,96
372,164,50081,2,0,L|276:164,1,96
88,88,50550,2,0,L|184:88,1,96
424,12,51019,2,0,L|328:12,1,96
88,12,51488,1,0,0:0:0:0:
252,204,51722,1,0,0:0:0:0:
424,12,51956,5,0,0:0:0:0:
252,204,52191,1,0,0:0:0:0:
88,12,52425,1,0,0:0:0:0:
244,44,52659,1,0,0:0:0:0:
152,292,53831,5,0,0:0:0:0:
164,96,54066,1,0,0:0:0:0:
320,224,54300,1,0,0:0:0:0:
260,40,54534,1,0,0:0:0:0:
260,72,54652,1,0,0:0:0:0:
260,104,54769,2,0,L|224:136,1,48
220,168,55003,2,0,L|184:200,1,48
159,223,55238,5,0,0:0:0:0:
85,161,55472,2,0,P|63:203|66:251,1,96
139,311,55941,1,0,0:0:0:0:
232,289,56175,2,0,P|254:247|251:199,1,96
159,223,56644,2,0,P|138:311|201:382,1,192
294,361,57347,6,0,P|321:319|326:275,1,96
275,192,57816,1,0,0:0:0:0:
325,109,58050,2,0,P|320:62|294:23,1,96
275,192,58519,2,0,P|376:194|421:124,1,192
231,110,59222,6,0,P|195:143|182:188,2,96,0|0|0,0:0|0:0|0:0,0:0:0:0:
279,26,59925,1,0,0:0:0:0:
183,23,60159,1,0,0:0:0:0:
327,110,60394,2,0,P|299:200|229:264,1,192,0|0,0:0|0:0,0:0:0:0:
87,237,61097,6,0,L|56:144,2,96,0|0|0,0:0|0:0|0:0,0:0:0:0:
180,304,61800,1,0,0:0:0:0:
338,195,62034,1,0,0:0:0:0:
180,304,62269,6,0,B|197:315|197:315|215:301|215:301|246:324|285:323|312:306,1,144.000005493164
341,289,62620,1,0,0:0:0:0:
369,262,62738,5,0,0:0:0:0:
321,178,62972,2,0,P|279:163|229:176,1,96
138,202,63441,1,0,0:0:0:0:
90,118,63675,2,0,P|134:102|180:115,1,96
206,257,64144,2,0,P|121:289|54:226,1,192,0|0,0:0|0:0,0:0:0:0:
274,203,64847,6,0,P|293:252|285:293,2,96,0|0|0,0:0|0:0|0:0,0:0:0:0:
178,137,65550,2,0,P|159:88|167:47,1,96,0|0,0:0|0:0,0:0:0:0:
329,149,66019,2,0,P|367:247|351:329,1,192,0|0,0:0|0:0,0:0:0:0:
158,346,66722,6,0,L|101:265,1,96
354,38,67191,2,0,L|411:119,1,96
102,153,67659,1,0,0:0:0:0:
410,231,67894,1,0,0:0:0:0:
256,52,68128,1,0,0:0:0:0:
256,332,68363,5,0,0:0:0:0:
256,332,68831,1,0,0:0:0:0:
204,146,69066,1,0,0:0:0:0:
340,281,69300,1,0,0:0:0:0:
158,220,69534,1,0,0:0:0:0:
132,200,69651,1,0,0:0:0:0:
119,167,69768,1,0,0:0:0:0:
117,133,69885,1,0,0:0:0:0:
127,102,70002,1,0,0:0:0:0:
149,76,70119,1,0,0:0:0:0:
178,61,70237,5,0,0:0:0:0:
304,52,70472,2,0,P|356:64|392:92,1,96
508,52,70941,1,0,0:0:0:0:
272,136,71175,2,0,P|232:108|216:60,1,96
364,128,71644,2,0,P|344:192|272:228,1,144
244,228,72113,5,0,0:0:0:0:
124,196,72347,2,0,L|28:148,1,96
244,228,72816,1,0,0:0:0:0:
244,228,73050,2,0,L|340:276,1,96
436,336,73519,2,0,P|376:268|376:168,1,192
500,152,74222,6,0,P|480:104|448:72,1,96
420,56,74573,1,0,0:0:0:0:
388,48,74691,1,0,0:0:0:0:
276,104,74925,2,0,P|294:148|328:184,1,96
356,40,75394,2,0,P|256:8|184:56,1,192
328,184,76097,6,0,P|304:224|260:240,1,96
224,244,76448,1,0,0:0:0:0:
192,248,76566,1,0,0:0:0:0:
116,148,76800,2,0,L|20:204,1,96
148,344,77269,2,0,B|208:352|208:352|236:336|284:340|284:340|352:348|292:332|292:332|272:324|272:324|232:328|212:312|212:312,1,288.000010986329
58,208,77972,6,0,P|63:255|87:295,1,96
116,96,78441,1,0,0:0:0:0:
328,52,78675,2,0,L|232:52,1,96
300,156,79144,2,0,P|396:136|432:36,1,192
232,52,79847,6,0,L|328:52,1,96
132,128,80316,1,0,0:0:0:0:
328,200,80550,2,0,L|232:200,1,96
408,156,81019,2,0,B|384:196|332:200|332:200|308:200|231:200,1,192
312,76,81722,6,0,P|352:44|396:36,1,96
496,108,82191,2,0,P|508:156|496:208,1,96
354,244,82659,2,0,L|396:268,1,48
161,251,82894,2,0,L|120:275,1,48
251,32,83128,2,0,L|252:84,1,48
256,192,83363,5,0,0:0:0:0:
56,344,83831,6,0,B|76:320|76:320|104:312|116:292,1,72.0000027465821
104,204,84066,2,0,B|124:180|124:180|152:172|164:152,1,72.0000027465821
156,68,84300,2,0,B|176:44|176:44|204:36|216:16,1,72.0000027465821
304,24,84534,1,0,0:0:0:0:
396,188,84769,1,0,0:0:0:0:
220,20,85003,1,0,0:0:0:0:
216,264,85238,6,0,P|245:290|276:297,1,72.0000027465821
352,255,85706,1,0,0:0:0:0:
297,187,85941,2,0,P|268:161|237:154,1,72.0000027465821
161,196,86409,1,0,0:0:0:0:
216,264,86644,2,0,P|238:235|247:199,1,72.0000027465821
135,276,87113,6,0,P|149:311|174:335,1,72.0000027465821
259,339,87581,1,0,0:0:0:0:
306,225,87816,1,0,0:0:0:0:
380,322,88050,1,0,0:0:0:0:
426,249,88284,1,0,0:0:0:0:
385,133,88519,1,0,0:0:0:0:
306,225,88753,1,0,0:0:0:0:
474,170,88988,6,0,P|481:133|475:100,1,72.0000027465821
402,40,89456,1,0,0:0:0:0:
309,27,89691,1,0,0:0:0:0:
292,120,89925,1,0,0:0:0:0:
385,133,90160,1,0,0:0:0:0:
309,27,90394,1,0,0:0:0:0:
385,133,90628,1,0,0:0:0:0:
309,27,90863,6,0,P|272:27|240:42,1,72.0000027465821
197,124,91331,1,0,0:0:0:0:
72,50,91566,1,0,0:0:0:0:
72,50,91800,2,0,P|55:84|53:120,1,72.0000027465821
197,124,92269,1,0,0:0:0:0:
120,245,92503,1,0,0:0:0:0:
197,124,92738,6,0,P|232:117|266:126,1,72.0000027465821
349,194,93206,1,0,0:0:0:0:
359,86,93441,1,0,0:0:0:0:
349,194,93675,1,0,0:0:0:0:
349,194,93909,1,0,0:0:0:0:
447,149,94144,2,0,L|441:220,1,72.0000027465821
311,211,94613,5,0,0:0:0:0:
398,305,94847,1,0,0:0:0:0:
398,305,95081,1,0,0:0:0:0:
268,295,95316,1,0,0:0:0:0:
398,305,95550,1,0,0:0:0:0:
398,305,95784,1,0,0:0:0:0:
394,175,96019,1,0,0:0:0:0:
508,236,96253,1,0,0:0:0:0:
381,166,96488,5,0,0:0:0:0:
398,305,96722,1,0,0:0:0:0:
398,305,96956,1,0,0:0:0:0:
293,205,97191,1,0,0:0:0:0:
276,344,97425,1,0,0:0:0:0:
276,344,97659,1,0,0:0:0:0:
204,218,97894,2,0,P|185:187|157:165,1,72.0000027465821
31,94,98363,5,0,0:0:0:0:
36,236,98597,1,0,0:0:0:0:
35,237,98831,1,0,0:0:0:0:
141,139,99066,1,0,0:0:0:0:
141,139,99300,2,0,L|121:211,1,72.0000027465821
371,139,99769,2,0,L|391:211,1,72.0000027465821
256,188,100238,6,0,L|256:284,1,96
256,284,100706,1,0,0:0:0:0:
193,91,100941,1,0,0:0:0:0:
356,210,101175,1,0,0:0:0:0:
356,210,101409,1,0,0:0:0:0:
155,210,101644,1,0,0:0:0:0:
318,91,101878,1,0,0:0:0:0:
464,120,102113,6,0,P|500:168|500:232,1,115.199996484375
502,221,102581,1,0,0:0:0:0:
372,112,102816,2,0,P|395:56|450:24,1,115.199996484375
440,27,103284,1,0,0:0:0:0:
412,196,103519,2,0,P|352:203|297:171,1,115.199996484375
100,188,103988,6,0,P|159:180|214:212,1,115.199996484375
132,364,104456,1,0,0:0:0:0:
28,240,104691,2,0,P|12:176|36:124,1,124.79999428711
168,32,105159,1,0,0:0:0:0:
304,124,105394,1,0,0:0:0:0:
168,212,105628,1,0,0:0:0:0:
248,56,105863,6,0,P|312:36|376:72,1,134.399995898438
492,188,106331,1,0,0:0:0:0:
304,124,106566,1,0,0:0:0:0:
304,124,106800,1,0,0:0:0:0:
428,252,107034,1,0,0:0:0:0:
256,292,107269,2,0,L|316:236,1,67.1999979492188
368,184,107503,2,0,L|428:128,1,67.1999979492188
484,72,107738,6,0,B|444:40|400:48|400:48|340:24,1,144.000005493164
164,12,108206,1,0,0:0:0:0:
236,184,108441,2,0,L|168:152,1,72.0000027465821
116,228,108675,2,0,B|180:260|180:260|144:280|120:316,1,144.000005493164
300,240,109144,2,0,P|360:248|432:300,1,144.000005493164
208,256,109613,6,0,P|160:176|184:124,1,153.6
348,16,110081,1,0,0:0:0:0:
236,184,110316,1,0,0:0:0:0:
236,184,110550,1,0,0:0:0:0:
436,192,110784,1,0,0:0:0:0:
268,84,111019,1,0,0:0:0:0:
436,192,111253,1,0,0:0:0:0:
248,288,111488,6,0,P|168:260|132:188,1,163.200003112793
232,8,111956,2,0,P|268:0|316:16,1,81.6000015563965
272,112,112191,2,0,P|344:172|344:240,1,163.200003112793
184,372,112659,1,0,0:0:0:0:
24,236,112894,2,0,P|68:160|136:128,1,163.200003112793
488,236,113363,6,0,P|444:160|376:128,1,163.200003112793
488,236,113831,1,0,0:0:0:0:
292,348,114066,2,0,L|260:260,1,86.3999973632813
118,274,114300,2,0,L|192:216,1,86.3999973632813
135,86,114534,2,0,L|212:139,1,86.3999973632813
318,44,114769,2,0,L|292:134,1,86.3999973632813
415,205,115003,2,0,L|321:209,1,86.3999973632813
256,192,115238,1,0,0:0:0:0:
94,180,126019,6,0,B|129:178|129:178|152:188|152:188|188:187,1,96
418,180,126487,2,0,B|383:178|383:178|360:188|360:188|324:187,1,96
117,98,126956,6,0,B|148:114|148:114|163:134|163:134|195:151,1,96
398,260,127425,2,0,B|368:241|368:241|343:238|343:238|313:219,1,96
182,41,127894,6,0,B|201:70|201:70|204:95|204:95|223:126,1,96
344,322,128363,2,0,B|329:291|329:291|308:276|308:276|291:244,1,96
267,24,128831,6,0,B|269:59|269:59|259:82|259:82|260:118,1,96
267,349,129300,2,0,B|269:314|269:314|259:291|259:291|260:255,1,96
57,138,129769,6,0,B|40:166|40:166|50:200|50:200|30:232,1,105.600003222656
210,193,130237,6,0,B|229:225|229:225|260:230|260:230|282:271,1,115.199996484375
331,76,130706,6,0,B|373:75|373:75|393:48|393:48|445:50,1,124.79999428711
173,64,131175,6,0,B|126:63|126:63|104:34|104:34|47:35,1,134.399995898438
327,193,131644,6,0,B|378:192|378:192|403:159|403:159|466:161,1,144.000005493164
181,275,132112,6,0,B|129:274|129:274|104:241|104:241|41:243,1,153.6
371,297,132581,5,0,0:0:0:0:
171,46,133050,6,0,B|115:22|115:22|83:78|19:86|19:86|67:174|59:262|59:262|131:294,1,432.000016479493
159,295,133519,6,0,B|183:304|183:304|205:299|205:299|230:306|230:306|266:313|298:297,1,144.000005493164
230,72,134222,6,0,P|187:65|148:72,1,84.0000008010864
71,150,134456,1,0,0:0:0:0:
206,323,134690,6,0,P|249:330|288:323,1,84.0000008010864
365,245,134924,1,0,0:0:0:0:
230,72,135159,1,0,0:0:0:0:
254,162,135394,6,0,B|243:187|243:187|224:193|224:193|221:217|221:217|192:238|154:241,1,144.000005493164
44,81,136097,6,0,P|83:59|121:58,1,84.0000008010864
230,72,136331,2,0,L|252:153,1,84.0000008010864
319,238,136565,6,0,P|280:260|242:261,1,84.0000008010864
133,247,136799,2,0,L|111:166,1,84.0000008010864
199,101,137034,2,0,L|221:182,1,84.0000008010864
181,332,137269,6,0,P|154:344|125:345,1,57.5999982421876
133,247,137503,2,0,P|160:235|189:234,1,57.5999982421876
269,286,137737,1,0,0:0:0:0:
269,286,137854,1,0,0:0:0:0:
269,286,137972,2,0,L|306:330,1,57.5999982421876
346,201,138206,1,0,0:0:0:0:
346,201,138323,2,0,L|356:257,1,57.5999982421876
402,344,138558,1,0,0:0:0:0:
460,265,138675,2,0,L|449:208,1,57.5999982421876
402,122,138909,2,0,P|374:107|346:104,1,57.5999982421876
260,147,139144,5,0,0:0:0:0:
88,53,139378,1,0,0:0:0:0:
153,237,139612,2,0,P|174:265|195:277,1,57.5999982421876
285,242,139847,1,0,0:0:0:0:
260,147,139964,2,0,P|225:151|204:163,1,57.5999982421876
285,242,140198,1,0,0:0:0:0:
285,242,140315,1,0,0:0:0:0:
285,242,140433,1,0,0:0:0:0:
285,242,140550,2,0,P|319:237|340:225,1,57.5999982421876
356,130,140784,2,0,P|346:98|328:77,1,57.5999982421876
177,45,141019,6,0,L|161:118,1,72.0000027465821
181,199,141487,1,0,0:0:0:0:
330,334,141722,6,0,P|372:331|406:305,1,84.0000008010864
437,202,141956,1,0,0:0:0:0:
273,58,142190,6,0,P|254:95|260:138,1,84.0000008010864
334,216,142424,1,0,0:0:0:0:
468,42,142659,1,0,0:0:0:0:
437,202,142894,6,0,P|418:218|372:224,1,72.0000027465821
379,141,143362,1,0,0:0:0:0:
494,264,143597,6,0,P|456:296|408:306,1,84.0000008010864
289,204,143831,2,0,P|327:236|375:246,1,84.0000008010864,0|0,0:0|0:0,0:0:0:0:
450,104,144065,2,0,P|412:72|364:62,1,84.0000008010864
247,89,144300,2,0,P|285:121|333:131,1,84.0000008010864
383,247,144534,2,0,P|336:263|303:300,1,84.0000008010864
235,373,144769,5,0,0:0:0:0:
74,228,145003,1,0,0:0:0:0:
289,204,145237,2,0,P|259:183|225:178,1,72.0000027465821
222,286,145472,1,0,0:0:0:0:
343,265,145589,2,0,P|364:235|369:201,1,72.0000027465821
320,104,145823,1,0,0:0:0:0:
320,104,145940,1,0,0:0:0:0:
320,104,146058,1,0,0:0:0:0:
320,104,146175,2,0,L|251:73,1,72.0000027465821
110,69,146409,6,0,B|101:90|101:90|110:109|110:109|100:130|100:130|112:155|112:155|105:178|105:178|112:199|112:199|105:220|105:220|114:248,1,192
119,238,148284,6,0,B|140:264|140:264|178:272|178:272|210:264|225:249|225:249|228:229,1,144
229,193,148519,5,0,0:0:0:0:
131,50,148753,2,0,L|99:97,1,57.5999982421876
182,117,148987,2,0,L|214:164,1,57.5999982421876
119,238,149222,1,0,0:0:0:0:
119,238,149339,2,0,L|87:285,1,57.5999982421876
170,305,149573,2,0,P|196:326|219:330,1,57.5999982421876
304,310,149808,1,0,0:0:0:0:
383,277,149925,2,0,P|410:283|432:301,1,57.5999982421876
492,171,150159,6,0,P|446:161|412:128,1,96
272,89,150394,2,0,P|286:133|274:179,1,96,0|0,0:0|0:0,0:0:0:0:
202,228,150628,6,0,P|189:201|190:167,1,57.5999982421876
274,180,150862,2,0,P|287:207|286:241,1,57.5999982421876
242,308,151097,1,0,0:0:0:0:
242,308,151214,2,0,P|211:318|184:315,1,57.5999982421876
147,236,151448,2,0,P|178:226|205:229,1,57.5999982421876
286,250,151683,1,0,0:0:0:0:
343,314,151800,2,0,L|322:371,2,57.5999982421876,0|0|0,0:0|0:0|0:0,0:0:0:0:
370,232,152151,1,0,0:0:0:0:
328,155,152269,6,0,P|308:130|285:118,1,57.5999982421876
251,197,152503,2,0,P|226:183|208:160,1,57.5999982421876,0|0,0:0|0:0,0:0:0:0:
174,81,152737,2,0,P|148:97|132:122,1,57.5999982421876
134,206,152972,1,0,0:0:0:0:
134,206,153089,2,0,L|157:259,1,57.5999982421876
206,329,153323,1,0,0:0:0:0:
289,352,153440,1,0,0:0:0:0:
318,270,153558,1,0,0:0:0:0:
235,247,153675,1,0,0:0:0:0:
401,293,153909,1,0,0:0:0:0:
358,126,154144,5,0,0:0:0:0:
475,236,154378,1,0,0:0:0:0:
318,270,154612,2,0,L|319:213,1,57.5999982421876
358,126,154847,1,0,0:0:0:0:
402,206,154964,2,0,L|401:263,1,57.5999982421876
366,349,155198,1,0,0:0:0:0:
274,352,155315,1,0,0:0:0:0:
318,270,155433,1,0,0:0:0:0:
226,273,155550,2,0,P|200:295|190:319,1,57.5999982421876
99,304,155784,2,0,P|92:270|77:249,1,57.5999982421876
116,173,156019,6,0,P|167:191|208:186,1,96,0|0,0:0|0:0,0:0:0:0:
264,86,156487,2,0,P|311:81|355:99,1,96,0|0,0:0|0:0,0:0:0:0:
402,206,156956,2,0,L|382:301,1,96
280,353,157425,1,0,0:0:0:0:
189,281,157659,2,0,P|277:235|358:266,1,192
280,353,158362,6,0,L|185:371,1,96
95,263,158831,2,0,L|190:281,1,96
198,119,159300,1,0,0:0:0:0:
117,191,159534,6,0,B|189:242|265:251|348:237|387:200|412:157|412:157|426:111|379:78|340:95|314:131|331:159|356:195|396:235|396:235|435:263|481:227|496:192|506:156|496:117,1,768
368,35,161644,6,0,P|320:48|286:81,1,96
176,3,162112,2,0,P|151:46|150:93,1,96
17,116,162581,2,0,P|30:164|63:198,1,96
128,234,162933,1,0,0:0:0:0:
204,242,163050,2,0,L|252:228,1,48
324,246,163284,1,0,0:0:0:0:
464,180,163519,6,0,B|460:208|460:208|440:184|412:168|412:168|404:132|372:112,1,144.000005493164
216,64,164222,6,0,B|232:48|212:48|176:64|136:40,1,84.0000008010864
40,32,164456,1,0,0:0:0:0:
84,244,164690,2,0,B|80:236|80:236|88:228|88:228|92:208|92:208|112:192|112:192|120:164,1,84.0000008010864
228,176,164925,2,0,B|232:193|232:193|252:209|252:209|256:229|256:229|264:237|264:237|260:245,1,84.0000008010864
168,304,165159,2,0,B|196:296|196:296|220:324|264:328,1,84.0000008010864
360,304,165394,6,0,B|364:284|348:280|316:292|328:336|384:352|440:304,1,144.000005493164
400,128,166097,6,0,B|408:112|408:112|440:104|468:68,1,84.0000008010864
372,24,166331,2,0,B|340:56|340:56|328:112,1,84.0000008010864
256,84,166565,2,0,L|256:0,1,84.0000008010864
140,24,166800,2,0,B|172:56|172:56|180:93,1,84.0000008010864
112,128,167034,2,0,B|104:112|104:112|72:104|44:68,1,84.0000008010864
50,75,167269,5,0,0:0:0:0:
56,224,167503,2,0,L|80:280,1,57.5999982421876
112,344,167737,1,0,0:0:0:0:
212,232,167972,2,0,L|268:288,1,57.5999982421876
312,320,168206,1,0,0:0:0:0:
372,276,168323,2,0,L|408:288,1,28.7999991210938
392,248,168440,2,0,L|429:240,1,28.7999991210938
408,204,168558,2,0,L|436:178,1,28.7999991210938
416,140,168675,6,0,P|432:108|420:68,1,72.0000027465821
360,36,168909,6,0,L|292:16,1,57.5999982421876
232,4,169144,1,0,0:0:0:0:
88,140,169378,2,0,L|144:124,1,57.5999982421876
216,104,169612,1,0,0:0:0:0:
256,248,169847,2,0,L|256:324,1,57.5999982421876
184,288,170081,2,0,L|140:312,1,28.7999991210938
148,264,170198,2,0,L|101:245,1,28.7999991210938
148,224,170315,2,0,L|132:176,1,28.7999991210938
176,196,170433,2,0,L|202:153,1,28.7999991210938
236,168,170550,6,0,P|280:168|312:188,1,72.0000027465821
289,294,170784,6,0,L|256:248,1,57.5999982421876
428,316,171019,1,0,0:0:0:0:
432,208,171253,2,0,B|444:192|444:192|408:184|384:156,1,84.0000008010864
472,76,171487,1,0,0:0:0:0:
256,44,171722,2,0,B|232:64|232:64|232:100|200:132,1,84.0000008010864
80,130,171956,2,0,B|107:114|107:114|112:92|120:64,1,84.0000008010864
140,224,172190,2,0,B|88:248|88:248|88:276,1,84.0000008010864
192,308,172425,2,0,P|220:280|236:240,1,84.0000008010864
275,144,172659,2,0,P|290:105|320:76,1,84.0000008010864
392,160,172894,5,0,0:0:0:0:
180,108,173128,2,0,B|160:96|160:96|128:112|84:108,1,84.0000008010864
112,0,173362,1,0,0:0:0:0:
84,216,173597,2,0,B|68:232|72:256|72:256|76:280|60:296,1,84.0000008010864
165,267,173831,2,0,B|172:248|164:224|164:224|168:184,1,84.0000008010864
256,160,174065,2,0,L|256:244,1,84.0000008010864
346,267,174300,2,0,B|340:248|348:224|348:224|344:184,1,84.0000008010864
428,216,174534,2,0,B|444:232|440:256|440:256|436:280|449:293,1,84.0000008010864
428,216,174769,5,0,0:0:0:0:
268,68,175003,2,0,L|180:68,1,84.0000008010864
92,124,175237,1,0,0:0:0:0:
180,324,175472,1,0,0:0:0:0:
284,288,175706,2,0,L|320:308,1,42.0000004005432
328,252,175823,2,0,L|339:291,1,42.0000004005432
380,252,175941,2,0,L|360:288,1,42.0000004005432
416,288,176058,2,0,L|376:299,1,42.0000004005432
356,352,176175,1,0,0:0:0:0:
408,160,176409,2,0,P|424:132|384:112,1,84.0000008010864
324,124,176644,5,0,0:0:0:0:
104,92,178518,5,0,0:0:0:0:
332,188,178986,5,0,0:0:0:0:
124,324,179454,5,0,0:0:0:0:
244,88,179952,5,0,0:0:0:0:
384,292,180420,5,0,0:0:0:0:
140,184,180918,5,0,0:0:0:0:
388,148,181386,5,0,0:0:0:0:
264,380,181883,5,0,0:0:0:0:
256,112,182384,5,0,0:0:0:0:
432,312,182882,5,0,0:0:0:0:
172,260,183380,5,0,0:0:0:0:
432,312,183878,5,0,0:0:0:0:
344,60,184376,5,0,0:0:0:0:
88,132,184874,5,0,0:0:0:0:
292,324,185401,5,0,0:0:0:0:
484,120,185928,5,0,0:0:0:0:
240,60,186455,5,0,0:0:0:0:
240,60,186718,1,0,0:0:0:0:
136,128,186981,1,0,0:0:0:0:
404,288,187639,2,0,L|364:252,1,48
280,168,188033,1,0,0:0:0:0:
56,56,188560,5,0,0:0:0:0:
56,88,188823,1,0,0:0:0:0:
56,112,189086,1,0,0:0:0:0:
428,56,189876,5,0,0:0:0:0:
428,56,190139,1,0,0:0:0:0:
424,180,190402,1,0,0:0:0:0:
416,212,190533,1,0,0:0:0:0:
404,244,190665,6,0,B|384:296|384:296|340:296|340:296|316:340,1,144.000005493164
108,244,191191,6,0,B|128:296|128:296|172:296|172:296|196:340,1,144.000005493164
256,144,191718,1,0,0:0:0:0:
256,268,191981,1,0,0:0:0:0:
256,300,192112,1,0,0:0:0:0:
256,332,192244,1,0,0:0:0:0:
380,352,192507,2,0,L|424:376,2,36.0000013732911,0|0|0,0:0|0:0|0:0,0:0:0:0:
364,292,192770,6,0,P|388:256|396:212,1,72.0000027465821,0|0,0:0|0:0,0:0:0:0:
395,228,193033,1,0,0:0:0:0:
296,220,193165,1,0,0:0:0:0:
296,220,193297,2,0,P|296:180|320:136,1,72.0000027465821
396,120,193560,2,0,P|376:88|336:64,1,72.0000027465821
163,68,193823,2,0,P|134:89|116:120,1,72.0000027465821
256,164,194086,2,0,L|256:92,1,72.0000027465821
256,92,194349,1,0,0:0:0:0:
88,172,194612,1,0,0:0:0:0:
108,204,194744,1,0,0:0:0:0:
128,233,194876,6,0,P|159:262|187:268,1,72.0000027465821
215,268,195270,1,0,0:0:0:0:
243,262,195402,1,0,0:0:0:0:
347,213,195665,2,0,L|382:224,1,36.0000013732911
347,213,195928,2,0,L|319:237,1,36.0000013732911
347,213,196191,2,0,L|339:177,1,36.0000013732911
299,116,196455,1,0,0:0:0:0:
160,156,196718,1,0,0:0:0:0:
347,213,196981,6,0,P|383:192|397:166,1,72.0000027465821,0|0,0:0|0:0,0:0:0:0:
401,137,197376,1,0,0:0:0:0:
395,108,197507,1,0,0:0:0:0:
274,29,197770,2,0,L|291:27,3,18.0000006866455,0|0|0|0,0:0|0:0|0:0|0:0,0:0:0:0:
257,39,198033,2,0,L|235:70,1,36.0000013732911
212,137,198297,2,0,L|222:213,1,72.0000027465821
315,317,198823,2,0,L|351:335,1,36.0000013732911
426,341,199086,6,0,B|428:322|428:322|442:309|442:309|437:286|437:286|451:268|451:268|450:243,1,108.000004119873
447,223,199349,1,0,0:0:0:0:
433,181,199481,1,0,0:0:0:0:
404,148,199612,1,0,0:0:0:0:
280,73,199876,2,0,B|232:46|232:46|168:44|168:44|112:64|112:64|78:103|78:103|61:150|61:150|61:194|61:194|76:243|76:243|117:273|117:273|161:300|213:295|241:260|248:190|188:169,1,648.000024719239
294,167,201191,6,0,P|305:204|297:275,1,108.000004119873
292,293,201455,1,0,0:0:0:0:
268,329,201586,1,0,0:0:0:0:
231,351,201718,2,0,P|188:365|89:348,1,144.000005493164
53,272,202244,2,0,B|99:246|99:246|110:216|110:216|143:230|143:230|144:195|144:195|176:211|176:211|175:175|175:175|205:175|205:175|230:159,1,288.000010986329
309,123,203033,1,0,0:0:0:0:
344,127,203165,1,0,0:0:0:0:
372,143,203297,6,0,P|401:167|416:200,1,72.0000027465821
421,229,203691,1,0,0:0:0:0:
421,261,203823,1,0,0:0:0:0:
322,320,204086,2,0,P|308:307|302:291,1,36.0000013732911
322,320,204349,2,0,P|317:338|306:351,1,36.0000013732911
322,320,204612,2,0,P|340:314|357:317,1,36.0000013732911
427,334,204876,1,0,0:0:0:0:
328,223,205139,1,0,0:0:0:0:
203,296,205402,6,0,P|169:287|146:260,1,72.0000027465821
101,122,205928,1,0,0:0:0:0:
232,179,206191,2,0,L|237:199,3,18.0000006866455,0|0|0|0,0:0|0:0|0:0|0:0,0:0:0:0:
230,160,206455,2,0,L|240:124,1,36.0000013732911
310,63,206718,2,0,L|329:132,1,72.0000027465821
334,276,207244,1,0,0:0:0:0:
191,295,207507,6,0,B|165:297|144:279|144:279|134:295|134:295|117:279|94:293,2,108.000004119873,0|0|0,0:0|0:0|0:0,0:0:0:0:
263,293,208033,2,0,B|345:299|392:237|405:177|381:126|336:94|336:94|312:107|312:107|303:124|303:124|272:119|272:119|257:153|257:153|226:149|226:149|217:184|217:184|187:197,1,504.000019226075
155,300,209086,1,0,0:0:0:0:
263,293,209218,1,0,0:0:0:0:
155,300,209349,1,0,0:0:0:0:
263,293,209481,1,0,0:0:0:0:
155,300,209612,6,0,B|149:291|149:291|148:279|148:279|142:272|142:272|141:263|141:263|134:256|134:256|135:249|135:249|130:246|130:246|130:239|130:239|125:234|125:234|126:228|126:228|122:222|122:222|122:218|122:218|117:214|117:214|117:209|117:209|112:204|112:204|113:197|113:197|107:191|107:191|110:185|110:185|104:181|104:181|104:176|104:176,1,144.000005493164
122,36,210139,1,0,0:0:0:0:
21,139,210402,1,0,0:0:0:0:
259,75,210665,1,0,0:0:0:0:
177,265,211060,1,0,0:0:0:0:
177,265,211191,1,0,0:0:0:0:
145,124,211455,1,0,0:0:0:0:
272,188,211718,6,0,B|296:172|320:192|320:192|348:192|348:192|360:208|396:192,1,108.000004119873
373,199,212244,1,0,0:0:0:0:
260,288,212507,1,0,0:0:0:0:
200,140,212770,2,0,P|192:120|200:80,1,36.0000013732911
312,244,213033,2,0,P|319:260|320:278,1,36.0000013732911
308,135,213297,2,0,P|324:128|342:127,1,36.0000013732911
203,248,213560,2,0,P|187:255|169:256,1,36.0000013732911
100,232,213823,6,0,B|88:216|88:216|92:192|92:192|76:176|76:176|84:156|84:156|64:112|76:76,1,144.000005493164
196,32,214612,1,0,0:0:0:0:
224,32,214744,1,0,0:0:0:0:
252,32,214876,2,0,L|300:36,1,36.0000013732911
317,128,215139,2,0,L|288:108,1,36.0000013732911
260,176,215402,2,0,L|284:227,1,36.0000013732911
205,271,215665,2,0,L|208:236,1,36.0000013732911
120,120,215928,6,0,L|48:120,1,72.0000027465821
128,0,216191,2,0,L|164:0,1,36.0000013732911
192,0,216323,1,0,0:0:0:0:
160,236,216455,2,0,L|88:236,1,72.0000027465821
200,120,216718,6,0,B|248:144|288:116|288:116|316:124|316:124|340:112|340:112|376:152|368:184,1,216
404,348,218033,6,0,B|388:332|388:332|364:328|364:328|344:312,1,72.0000027465821,0|0,0:0|0:0,0:0:0:0:
108,348,218297,2,0,B|124:332|124:332|148:328|148:328|168:312,1,72.0000027465821,0|0,0:0|0:0,0:0:0:0:
256,200,218560,2,0,B|261:221|261:221|253:244|253:244|257:269,1,72.0000027465821,0|0,0:0|0:0,0:0:0:0:
124,216,218823,1,0,0:0:0:0:
124,216,218955,1,0,0:0:0:0:
124,216,219086,6,0,B|120:208|120:208|132:204|132:204|128:196|128:196|140:192|140:192|136:184|136:184|148:180|148:180|144:172|144:172|156:168|156:168|152:152,1,96
152,16,219744,1,0,0:0:0:0:
276,88,219876,1,0,0:0:0:0:
154,159,220007,1,0,0:0:0:0:
228,28,220139,6,0,B|272:0|316:24|316:24|372:20,1,144.000005493164
276,88,220928,1,0,0:0:0:0:
304,96,221060,1,0,0:0:0:0:
332,96,221191,1,0,0:0:0:0:
360,96,221323,1,0,0:0:0:0:
388,96,221455,2,0,L|436:104,1,48.0000018310548
472,136,221718,2,0,L|488:184,1,48.0000018310548
472,228,221981,2,0,L|448:272,1,48.0000018310548
416,304,222244,6,0,B|400:312|400:312|376:304|356:316|356:316|336:304|320:308|320:308|300:296|300:296|276:304,1,144.000005493164
136,296,223033,1,0,0:0:0:0:
116,276,223165,1,0,0:0:0:0:
96,256,223297,2,0,L|64:220,1,36.0000013732911
196,256,223560,2,0,L|164:220,1,36.0000013732911
288,256,223823,2,0,L|256:220,1,36.0000013732911
380,256,224086,2,0,L|348:220,1,36.0000013732911
276,108,224349,6,0,L|220:40,1,72.0000027465821
364,108,224612,2,0,L|409:52,1,72.0000027465821
452,192,224876,2,0,L|376:192,1,72.0000027465821
460,312,225139,1,0,0:0:0:0:
460,72,225270,1,0,0:0:0:0:
