osu file format v13

[General]
AudioFilename: Knife Party - Internet Friends (Revolvr Bootleg) [Free Download].mp3
AudioLeadIn: 0
PreviewTime: 182247
Countdown: 0
SampleSet: None
StackLeniency: 0.7
Mode: 0
LetterboxInBreaks: 0
WidescreenStoryboard: 1

[Editor]
Bookmarks: 25238,40238,55238,70238,85238,100238,115238,126019,163518,194876
DistanceSpacing: 1.7
BeatDivisor: 4
GridSize: 4
TimelineZoom: 1

[Metadata]
Title:Internet Friends
TitleUnicode:Internet Friends
Artist:Knife Party
ArtistUnicode:Knife Party
Creator:Tician
Version:copied and testing around
Source:
Tags:
BeatmapID:592761
BeatmapSetID:243483

[Difficulty]
HPDrainRate:6
CircleSize:4
OverallDifficulty:8
ApproachRate:9
SliderMultiplier:1.92
SliderTickRate:1

[Events]
//Background and Video events
0,0,"knife party.jpg",0,0
//Break Periods
2,115438,125419
2,139226,278749
//Storyboard Layer 0 (Background)
//Storyboard Layer 1 (Fail)
//Storyboard Layer 2 (Pass)
//Storyboard Layer 3 (Foreground)
//Storyboard Sound Samples

[TimingPoints]
12113,468.75,4,2,0,100,1,0
62269,-66.6666666666667,4,2,0,100,0,0
62738,-100,4,2,0,100,0,0
77269,-66.6666666666667,4,2,0,100,0,0
77738,-100,4,2,0,100,0,0
83831,-66.6666666666667,4,2,0,100,0,0
85238,-133.333333333333,4,2,0,100,0,0
100238,-100,4,2,0,100,0,0
100238,-90.9090909090909,4,2,0,100,0,0
102113,-83.3333333333333,4,2,0,100,0,0
103988,-76.9230769230769,4,2,0,100,0,0
105863,-71.4285714285714,4,2,0,100,0,0
107738,-66.6666666666667,4,2,0,100,0,0
109613,-62.5,4,2,0,100,0,0
111488,-58.8235294117647,4,2,0,100,0,0
113363,-55.5555555555556,4,2,0,100,0,0
126019,468.75,4,2,0,100,1,0
133050,-66.6666666666667,4,2,0,100,0,0
133518,-83.3333333333333,4,2,0,100,0,1
134222,-57.1428571428571,4,2,0,100,0,1
135394,-200,4,2,0,100,0,1
136097,-57.1428571428571,4,2,0,100,0,1
137269,-83.3333333333333,4,2,0,100,0,1
146643,-100,4,2,0,100,0,0
148518,-100,4,2,0,100,0,1
176643,-100,4,2,0,100,0,0
178518,468.75,4,2,0,100,1,0
178986,468.75,4,2,0,100,1,0
179454,468.75,4,2,0,100,1,0
179952,468.75,4,2,0,100,1,0
180420,468.75,4,2,0,100,1,0
180918,468.75,4,2,0,100,1,0
181386,468.75,4,2,0,100,1,0
181883,468.75,4,2,0,100,1,0
182384,468.75,4,2,0,100,1,0
182882,468.75,4,2,0,100,1,0
183380,468.75,4,2,0,100,1,0
183878,468.75,4,2,0,100,1,0
184376,468.75,4,2,0,100,1,0
184874,468.75,4,2,0,100,1,0
185401,468.75,4,2,0,100,1,0
185928,468.75,4,2,0,100,1,0
186455,526.315789473684,4,2,0,100,1,0
236981,526.315789473684,4,2,0,100,1,0
264349,468.75,4,2,0,100,1,0
279349,-133.333333333333,4,2,0,100,0,1
279817,-100,4,2,0,100,0,1
280286,-90.9090909090909,4,2,0,100,0,1
280755,-76.9230769230769,4,2,0,100,0,1
280989,-71.4285714285714,4,2,0,100,0,1
281224,-133.333333333333,4,2,0,100,0,1
281692,-100,4,2,0,100,0,1
309349,-100,4,2,0,100,0,0

[Colours]
Combo1 : 255,0,0
Combo2 : 192,192,192
Combo3 : 92,92,92
Combo4 : 251,182,79
Combo5 : 108,108,0

[HitObjects]
132,184,12113,6,0,P|172:136|208:120,1,96
256,112,12464,1,0,0:0:0:0:
310,121,12581,2,0,P|352:145|380:184,1,96
420,292,13050,1,0,0:0:0:0:
320,348,13284,2,0,L|228:304,1,96
264,196,13753,1,0,0:0:0:0:
66,270,13988,6,0,L|152:228,1,96,0|0,0:0|0:0,0:0:0:0:
87,132,14456,2,0,P|132:115|180:116,1,96
264,196,14925,1,0,0:0:0:0:
348,120,15159,2,0,B|364:140|372:168|372:168|412:180,1,96
412,180,15628,1,0,0:0:0:0:
428,296,15863,6,0,L|368:280,1,48
269,299,16097,2,0,L|316:312,1,48
200,280,16331,2,0,B|176:268|176:268|148:264|148:264|132:240|104:232,1,96,0|0,0:0|0:0,0:0:0:0:
48,340,16800,1,0,0:0:0:0:
0,224,17034,2,0,B|8:212|8:212|4:200|4:200|8:188|8:188|4:176|4:176|12:152|4:128,1,96
236,40,17503,1,0,0:0:0:0:
120,84,17738,6,0,L|146:176,1,96
282,324,18206,2,0,L|256:232,1,96
260,108,18675,2,0,L|288:68,1,48
188,116,18909,2,0,L|160:156,1,48
288,68,19144,2,0,P|336:56|380:68,1,96
340,280,19613,6,0,L|340:184,1,96,0|0,0:0|0:0,0:0:0:0:
464,292,20081,2,0,P|436:336|388:356,1,96
236,332,20550,1,0,0:0:0:0:
108,232,20784,1,0,0:0:0:0:
48,92,21019,2,0,P|76:48|124:28,1,96
88,184,21488,6,0,P|35:181|-5:150,1,96
152,104,21956,2,0,P|176:150|169:201,1,96
48,92,22425,1,0,0:0:0:0:
172,192,22659,2,0,L|248:256,1,96
245,253,23128,1,0,0:0:0:0:
481,145,23363,6,0,L|408:84,1,96
296,140,23831,1,0,0:0:0:0:
321,161,23948,1,0,0:0:0:0:
347,183,24065,1,0,0:0:0:0:
373,204,24182,1,0,0:0:0:0:
399,226,24299,1,0,0:0:0:0:
424,348,24534,1,0,0:0:0:0:
304,308,24769,2,0,P|264:308|208:292,1,96
160,178,25120,1,0,0:0:0:0:
160,178,25238,6,0,P|200:178|256:194,1,96
109,269,25706,1,0,0:0:0:0:
253,192,25941,1,0,0:0:0:0:
66,180,26175,1,0,0:0:0:0:
381,121,26409,2,0,P|405:162|405:209,1,96
253,192,26878,1,0,0:0:0:0:
397,42,27113,6,0,P|438:65|461:106,1,96
404,209,27581,1,0,0:0:0:0:
305,133,27816,1,0,0:0:0:0:
416,217,28050,1,0,0:0:0:0:
294,125,28284,2,0,L|216:67,2,96,0|0|0,0:0|0:0|0:0,0:0:0:0:
298,269,28988,6,0,P|270:308|228:331,1,96
96,308,29456,1,0,0:0:0:0:
181,204,29691,1,0,0:0:0:0:
298,269,29925,1,0,0:0:0:0:
181,204,30159,2,0,P|132:191|88:202,1,96
228,330,30628,1,0,0:0:0:0:
261,165,30863,6,0,P|225:129|181:116,1,96
30,135,31331,2,0,L|22:159,6,24,0|0|0|0|0|0|0,0:0|0:0|0:0|0:0|0:0|0:0|0:0,0:0:0:0:
26,231,31800,1,0,0:0:0:0:
152,318,32034,2,0,L|182:324,4,24,0|0|0|0|0,0:0|0:0|0:0|0:0|0:0,0:0:0:0:
303,345,32503,1,0,0:0:0:0:
303,345,32620,1,0,0:0:0:0:
303,345,32738,6,0,P|332:308|337:260,1,96
271,121,33206,1,0,0:0:0:0:
248,273,33441,1,0,0:0:0:0:
391,218,33675,1,0,0:0:0:0:
239,194,33909,2,0,P|192:216|172:253,1,96
303,345,34378,1,0,0:0:0:0:
391,218,34613,6,0,P|399:171|381:126,1,96
239,194,35081,1,0,0:0:0:0:
381,127,35316,1,0,0:0:0:0:
306,260,35550,1,0,0:0:0:0:
289,107,35784,2,0,P|242:94|197:102,1,96
306,260,36253,1,0,0:0:0:0:
122,202,36488,6,0,P|109:249|117:294,1,96
264,364,36956,1,0,0:0:0:0:
214,208,37191,1,0,0:0:0:0:
350,297,37425,1,0,0:0:0:0:
308,139,37659,2,0,L|295:44,2,96,0|0|0,0:0|0:0|0:0,0:0:0:0:
202,301,38363,5,0,0:0:0:0:
202,301,38831,5,0,0:0:0:0:
163,112,39066,1,0,0:0:0:0:
318,223,39300,1,0,0:0:0:0:
244,45,39534,1,0,0:0:0:0:
128,198,39769,1,0,0:0:0:0:
318,223,40003,1,0,0:0:0:0:
318,223,40238,6,0,L|403:267,2,96,0|0|0,0:0|0:0|0:0,0:0:0:0:
424,160,40941,2,0,L|518:209,1,96,0|0,0:0|0:0,0:0:0:0:
204,276,41409,2,0,L|289:320,1,96,0|0,0:0|0:0,0:0:0:0:
220,152,41878,1,0,0:0:0:0:
61,222,42113,6,0,L|104:200,1,48
53,88,42347,2,0,L|52:136,1,48
172,145,42581,2,0,L|132:120,1,48
132,120,42816,1,0,0:0:0:0:
356,12,43050,1,0,0:0:0:0:
244,68,43284,2,0,L|322:123,1,96
244,68,43753,1,0,0:0:0:0:
268,316,43988,6,0,L|189:260,1,96
388,284,44456,2,0,P|460:292|496:280,1,96
440,168,44925,1,0,0:0:0:0:
340,96,45159,2,0,P|332:48|340:0,1,96
456,52,45628,1,0,0:0:0:0:
440,168,45863,6,0,P|404:200|348:220,1,96
72,168,46331,2,0,P|108:200|164:220,1,96
256,148,46800,1,0,0:0:0:0:
352,67,47034,2,0,P|394:46|442:39,2,96,0|0|0,0:0|0:0|0:0,0:0:0:0:
228,40,47738,5,0,0:0:0:0:
196,48,47855,1,0,0:0:0:0:
168,64,47972,1,0,0:0:0:0:
144,88,48089,1,0,0:0:0:0:
128,116,48206,2,0,L|88:212,1,96
420,179,48675,1,0,0:0:0:0:
235,240,48909,2,0,L|272:152,1,96
188,356,49378,1,0,0:0:0:0:
140,240,49613,6,0,L|240:240,1,96
372,164,50081,2,0,L|276:164,1,96
88,88,50550,2,0,L|184:88,1,96
424,12,51019,2,0,L|328:12,1,96
88,12,51488,1,0,0:0:0:0:
252,204,51722,1,0,0:0:0:0:
424,12,51956,5,0,0:0:0:0:
252,204,52191,1,0,0:0:0:0:
88,12,52425,1,0,0:0:0:0:
244,44,52659,1,0,0:0:0:0:
152,292,53831,5,0,0:0:0:0:
164,96,54066,1,0,0:0:0:0:
320,224,54300,1,0,0:0:0:0:
260,40,54534,1,0,0:0:0:0:
260,72,54652,1,0,0:0:0:0:
260,104,54769,2,0,L|224:136,1,48
220,168,55003,2,0,L|184:200,1,48
159,223,55238,5,0,0:0:0:0:
85,161,55472,2,0,P|63:203|66:251,1,96
139,311,55941,1,0,0:0:0:0:
232,289,56175,2,0,P|254:247|251:199,1,96
159,223,56644,2,0,P|138:311|201:382,1,192
294,361,57347,6,0,P|321:319|326:275,1,96
275,192,57816,1,0,0:0:0:0:
325,109,58050,2,0,P|320:62|294:23,1,96
275,192,58519,2,0,P|376:194|421:124,1,192
231,110,59222,6,0,P|195:143|182:188,2,96,0|0|0,0:0|0:0|0:0,0:0:0:0:
279,26,59925,1,0,0:0:0:0:
183,23,60159,1,0,0:0:0:0:
327,110,60394,2,0,P|299:200|229:264,1,192,0|0,0:0|0:0,0:0:0:0:
87,237,61097,6,0,L|56:144,2,96,0|0|0,0:0|0:0|0:0,0:0:0:0:
180,304,61800,1,0,0:0:0:0:
338,195,62034,1,0,0:0:0:0:
180,304,62269,6,0,B|197:315|197:315|215:301|215:301|246:324|285:323|312:306,1,144.000005493164
341,289,62620,1,0,0:0:0:0:
369,262,62738,5,0,0:0:0:0:
321,178,62972,2,0,P|279:163|229:176,1,96
138,202,63441,1,0,0:0:0:0:
90,118,63675,2,0,P|134:102|180:115,1,96
206,257,64144,2,0,P|121:289|54:226,1,192,0|0,0:0|0:0,0:0:0:0:
274,203,64847,6,0,P|293:252|285:293,2,96,0|0|0,0:0|0:0|0:0,0:0:0:0:
178,137,65550,2,0,P|159:88|167:47,1,96,0|0,0:0|0:0,0:0:0:0:
329,149,66019,2,0,P|367:247|351:329,1,192,0|0,0:0|0:0,0:0:0:0:
158,346,66722,6,0,L|101:265,1,96
354,38,67191,2,0,L|411:119,1,96
102,153,67659,1,0,0:0:0:0:
410,231,67894,1,0,0:0:0:0:
256,52,68128,1,0,0:0:0:0:
256,332,68363,5,0,0:0:0:0:
256,332,68831,1,0,0:0:0:0:
204,146,69066,1,0,0:0:0:0:
340,281,69300,1,0,0:0:0:0:
158,220,69534,1,0,0:0:0:0:
132,200,69651,1,0,0:0:0:0:
119,167,69768,1,0,0:0:0:0:
117,133,69885,1,0,0:0:0:0:
127,102,70002,1,0,0:0:0:0:
149,76,70119,1,0,0:0:0:0:
178,61,70237,5,0,0:0:0:0:
304,52,70472,2,0,P|356:64|392:92,1,96
508,52,70941,1,0,0:0:0:0:
272,136,71175,2,0,P|232:108|216:60,1,96
364,128,71644,2,0,P|344:192|272:228,1,144
244,228,72113,5,0,0:0:0:0:
124,196,72347,2,0,L|28:148,1,96
244,228,72816,1,0,0:0:0:0:
244,228,73050,2,0,L|340:276,1,96
436,336,73519,2,0,P|376:268|376:168,1,192
500,152,74222,6,0,P|480:104|448:72,1,96
420,56,74573,1,0,0:0:0:0:
388,48,74691,1,0,0:0:0:0:
276,104,74925,2,0,P|294:148|328:184,1,96
356,40,75394,2,0,P|256:8|184:56,1,192
328,184,76097,6,0,P|304:224|260:240,1,96
224,244,76448,1,0,0:0:0:0:
192,248,76566,1,0,0:0:0:0:
116,148,76800,2,0,L|20:204,1,96
148,344,77269,2,0,B|208:352|208:352|236:336|284:340|284:340|352:348|292:332|292:332|272:324|272:324|232:328|212:312|212:312,1,288.000010986329
58,208,77972,6,0,P|63:255|87:295,1,96
116,96,78441,1,0,0:0:0:0:
328,52,78675,2,0,L|232:52,1,96
300,156,79144,2,0,P|396:136|432:36,1,192
232,52,79847,6,0,L|328:52,1,96
132,128,80316,1,0,0:0:0:0:
328,200,80550,2,0,L|232:200,1,96
408,156,81019,2,0,B|384:196|332:200|332:200|308:200|231:200,1,192
312,76,81722,6,0,P|352:44|396:36,1,96
496,108,82191,2,0,P|508:156|496:208,1,96
354,244,82659,2,0,L|396:268,1,48
161,251,82894,2,0,L|120:275,1,48
251,32,83128,2,0,L|252:84,1,48
256,192,83363,5,0,0:0:0:0:
56,344,83831,6,0,B|76:320|76:320|104:312|116:292,1,72.0000027465821
104,204,84066,2,0,B|124:180|124:180|152:172|164:152,1,72.0000027465821
156,68,84300,2,0,B|176:44|176:44|204:36|216:16,1,72.0000027465821
304,24,84534,1,0,0:0:0:0:
396,188,84769,1,0,0:0:0:0:
220,20,85003,1,0,0:0:0:0:
216,264,85238,6,0,P|245:290|276:297,1,72.0000027465821
352,255,85706,1,0,0:0:0:0:
297,187,85941,2,0,P|268:161|237:154,1,72.0000027465821
161,196,86409,1,0,0:0:0:0:
216,264,86644,2,0,P|238:235|247:199,1,72.0000027465821
135,276,87113,6,0,P|149:311|174:335,1,72.0000027465821
259,339,87581,1,0,0:0:0:0:
306,225,87816,1,0,0:0:0:0:
380,322,88050,1,0,0:0:0:0:
426,249,88284,1,0,0:0:0:0:
385,133,88519,1,0,0:0:0:0:
306,225,88753,1,0,0:0:0:0:
474,170,88988,6,0,P|481:133|475:100,1,72.0000027465821
402,40,89456,1,0,0:0:0:0:
309,27,89691,1,0,0:0:0:0:
292,120,89925,1,0,0:0:0:0:
385,133,90160,1,0,0:0:0:0:
309,27,90394,1,0,0:0:0:0:
385,133,90628,1,0,0:0:0:0:
309,27,90863,6,0,P|272:27|240:42,1,72.0000027465821
197,124,91331,1,0,0:0:0:0:
72,50,91566,1,0,0:0:0:0:
72,50,91800,2,0,P|55:84|53:120,1,72.0000027465821
197,124,92269,1,0,0:0:0:0:
120,245,92503,1,0,0:0:0:0:
197,124,92738,6,0,P|232:117|266:126,1,72.0000027465821
349,194,93206,1,0,0:0:0:0:
359,86,93441,1,0,0:0:0:0:
349,194,93675,1,0,0:0:0:0:
349,194,93909,1,0,0:0:0:0:
447,149,94144,2,0,L|441:220,1,72.0000027465821
311,211,94613,5,0,0:0:0:0:
398,305,94847,1,0,0:0:0:0:
398,305,95081,1,0,0:0:0:0:
268,295,95316,1,0,0:0:0:0:
398,305,95550,1,0,0:0:0:0:
398,305,95784,1,0,0:0:0:0:
394,175,96019,1,0,0:0:0:0:
508,236,96253,1,0,0:0:0:0:
381,166,96488,5,0,0:0:0:0:
398,305,96722,1,0,0:0:0:0:
398,305,96956,1,0,0:0:0:0:
293,205,97191,1,0,0:0:0:0:
276,344,97425,1,0,0:0:0:0:
276,344,97659,1,0,0:0:0:0:
204,218,97894,2,0,P|185:187|157:165,1,72.0000027465821
31,94,98363,5,0,0:0:0:0:
36,236,98597,1,0,0:0:0:0:
35,237,98831,1,0,0:0:0:0:
141,139,99066,1,0,0:0:0:0:
141,139,99300,2,0,L|121:211,1,72.0000027465821
371,139,99769,2,0,L|391:211,1,72.0000027465821
256,188,100238,6,0,L|256:284,1,96
256,284,100706,1,0,0:0:0:0:
193,91,100941,1,0,0:0:0:0:
356,210,101175,1,0,0:0:0:0:
356,210,101409,1,0,0:0:0:0:
155,210,101644,1,0,0:0:0:0:
318,91,101878,1,0,0:0:0:0:
464,120,102113,6,0,P|500:168|500:232,1,115.199996484375
502,221,102581,1,0,0:0:0:0:
372,112,102816,2,0,P|395:56|450:24,1,115.199996484375
440,27,103284,1,0,0:0:0:0:
412,196,103519,2,0,P|352:203|297:171,1,115.199996484375
100,188,103988,6,0,P|159:180|214:212,1,115.199996484375
132,364,104456,1,0,0:0:0:0:
28,240,104691,2,0,P|12:176|36:124,1,124.79999428711
168,32,105159,1,0,0:0:0:0:
304,124,105394,1,0,0:0:0:0:
168,212,105628,1,0,0:0:0:0:
248,56,105863,6,0,P|312:36|376:72,1,134.399995898438
492,188,106331,1,0,0:0:0:0:
304,124,106566,1,0,0:0:0:0:
304,124,106800,1,0,0:0:0:0:
428,252,107034,1,0,0:0:0:0:
256,292,107269,2,0,L|316:236,1,67.1999979492188
368,184,107503,2,0,L|428:128,1,67.1999979492188
484,72,107738,6,0,B|444:40|400:48|400:48|340:24,1,144.000005493164
164,12,108206,1,0,0:0:0:0:
236,184,108441,2,0,L|168:152,1,72.0000027465821
116,228,108675,2,0,B|180:260|180:260|144:280|120:316,1,144.000005493164
300,240,109144,2,0,P|360:248|432:300,1,144.000005493164
208,256,109613,6,0,P|160:176|184:124,1,153.6
348,16,110081,1,0,0:0:0:0:
236,184,110316,1,0,0:0:0:0:
236,184,110550,1,0,0:0:0:0:
436,192,110784,1,0,0:0:0:0:
268,84,111019,1,0,0:0:0:0:
436,192,111253,1,0,0:0:0:0:
248,288,111488,6,0,P|168:260|132:188,1,163.200003112793
232,8,111956,2,0,P|268:0|316:16,1,81.6000015563965
272,112,112191,2,0,P|344:172|344:240,1,163.200003112793
184,372,112659,1,0,0:0:0:0:
24,236,112894,2,0,P|68:160|136:128,1,163.200003112793
488,236,113363,6,0,P|444:160|376:128,1,163.200003112793
488,236,113831,1,0,0:0:0:0:
292,348,114066,2,0,L|260:260,1,86.3999973632813
118,274,114300,2,0,L|192:216,1,86.3999973632813
135,86,114534,2,0,L|212:139,1,86.3999973632813
318,44,114769,2,0,L|292:134,1,86.3999973632813
415,205,115003,2,0,L|321:209,1,86.3999973632813
256,192,115238,1,0,0:0:0:0:
187,299,126019,6,0,L|116:363,1,96
325,299,126487,2,0,L|396:363,1,96
187,205,126956,2,0,L|116:269,1,96
325,205,127424,2,0,L|396:269,1,96
187,111,127894,6,0,L|116:175,1,96
325,111,128362,2,0,L|396:175,1,96
187,17,128832,2,0,L|116:81,1,96
325,17,129300,2,0,L|396:81,1,96
388,225,129769,5,0,0:0:0:0:
267,319,130003,1,0,0:0:0:0:
283,112,130237,1,0,0:0:0:0:
162,206,130471,1,0,0:0:0:0:
404,207,130706,5,0,0:0:0:0:
288,334,130940,1,0,0:0:0:0:
265,102,131174,1,0,0:0:0:0:
150,230,131408,1,0,0:0:0:0:
416,183,131644,5,0,0:0:0:0:
314,346,131878,1,0,0:0:0:0:
245,96,132112,1,0,0:0:0:0:
143,258,132346,1,0,0:0:0:0:
279,225,132581,1,0,0:0:0:0:
172,64,133050,2,0,B|144:52|144:52|128:80|96:84|96:84|120:128|116:172|116:172|152:188,1,216.000008239746
189,179,133519,5,0,0:0:0:0:
333,61,133753,1,0,0:0:0:0:
365,245,133987,1,0,0:0:0:0:
230,72,134222,6,0,P|187:65|148:72,1,84.0000008010864
71,150,134456,1,0,0:0:0:0:
206,323,134690,6,0,P|249:330|288:323,1,84.0000008010864
365,245,134924,1,0,0:0:0:0:
230,72,135159,1,0,0:0:0:0:
254,162,135394,6,0,P|250:187|222:222,1,72
196,240,135862,1,0,0:0:0:0:
44,81,136097,6,0,P|83:59|121:58,1,84.0000008010864
230,72,136331,2,0,L|252:153,1,84.0000008010864
319,238,136565,6,0,P|280:260|242:261,1,84.0000008010864
133,247,136799,2,0,L|111:166,1,84.0000008010864
199,101,137034,2,0,L|221:182,1,84.0000008010864
181,332,137269,6,0,P|154:344|125:345,1,57.5999982421876
133,247,137503,2,0,P|160:235|189:234,1,57.5999982421876
269,286,137737,1,0,0:0:0:0:
269,286,137854,1,0,0:0:0:0:
269,286,137972,2,0,L|306:330,1,57.5999982421876
346,201,138206,1,0,0:0:0:0:
346,201,138323,2,0,L|356:257,1,57.5999982421876
402,344,138558,1,0,0:0:0:0:
460,265,138675,2,0,L|449:208,1,57.5999982421876
402,122,138909,2,0,P|374:107|346:104,1,57.5999982421876
104,72,279349,6,0,B|88:108|88:108|104:136|88:160|88:160|96:188|96:188|84:216,1,144
152,356,280052,2,0,L|196:312,1,48
268,284,280286,6,0,L|320:224,1,52.8000016113282
404,152,280579,1,0,0:0:0:0:
364,16,280755,6,0,B|351:19|351:19|343:47|343:47|331:55|327:63,1,62.3999971435548
232,160,280989,6,0,B|244:144|244:144|262:138|288:120,1,67.1999979492188
164,228,281224,6,0,B|140:256|140:256|128:216|92:196|92:196|92:164,1,144.000005493164
48,284,281927,1,0,0:0:0:0:
