osu file format v13

[General]
AudioFilename: Knife Party - Give It Up.mp3
AudioLeadIn: 0
PreviewTime: 65748
Countdown: 0
SampleSet: None
StackLeniency: 0.7
Mode: 0
LetterboxInBreaks: 0
WidescreenStoryboard: 0

[Editor]
Bookmarks: 22052,44121,110317
DistanceSpacing: 0.9
BeatDivisor: 4
GridSize: 4
TimelineZoom: 1.4

[Metadata]
Title:Give It Up
TitleUnicode:Give It Up
Artist:Knife Party
ArtistUnicode:Knife Party
Creator:Shadren
Version:Normal
Source:
Tags:cut short dubstep abandon ship LP Earstorm Records AlexaBM
BeatmapID:541538
BeatmapSetID:230989

[Difficulty]
HPDrainRate:4
CircleSize:3.5
OverallDifficulty:4
ApproachRate:5
SliderMultiplier:2.1
SliderTickRate:1

[Events]
//Background and Video events
0,0,"BG.jpg",0,0
//Break Periods
2,85500,87040
//Storyboard Layer 0 (Background)
//Storyboard Layer 1 (Fail)
//Storyboard Layer 2 (Pass)
//Storyboard Layer 3 (Foreground)
//Storyboard Sound Samples

[TimingPoints]
-35,689.655172413793,4,3,0,60,1,0
66171,-100,4,3,0,60,0,1
74447,-100,4,3,0,60,0,0
77206,-100,4,3,0,60,0,1
85482,-100,4,3,0,60,0,0
88240,-100,4,3,0,60,0,1
96516,-100,4,3,0,60,0,0
99275,-100,4,3,0,60,0,1
107551,-100,4,3,0,60,0,0

[Colours]
Combo1 : 72,170,239
Combo2 : 239,72,143
Combo3 : 43,64,255
Combo4 : 183,47,193

[HitObjects]
440,120,22033,6,0,P|388:132|336:120,1,105,12|0,1:3|0:0,0:0:0:0:
248,92,22723,2,0,P|197:81|146:93,1,105,4|0,0:0|0:0,0:0:0:0:
76,160,23413,1,4,3:0:0:0:
120,244,23758,2,0,L|124:300,1,52.5,0|0,0:0|0:0,0:0:0:0:
152,336,24102,1,4,3:0:0:0:
240,372,24447,2,0,P|272:376|304:368,1,52.5,2|2,2:0|2:0,0:0:0:0:
332,348,24792,6,0,L|340:228,1,105,12|0,0:0|0:0,0:0:0:0:
308,208,25309,1,0,0:0:0:0:
284,168,25482,2,0,P|280:116|316:60,1,105,4|0,0:0|0:0,0:0:0:0:
392,36,26171,2,0,P|398:87|374:133,2,105,4|0|4,0:0|0:0|3:0,0:0:0:0:
296,28,27206,2,0,L|232:32,1,52.5,8|8,3:0|3:0,0:0:0:0:
204,60,27551,6,0,L|88:68,1,105,12|0,0:0|0:0,0:0:0:0:
28,132,28240,2,0,P|24:168|28:188,1,52.5,4|0,0:0|0:0,0:0:0:0:
44,228,28585,2,0,P|47:253|42:279,1,52.5,0|0,0:0|0:0,0:0:0:0:
20,320,28930,2,0,L|132:312,2,105,4|0|4,0:0|0:0|0:0,0:0:0:0:
44,228,29964,2,0,L|104:224,1,52.5,2|2,2:0|2:0,0:0:0:0:
136,200,30309,5,12,0:0:0:0:
204,136,30654,2,0,P|256:112|308:120,1,105,0|4,0:0|0:0,0:0:0:0:
392,152,31344,2,0,L|452:148,1,52.5,0|0,0:0|0:0,0:0:0:0:
484,175,31689,2,0,P|475:230|508:292,1,105,4|0,0:0|0:0,0:0:0:0:
416,328,32378,2,0,L|348:332,1,52.5,4|4,0:0|0:0,0:0:0:0:
320,308,32723,2,0,L|267:311,1,52.5,8|8,0:0|0:0,0:0:0:0:
228,332,33068,6,0,P|176:344|120:324,1,105,12|0,0:0|0:0,0:0:0:0:
84,248,33758,1,4,0:0:0:0:
128,164,34102,2,0,L|132:108,1,52.5,0|0,0:0|0:0,0:0:0:0:
160,76,34447,1,4,0:0:0:0:
252,56,34792,1,0,0:0:0:0:
328,108,35137,1,4,0:0:0:0:
360,196,35482,2,0,L|356:252,1,52.5,2|2,2:0|2:0,0:0:0:0:
372,292,35827,6,0,P|424:308|488:288,2,105,12|0|4,0:0|0:0|0:0,0:0:0:0:
284,252,36861,2,0,L|228:256,1,52.5,0|0,0:0|0:0,0:0:0:0:
192,232,37206,2,0,P|176:176|196:116,1,105,4|0,0:0|0:0,0:0:0:0:
176,36,37896,2,0,L|104:32,1,52.5,4|4,0:0|0:0,0:0:0:0:
88,64,38240,2,0,L|32:60,1,52.5,8|8,0:0|0:0,0:0:0:0:
0,92,38585,6,0,L|4:208,1,105,12|0,0:0|0:0,0:0:0:0:
68,268,39275,2,0,L|128:272,1,52.5,4|0,0:0|0:0,0:0:0:0:
160,244,39620,2,0,L|212:248,1,52.5,0|0,0:0|0:0,0:0:0:0:
256,228,39964,2,0,P|272:176|248:112,2,105,4|0|4,0:0|0:0|0:0,0:0:0:0:
176,176,40999,2,0,L|116:172,1,52.5,2|2,2:0|2:0,0:0:0:0:
88,144,41344,6,0,P|84:84|116:40,2,105,12|0|4,0:0|0:0|0:0,0:0:0:0:
176,176,42378,2,0,L|236:172,1,52.5,0|0,0:0|0:0,0:0:0:0:
264,144,42723,2,0,L|372:136,1,105,4|0,0:0|0:0,0:0:0:0:
452,184,43413,2,0,P|454:210|450:235,1,52.5,4|4,0:0|0:0,0:0:0:0:
420,272,43758,2,0,P|416:300|420:328,1,52.5,8|8,0:0|0:0,0:0:0:0:
440,368,44102,6,0,L|328:372,1,105,4|4,0:1|0:0,0:0:0:0:
252,328,44792,1,4,0:0:0:0:
164,360,45137,1,4,0:0:0:0:
88,304,45482,2,0,P|72:248|96:192,1,105,4|4,0:0|0:0,0:0:0:0:
148,136,46171,2,0,P|164:88|140:28,1,105,4|4,0:0|0:0,0:0:0:0:
240,20,46861,6,0,L|352:24,2,105,4|4|4,0:0|0:0|0:0,0:0:0:0:
148,37,47896,1,4,0:0:0:0:
192,120,48240,2,0,P|208:168|188:224,1,105,4|4,0:0|0:0,0:0:0:0:
260,284,48930,2,0,L|320:288,1,52.5,4|8,0:0|0:0,0:0:0:0:
352,260,49275,2,0,L|412:256,1,52.5,4|8,0:0|0:0,0:0:0:0:
444,232,49620,6,0,L|448:112,2,105,4|4|4,0:0|0:0|0:0,0:0:0:0:
352,260,50654,1,4,0:0:0:0:
264,224,50999,2,0,P|216:200|152:216,1,105,4|4,0:0|0:0,0:0:0:0:
76,236,51689,2,0,L|68:120,1,105,4|4,0:0|0:0,0:0:0:0:
140,68,52378,5,4,0:0:0:0:
228,100,52723,1,4,0:0:0:0:
308,48,53068,2,0,L|428:40,1,105,4|4,0:0|0:0,0:0:0:0:
484,104,53758,2,0,P|496:156|480:212,1,105,4|4,0:0|0:0,0:0:0:0:
404,260,54447,2,0,L|352:264,1,52.5,4|8,0:0|0:0,0:0:0:0:
316,296,54792,2,0,L|264:300,1,52.5,4|8,0:0|0:0,0:0:0:0:
220,284,55137,6,0,P|168:276|116:296,2,105,4|4|4,0:0|0:0|0:0,0:0:0:0:
316,296,56171,1,4,0:0:0:0:
404,260,56516,2,0,L|412:140,1,105,4|4,0:0|0:0,0:0:0:0:
332,104,57206,2,0,L|325:208,1,105,4|4,0:0|0:0,0:0:0:0:
252,268,57896,6,0,P|192:276|136:256,1,105,4|4,0:0|0:0,0:0:0:0:
104,180,58585,1,4,0:0:0:0:
132,92,58930,1,4,0:0:0:0:
216,52,59275,2,0,L|324:48,1,105,4|4,0:0|0:0,0:0:0:0:
396,104,59964,2,0,P|404:136|404:160,1,52.5,4|0,0:0|0:0,0:0:0:0:
396,200,60309,2,0,P|397:226|404:251,1,52.5,4|0,0:0|0:0,0:0:0:0:
424,292,60654,6,0,L|308:304,2,105,4|4|4,0:0|0:0|0:0,0:0:0:0:
476,212,61689,1,4,0:0:0:0:
396,164,62033,2,0,P|380:108|396:56,1,105,4|4,0:0|0:0,0:0:0:0:
472,112,62723,2,0,P|488:164|460:232,1,105,4|4,0:0|0:0,0:0:0:0:
256,192,63413,12,0,65482,0:0:0:0:
156,40,66171,6,0,P|200:112|148:196,1,157.5,6|0,0:1|2:0,0:0:0:0:
152,216,66861,2,0,L|160:332,1,105,4|4,0:0|0:0,0:0:0:0:
240,368,67551,2,0,P|280:368|296:364,1,52.5,2|2,1:0|1:0,0:0:0:0:
336,348,67896,2,0,P|368:344|388:344,1,52.5,2|2,1:0|1:0,0:0:0:0:
436,356,68240,2,0,L|440:284,1,52.5,4|0,0:0|0:0,0:0:0:0:
436,256,68585,1,4,0:0:0:0:
384,176,68930,5,4,0:1:0:0:
424,92,69275,1,4,0:1:0:0:
348,32,69620,2,0,P|296:24|244:40,1,105,4|4,0:0|0:0,0:0:0:0:
176,104,70309,2,0,L|60:108,1,105,2|2,1:0|1:0,0:0:0:0:
116,192,70999,2,0,L|220:188,1,105,2|2,1:0|1:0,0:0:0:0:
288,256,71689,6,0,P|316:184|276:112,1,157.5,6|0,3:1|2:0,0:0:0:0:
252,80,72378,2,0,L|356:76,1,105,4|4,0:0|0:0,0:0:0:0:
436,124,73068,2,0,L|432:188,1,52.5,2|2,1:0|1:0,0:0:0:0:
460,216,73413,2,0,L|468:284,1,52.5,2|2,1:0|1:0,0:0:0:0:
440,308,73758,2,0,P|392:324|320:304,1,105,4|4,0:0|0:0,0:0:0:0:
256,272,74447,6,0,P|208:260|136:284,1,105,6|0,0:1|0:0,0:0:0:0:
68,308,75137,2,0,L|60:192,1,105,6|0,0:1|0:0,0:0:0:0:
132,140,75827,2,0,L|124:24,1,105,6|6,0:1|0:1,0:0:0:0:
220,16,76516,2,0,P|304:40|324:108,1,157.5,6|0,1:0|0:0,0:0:0:0:
352,140,77206,6,0,L|460:144,1,105,6|0,0:1|0:0,0:0:0:0:
508,224,77896,1,4,0:0:0:0:
484,316,78240,1,4,0:0:0:0:
408,372,78585,2,0,P|379:375|348:368,1,52.5,2|2,1:0|1:0,0:0:0:0:
312,352,78930,2,0,P|286:347|260:351,1,52.5,2|2,1:0|1:0,0:0:0:0:
216,368,79275,2,0,L|208:276,1,52.5,4|0,0:0|0:0,0:0:0:0:
216,268,79620,1,4,0:0:0:0:
260,184,79964,5,4,0:1:0:0:
196,112,80309,1,4,0:1:0:0:
104,140,80654,2,0,P|44:148|0:124,1,105,4|4,0:0|0:0,0:0:0:0:
64,52,81344,2,0,P|128:48|168:72,2,105,2|2|2,1:0|1:0|1:0,0:0:0:0:
104,140,82378,1,2,1:0:0:0:
196,164,82723,6,0,P|252:112|256:28,1,157.5,6|0,0:1|2:0,0:0:0:0:
300,12,83413,2,0,L|412:16,1,105,4|4,0:0|0:0,0:0:0:0:
468,84,84102,2,0,P|472:116|468:140,1,52.5,2|2,1:0|1:0,0:0:0:0:
444,176,84447,2,0,P|441:202|445:227,1,52.5,2|2,1:0|1:0,0:0:0:0:
464,272,84792,2,0,L|336:268,1,105,4|4,0:0|0:0,0:0:0:0:
292,124,88240,6,0,L|128:136,1,157.5,6|0,0:1|2:0,0:0:0:0:
100,168,88930,2,0,P|92:224|112:276,1,105,4|4,0:0|0:0,0:0:0:0:
184,324,89620,2,0,L|240:320,1,52.5,2|2,1:0|1:0,0:0:0:0:
272,292,89964,2,0,L|328:288,1,52.5,2|2,1:0|1:0,0:0:0:0:
364,260,90309,2,0,L|444:252,1,52.5,4|0,0:0|0:0,0:0:0:0:
444,292,90654,1,4,3:0:0:0:
512,224,90999,5,4,0:1:0:0:
460,148,91344,1,4,0:1:0:0:
364,144,91689,2,0,P|311:165|286:215,1,105,4|4,0:0|0:0,0:0:0:0:
236,284,92378,2,0,L|120:292,1,105,2|2,1:0|1:0,0:0:0:0:
80,212,93068,2,0,L|184:204,1,105,2|2,1:0|1:0,0:0:0:0:
268,160,93758,6,0,P|276:80|212:40,1,157.5,6|0,0:1|2:0,0:0:0:0:
176,60,94447,2,0,L|64:68,1,105,4|4,0:0|0:0,0:0:0:0:
20,148,95137,2,0,P|20:184|24:208,1,52.5,2|2,1:0|1:0,0:0:0:0:
48,240,95482,2,0,P|51:266|50:292,1,52.5,2|2,1:0|1:0,0:0:0:0:
36,336,95827,2,0,L|152:328,1,105,4|4,0:0|0:0,0:0:0:0:
200,256,96516,6,0,P|212:196|184:136,1,105,6|0,0:1|0:0,0:0:0:0:
120,206,97206,2,0,P|106:155|118:105,1,105,6|0,0:1|0:0,0:0:0:0:
204,60,97896,2,0,L|312:56,1,105,6|6,1:0|0:1,0:0:0:0:
392,104,98585,2,0,P|420:172|376:240,1,157.5,6|0,0:1|2:0,0:0:0:0:
340,264,99275,6,0,L|344:372,1,105,6|0,0:1|0:0,0:0:0:0:
256,336,99964,2,0,L|252:231,1,105,4|4,0:0|0:0,0:0:0:0:
188,160,100654,2,0,P|160:156|128:160,1,52.5,2|2,1:0|1:0,0:0:0:0:
92,172,100999,2,0,P|65:174|39:170,1,52.5,2|2,1:0|1:0,0:0:0:0:
0,152,101344,2,0,L|4:240,1,52.5,4|0,0:0|0:0,0:0:0:0:
8,252,101689,1,4,0:0:0:0:
72,320,102033,5,4,0:1:0:0:
156,276,102378,1,4,0:1:0:0:
232,328,102723,2,0,P|288:336|336:320,1,105,4|4,0:0|0:0,0:0:0:0:
392,248,103413,2,0,P|441:233|493:241,2,105,2|2|2,1:0|1:0|1:0,0:0:0:0:
334,322,104447,1,2,1:0:0:0:
248,284,104792,6,0,L|232:120,1,157.5,6|0,0:1|2:0,0:0:0:0:
196,98,105482,2,0,P|136:90|88:118,1,105,4|4,0:0|0:0,0:0:0:0:
36,184,106171,2,0,L|32:248,1,52.5,2|2,1:0|1:0,0:0:0:0:
68,268,106516,2,0,L|72:332,1,52.5,2|2,1:0|1:0,0:0:0:0:
104,352,106861,2,0,L|220:344,1,105,4|4,0:0|0:0,0:0:0:0:
256,192,107896,12,4,110309,1:0:0:0:
