osu file format v13

[General]
AudioFilename: Knife Party - Give It Up.mp3
AudioLeadIn: 0
PreviewTime: 65748
Countdown: 0
SampleSet: None
StackLeniency: 0.7
Mode: 0
LetterboxInBreaks: 0
WidescreenStoryboard: 0

[Editor]
Bookmarks: 110317
DistanceSpacing: 1.1
BeatDivisor: 4
GridSize: 4
TimelineZoom: 1.4

[Metadata]
Title:Give It Up
TitleUnicode:Give It Up
Artist:Knife Party
ArtistUnicode:Knife Party
Creator:Shadren
Version:Easy
Source:
Tags:cut short dubstep abandon ship LP Earstorm Records AlexaBM
BeatmapID:536977
BeatmapSetID:230989

[Difficulty]
HPDrainRate:2
CircleSize:3
OverallDifficulty:2
ApproachRate:3
SliderMultiplier:1.6
SliderTickRate:2

[Events]
//Background and Video events
0,0,"BG.jpg",0,0
//Break Periods
2,85488,86800
//Storyboard Layer 0 (Background)
//Storyboard Layer 1 (Fail)
//Storyboard Layer 2 (Pass)
//Storyboard Layer 3 (Foreground)
//Storyboard Sound Samples
//Background Colour Transformations

[TimingPoints]
-35,689.655172413793,4,3,0,60,1,0
66171,-100,4,3,0,60,0,1
74447,-100,4,3,0,60,0,0
77206,-100,4,3,0,60,0,1
85482,-100,4,3,0,60,0,0
88240,-100,4,3,0,60,0,1
96516,-100,4,3,0,60,0,0
99275,-100,4,3,0,60,0,1
107551,-100,4,3,0,60,0,0

[Colours]
Combo1 : 72,170,239
Combo2 : 239,72,143
Combo3 : 43,64,255
Combo4 : 183,47,193

[HitObjects]
278,240,22033,6,0,P|258:165|323:97,1,160,12|4,1:3|0:0,0:0:0:0:
345,183,23068,1,0,0:0:0:0:
364,268,23413,2,0,P|341:304|298:326,2,80,4|0|4,3:0|0:0|3:0,0:0:0:0:
345,183,24447,1,0,0:0:0:0:
308,104,24792,6,0,L|148:100,1,160,12|4,0:0|0:0,0:0:0:0:
94,169,25827,1,0,0:0:0:0:
124,252,26171,2,0,P|120:336|60:376,1,160,4|4,0:0|0:0,0:0:0:0:
48,200,27551,6,0,P|112:160|196:196,1,160,12|4,0:0|0:0,0:0:0:0:
255,243,28585,1,0,0:0:0:0:
324,300,28930,2,0,B|360:312|395:302|395:302|436:292|496:308,1,160,4|4,0:0|0:0,0:0:0:0:
506,219,29964,1,2,2:0:0:0:
456,146,30309,6,0,P|448:66|512:30,2,160,12|4|4,0:0|0:0|0:0,0:0:0:0:
424,228,32033,2,0,P|380:248|340:244,1,80,0|4,0:0|0:0,0:0:0:0:
188,184,33068,6,0,B|188:112|188:112|160:68|188:12,1,160,12|4,0:0|0:0,0:0:0:0:
264,64,34102,1,0,0:0:0:0:
276,152,34447,2,0,P|344:188|425:140,1,160,4|4,0:0|0:0,0:0:0:0:
346,99,35482,1,2,2:0:0:0:
264,64,35827,6,0,P|198:105|199:199,1,160,12|4,0:0|0:0,0:0:0:0:
224,264,36861,1,0,0:0:0:0:
188,344,37206,2,0,B|128:360|128:360|92:328|16:344,1,160,4|4,0:0|0:0,0:0:0:0:
12,256,38240,1,8,0:0:0:0:
48,176,38585,6,0,P|84:156|136:160,2,80,12|0|4,0:0|0:0|0:0,0:0:0:0:
109,242,39620,1,0,0:0:0:0:
192,208,39964,2,0,P|208:132|152:72,1,160,4|4,0:0|0:0,0:0:0:0:
122,156,40999,1,2,2:0:0:0:
109,242,41344,6,0,P|166:293|246:275,1,160,12|4,0:0|0:0,0:0:0:0:
316,232,42378,1,0,0:0:0:0:
364,160,42723,2,0,L|368:56,1,80,4|0,0:0|0:0,0:0:0:0:
296,28,43413,2,0,P|244:24|212:36,1,80,4|8,0:0|0:0,0:0:0:0:
156,92,44102,6,0,P|88:148|16:136,2,160,4|4|4,0:1|0:0|0:0,0:0:0:0:
304,60,46171,2,0,L|388:64,1,80,4|4,0:0|0:0,0:0:0:0:
460,112,46861,6,0,P|488:188|428:260,1,160,4|4,0:0|0:0,0:0:0:0:
400,176,47896,1,4,0:0:0:0:
372,92,48240,2,0,P|392:52|444:28,2,80,4|4|4,0:0|0:0|0:0,0:0:0:0:
480,216,49620,6,0,L|492:380,2,160,4|4|4,0:0|0:0|0:0,0:0:0:0:
401,176,51344,1,4,0:0:0:0:
320,208,51689,2,0,P|264:216|224:204,1,80,4|4,0:0|0:0,0:0:0:0:
168,164,52378,6,0,P|96:132|16:192,1,160,4|4,0:0|0:0,0:0:0:0:
180,252,53758,2,0,P|244:208|244:120,1,160,4|4,0:0|0:0,0:0:0:0:
168,164,54792,1,4,0:0:0:0:
100,220,55137,6,0,P|108:300|204:336,2,160,4|4|4,0:0|0:0|0:0,0:0:0:0:
168,164,56861,1,4,0:0:0:0:
256,180,57206,2,0,L|348:172,1,80,4|4,0:0|0:0,0:0:0:0:
380,96,57896,6,0,P|424:164|396:236,1,160,4|4,0:0|0:0,0:0:0:0:
317,264,58930,1,4,0:0:0:0:
230,259,59275,2,0,P|189:180|233:104,1,160,4|4,0:0|0:0,0:0:0:0:
280,183,60309,1,4,0:0:0:0:
317,264,60654,6,0,P|289:328|181:328,1,160,4|0,0:0|0:0,0:0:0:0:
68,236,62033,2,0,P|96:172|204:160,1,160,4|0,0:0|0:0,0:0:0:0:
350,178,63413,6,0,P|398:175|290:242,1,480,4|2,0:0|1:0,0:0:0:0:
360,88,66171,6,2,P|272:120|264:204,1,160,6|4,0:1|0:0,0:0:0:0:
192,240,67206,1,4,0:0:0:0:
136,172,67551,2,0,P|106:100|31:82,1,160,2|4,1:0|0:0,0:0:0:0:
50,170,68585,1,4,0:0:0:0:
88,248,68930,6,0,P|144:260|180:248,1,80,4|4,0:1|0:1,0:0:0:0:
240,204,69620,2,0,L|264:32,2,160,4|2|2,0:0|1:0|1:0,0:0:0:0:
276,284,71344,1,2,1:0:0:0:
356,252,71689,6,2,P|424:200|500:228,1,160,6|4,3:1|0:0,0:0:0:0:
436,288,72723,1,4,0:0:0:0:
364,340,73068,2,0,P|292:316|276:216,1,160,2|4,1:0|0:0,0:0:0:0:
224,164,74102,1,4,0:0:0:0:
164,100,74447,6,2,L|4:84,1,160,6|6,0:1|0:1,0:0:0:0:
96,236,75827,2,2,L|180:228,1,80,6|2,0:1|1:0,0:0:0:0:
252,184,76516,1,6,1:0:0:0:
360,324,77206,6,0,L|184:308,2,160,6|4|2,0:1|0:0|1:0,0:0:0:0:
436,280,78930,1,2,1:0:0:0:
448,192,79275,2,0,P|440:140|452:108,1,80,4|4,0:0|0:0,0:0:0:0:
400,40,79964,6,0,L|316:48,1,80,0|4,0:1|0:1,0:0:0:0:
248,96,80654,2,0,B|216:155|260:208|260:208|256:264,2,160,4|2|2,0:0|1:0|1:0,0:0:0:0:
322,144,82378,1,2,1:0:0:0:
348,228,82723,6,2,P|328:308|240:332,1,160,6|4,0:1|0:0,0:0:0:0:
184,296,83758,1,4,0:0:0:0:
132,224,84102,2,0,L|120:60,1,160,2|4,1:0|0:0,0:0:0:0:
200,28,85137,1,8,0:0:0:0:
344,176,88240,6,2,P|304:252|224:260,1,160,6|4,0:1|0:0,0:0:0:0:
257,178,89275,1,4,0:0:0:0:
296,100,89620,2,0,P|372:88|432:160,1,160,2|4,1:0|0:0,0:0:0:0:
416,228,90654,1,4,0:0:0:0:
360,296,90999,6,0,P|320:304|272:296,1,80,4|4,0:1|0:1,0:0:0:0:
208,248,91689,2,0,B|156:220|104:244|104:244|40:240,2,160,4|2|2,0:0|1:0|1:0,0:0:0:0:
282,299,93413,1,2,1:0:0:0:
352,244,93758,6,2,P|370:168|313:100,1,160,6|4,0:1|0:3,0:0:0:0:
240,80,94792,1,4,0:0:0:0:
308,24,95137,2,0,L|472:16,1,160,2|4,1:0|0:0,0:0:0:0:
512,92,96171,1,4,0:0:0:0:
468,168,96516,6,0,P|460:236|376:280,1,160,6|6,0:1|0:1,0:0:0:0:
380,104,97896,2,0,L|280:96,1,80,6|6,0:1|0:1,0:0:0:0:
260,20,98585,1,6,1:0:0:0:
180,176,99275,6,0,P|108:208|36:176,2,160,6|4|2,0:1|0:0|1:0,0:0:0:0:
244,116,100999,1,2,1:0:0:0:
328,136,101344,2,0,L|416:140,1,80,4|4,0:0|0:0,0:0:0:0:
476,196,102033,6,0,P|484:248|476:280,1,80,4|4,0:1|0:1,0:0:0:0:
412,332,102723,2,0,B|352:352|352:352|304:324|236:348,2,160,4|2|2,0:0|1:0|1:0,0:0:0:0:
479,275,104447,1,2,1:0:0:0:
420,212,104792,6,2,P|367:152|400:56,1,160,6|4,0:1|0:0,0:0:0:0:
452,129,105827,1,4,0:0:0:0:
508,196,106171,2,0,P|488:272|404:300,2,160,2|4|0,1:0|0:0|2:0,0:0:0:0:
256,192,107896,12,4,110309,1:0:0:0:
