osu file format v14

[General]
AudioFilename: Knife Party - Fire Hive.mp3
AudioLeadIn: 2000
PreviewTime: 27472
Countdown: 0
SampleSet: Soft
StackLeniency: 0.7
Mode: 3
LetterboxInBreaks: 0
EpilepsyWarning: 1
SpecialStyle: 0
WidescreenStoryboard: 1

[Editor]
DistanceSpacing: 1
BeatDivisor: 4
GridSize: 4
TimelineZoom: 1

[Metadata]
Title:Fire Hive
TitleUnicode:Fire Hive
Artist:Knife Party
ArtistUnicode:Knife Party
Creator:therevenant
Version:Normal
Source:
Tags:quiz-chan dubstep 100% No Modern Talking collab collaboration
BeatmapID:590241
BeatmapSetID:257943

[Difficulty]
HPDrainRate:5
CircleSize:4
OverallDifficulty:5
ApproachRate:5
SliderMultiplier:1.2
SliderTickRate:1

[Events]
//Background and Video events
0,0,"bg.jpg",0,0
//Break Periods
//Storyboard Layer 0 (Background)
//Storyboard Layer 1 (Fail)
//Storyboard Layer 2 (Pass)
//Storyboard Layer 3 (Foreground)
Sprite,Foreground,Centre,"sb\black.jpg",320,240 L,3040,2 S,0,0,214,0.797085,0.9 F,2,2,214,0.8,0 L,6040,4 S,0,0,214,0.797085,0.9 F,2,2,214,0.8,0 L,9897,2 S,0,0,214,0.797085,0.9 F,2,2,214,0.8,0 L,16754,2 S,0,0,214,0.797085,0.9 F,2,2,214,0.8,0 L,19754,4 S,0,0,214,0.797085,0.9 F,2,2,214,0.8,0 L,23611,2 S,0,0,214,0.797085,0.9 F,2,2,214,0.8,0 L,24040,3 S,0,0,428,0.797085,0.9 F,2,2,428,0.8,0 L,30897,2 S,0,0,428,0.797085,0.95 F,2,2,428,0.8,0 L,32611,2 S,0,0,428,0.797085,0.95 F,2,2,428,0.8,0 L,37754,1 S,0,0,428,0.797085,0.95 F,2,2,428,0.8,0 L,44611,2 S,0,0,428,0.797085,0.95 F,2,2,428,0.8,0 L,46325,2 S,0,0,428,0.797085,0.95 F,2,2,428,0.8,0 L,51468,1 S,0,0,428,0.797085,0.95 F,2,2,428,0.8,0 L,60040,2 S,0,0,428,0.797085,0.95 F,2,2,428,0.8,0 L,65182,1 S,0,0,428,0.797085,0.95 F,2,2,428,0.8,0 L,72040,2 S,0,0,428,0.797085,0.95 F,2,2,428,0.8,0 L,73754,2 S,0,0,428,0.797085,0.95 F,2,2,428,0.8,0 L,78897,1 S,0,0,428,0.797085,0.95 F,2,2,428,0.8,0 F,0,40,467,1,0 S,0,40,467,0.797085,1.1 F,0,3468,3682,1,0 S,0,3468,3682,0.797085,1 F,0,6897,7111,1,0 S,0,6897,7111,0.797085,1 F,0,10325,10540,1,0 S,0,10325,10540,0.797085,1 F,0,17182,17397,1,0 S,0,17182,17397,0.797085,1 F,0,20611,20825,1,0 S,0,20611,20825,0.797085,1 F,0,84040,84682,1,0 S,0,84040,84682,0.797085,1 F,0,85754,86397,1,0 S,0,85754,86397,0.797085,1 F,0,87468,88111,1,0 S,0,87468,88111,0.797085,1 F,0,89182,89825,1,0 S,0,89182,89825,0.797085,1 F,0,90897,91540,1,0 S,0,90897,91540,0.797085,1 F,0,97754,98397,1,0 S,0,97754,98397,0.797085,1 F,0,99468,100111,1,0 S,0,99468,100111,0.797085,1 F,0,101182,101825,1,0 S,0,101182,101825,0.797085,1 F,0,102897,103540,1,0 S,0,102897,103540,0.797085,1 F,0,104611,105254,1,0 S,0,104611,105254,0.797085,1
//Storyboard Sound Samples

[TimingPoints]
40,428.571428571429,4,2,1,60,1,0
40,-100,4,2,1,60,0,0
12897,-100,4,1,0,55,0,0
13754,-100,4,2,1,65,0,0
23611,-100,4,2,1,50,0,0
24040,-100,4,2,1,40,0,0
27468,-100,4,1,0,80,0,1
27575,-100,4,1,0,80,0,0
28325,-100,4,2,1,65,0,0
29182,-100,4,1,0,80,0,0
30040,-100,4,2,1,65,0,0
34325,-100,4,1,0,80,0,0
35182,-100,4,2,1,65,0,0
36040,-100,4,1,0,80,0,0
36897,-100,4,2,1,65,0,0
41182,-100,4,1,0,80,0,0
42040,-100,4,2,1,65,0,0
42897,-100,4,1,0,80,0,0
43754,-100,4,2,1,65,0,0
48040,-100,4,1,0,80,0,0
48897,-100,4,2,1,65,0,0
49754,-100,4,1,0,80,0,0
50611,-100,4,2,1,65,0,0
54897,-100,4,1,0,80,0,1
55004,-100,4,1,0,80,0,0
55754,-100,4,2,1,65,0,0
61754,-100,4,1,0,80,0,0
62611,-100,4,2,1,65,0,0
63468,-100,4,1,0,80,0,0
64325,-100,4,2,1,65,0,0
68611,-100,4,1,0,80,0,0
69468,-100,4,2,1,65,0,0
75361,-100,4,1,0,80,0,0
76325,-100,4,2,1,65,0,0
77182,-100,4,1,0,80,0,0
78040,-100,4,2,1,65,0,0
82325,-100,4,1,0,80,0,0
82540,-100,4,2,1,65,0,0
96040,-100,4,1,0,80,0,0
96254,-100,4,2,1,65,0,0
106754,-100,4,2,1,40,0,0
109754,-100,4,2,0,25,0,0

[Colours]
Combo1 : 145,0,0
Combo2 : 157,157,157
Combo3 : 93,93,93
Combo4 : 102,0,0
Combo5 : 228,228,228
Combo6 : 255,6,6

[HitObjects]
448,192,6897,128,0,7325:0:0:0:0:
64,192,7325,128,0,7754:0:0:0:0:
320,192,7754,128,0,8182:0:0:0:0:
192,192,8182,128,0,8611:0:0:0:0:
448,192,8611,128,0,9040:0:0:0:0:
64,192,9040,128,0,9468:0:0:0:0:
448,192,9468,128,0,9897:0:0:0:0:
320,192,9897,1,0,0:0:0:0:
192,192,10111,1,0,0:0:0:0:
448,192,10325,128,0,10754:0:0:0:0:
320,192,10754,128,0,11182:0:0:0:0:
448,192,11182,128,0,11611:0:0:0:0:
192,192,11611,128,0,12040:0:0:0:0:
320,192,12040,128,0,12468:0:0:0:0:
64,192,12468,128,0,12897:0:0:0:0:
320,192,12897,1,0,0:0:0:0:
320,192,13111,1,0,0:0:0:0:
320,192,13325,1,0,0:0:0:0:
320,192,13540,1,0,0:0:0:0:
64,192,13754,128,0,14182:0:0:0:0:
192,192,13754,128,0,14182:0:0:0:0:
320,192,14182,128,0,14611:0:0:0:0:
192,192,14611,128,0,15040:0:0:0:0:
64,192,14611,128,0,15040:0:0:0:0:
448,192,15040,128,0,15468:0:0:0:0:
320,192,15468,128,0,15897:0:0:0:0:
64,192,15468,128,0,15897:0:0:0:0:
448,192,15897,128,0,16325:0:0:0:0:
192,192,16325,128,0,16754:0:0:0:0:
320,192,16754,1,0,0:0:0:0:
448,192,16968,1,0,0:0:0:0:
320,192,17182,128,0,17611:0:0:0:0:
64,192,17182,128,0,17611:0:0:0:0:
448,192,17611,128,0,18040:0:0:0:0:
320,192,18040,128,0,18468:0:0:0:0:
192,192,18040,128,0,18468:0:0:0:0:
448,192,18468,128,0,18897:0:0:0:0:
192,192,18897,128,0,19325:0:0:0:0:
64,192,18897,128,0,19325:0:0:0:0:
320,192,19325,128,0,19754:0:0:0:0:
64,192,19754,128,0,19968:0:0:0:0:
192,192,19968,128,0,20182:0:0:0:0:
320,192,20182,128,0,20397:0:0:0:0:
448,192,20397,128,0,20611:0:0:0:0:
192,192,20611,128,0,21040:0:0:0:0:
64,192,20611,128,0,21040:0:0:0:0:
320,192,21040,128,0,21468:0:0:0:0:
192,192,21468,128,0,21897:0:0:0:0:
64,192,21468,128,0,21897:0:0:0:0:
448,192,21897,128,0,22325:0:0:0:0:
320,192,22325,128,0,22754:0:0:0:0:
64,192,22325,128,0,22754:0:0:0:0:
448,192,22754,128,0,23182:0:0:0:0:
192,192,23182,1,0,0:0:0:0:
64,192,23611,1,0,0:0:0:0:
448,192,23611,1,0,0:0:0:0:
448,192,23825,1,0,0:0:0:0:
64,192,23825,1,0,0:0:0:0:
320,192,24040,128,0,24468:0:0:0:0:
192,192,24468,128,0,24897:0:0:0:0:
320,192,24897,128,0,25325:0:0:0:0:
192,192,25325,128,0,25540:0:0:0:0:
320,192,25540,128,0,25754:0:0:0:0:
192,192,25754,128,0,25968:0:0:0:0:
448,192,25754,128,0,25968:0:0:0:0:
320,192,25968,128,0,26397:0:0:0:0:
64,192,25968,128,0,26397:0:0:0:0:
448,192,26397,128,0,26825:0:0:0:0:
192,192,26825,128,0,27040:0:0:0:0:
64,192,26825,128,0,27040:0:0:0:0:
64,192,27468,128,0,28325:0:0:0:0:
448,192,27468,128,0,28325:0:0:0:0:
320,192,28325,1,0,0:0:0:0:
192,192,28540,1,0,0:0:0:0:
64,192,28754,1,0,0:0:0:0:
448,192,28968,1,0,0:0:0:0:
320,192,29182,128,0,30040:0:0:0:0:
192,192,29182,128,0,30040:0:0:0:0:
448,192,30040,1,0,0:0:0:0:
64,192,30254,1,0,0:0:0:0:
448,192,30468,1,0,0:0:0:0:
64,192,30682,1,0,0:0:0:0:
192,192,30897,128,0,31325:0:0:0:0:
448,192,30897,128,0,31325:0:0:0:0:
320,192,31325,128,0,31754:0:0:0:0:
64,192,31325,128,0,31754:0:0:0:0:
448,192,31754,1,0,0:0:0:0:
448,192,31968,1,0,0:0:0:0:
448,192,32182,1,0,0:0:0:0:
448,192,32397,1,0,0:0:0:0:
320,192,32611,128,0,32825:0:0:0:0:
192,192,32825,128,0,33040:0:0:0:0:
64,192,33040,128,0,33254:0:0:0:0:
64,192,33468,128,0,33682:0:0:0:0:
192,192,33682,128,0,33897:0:0:0:0:
320,192,33897,128,0,34325:0:0:0:0:
64,192,33897,128,0,34325:0:0:0:0:
192,192,34325,128,0,35182:0:0:0:0:
448,192,34325,128,0,35182:0:0:0:0:
320,192,35182,1,0,0:0:0:0:
192,192,35397,1,0,0:0:0:0:
448,192,35611,1,0,0:0:0:0:
192,192,35825,1,0,0:0:0:0:
448,192,36040,128,0,36897:0:0:0:0:
64,192,36040,128,0,36897:0:0:0:0:
192,192,36897,1,0,0:0:0:0:
192,192,37111,1,0,0:0:0:0:
192,192,37325,1,0,0:0:0:0:
192,192,37540,1,0,0:0:0:0:
320,192,37754,128,0,38182:0:0:0:0:
64,192,37754,128,0,38182:0:0:0:0:
192,192,38182,128,0,38504:0:0:0:0:
64,192,38504,128,0,38825:0:0:0:0:
192,192,38825,128,0,39147:0:0:0:0:
320,192,39147,128,0,39468:0:0:0:0:
64,192,39468,128,0,39790:0:0:0:0:
448,192,39790,128,0,40111:0:0:0:0:
192,192,40111,128,0,40432:0:0:0:0:
320,192,40432,128,0,40754:0:0:0:0:
64,192,40754,1,0,0:0:0:0:
448,192,40754,1,0,0:0:0:0:
448,192,41182,128,0,42040:0:0:0:0:
64,192,41182,128,0,42040:0:0:0:0:
320,192,41182,1,0,0:0:0:0:
192,192,42040,1,0,0:0:0:0:
64,192,42254,1,0,0:0:0:0:
192,192,42468,1,0,0:0:0:0:
64,192,42682,1,0,0:0:0:0:
320,192,42897,128,0,43754:0:0:0:0:
448,192,42897,128,0,43754:0:0:0:0:
64,192,43754,1,0,0:0:0:0:
64,192,43968,1,0,0:0:0:0:
64,192,44182,1,0,0:0:0:0:
64,192,44397,1,0,0:0:0:0:
192,192,44611,128,0,45040:0:0:0:0:
320,192,44611,128,0,45040:0:0:0:0:
64,192,45040,128,0,45468:0:0:0:0:
448,192,45040,128,0,45468:0:0:0:0:
320,192,45468,1,0,0:0:0:0:
192,192,45682,1,0,0:0:0:0:
320,192,45897,1,0,0:0:0:0:
192,192,46111,1,0,0:0:0:0:
64,192,46325,1,0,0:0:0:0:
448,192,46325,1,0,0:0:0:0:
320,192,46540,1,0,0:0:0:0:
192,192,46754,128,0,47182:0:0:0:0:
64,192,46754,128,0,47182:0:0:0:0:
320,192,47182,128,0,47397:0:0:0:0:
448,192,47397,128,0,47611:0:0:0:0:
64,192,47611,128,0,48040:0:0:0:0:
320,192,48040,128,0,48897:0:0:0:0:
448,192,48040,128,0,48897:0:0:0:0:
64,192,48897,1,0,0:0:0:0:
64,192,49111,1,0,0:0:0:0:
64,192,49325,1,0,0:0:0:0:
64,192,49540,1,0,0:0:0:0:
192,192,49754,128,0,50611:0:0:0:0:
448,192,49754,128,0,50611:0:0:0:0:
64,192,50611,1,0,0:0:0:0:
64,192,50825,1,0,0:0:0:0:
64,192,51040,1,0,0:0:0:0:
64,192,51254,1,0,0:0:0:0:
320,192,51468,128,0,51897:0:0:0:0:
448,192,51468,128,0,51897:0:0:0:0:
192,192,51897,128,0,52218:0:0:0:0:
64,192,52218,128,0,52540:0:0:0:0:
448,192,52540,128,0,52861:0:0:0:0:
320,192,52861,128,0,53182:0:0:0:0:
192,192,53182,128,0,53504:0:0:0:0:
320,192,53504,128,0,53825:0:0:0:0:
64,192,53825,128,0,54147:0:0:0:0:
448,192,54147,128,0,54468:0:0:0:0:
320,192,54468,1,0,0:0:0:0:
192,192,54468,1,0,0:0:0:0:
448,192,54897,128,0,55754:0:0:0:0:
192,192,54897,128,0,55754:0:0:0:0:
64,192,54897,1,0,0:0:0:0:
320,192,55754,128,0,55968:0:0:0:0:
448,192,55968,128,0,56182:0:0:0:0:
320,192,56182,128,0,56397:0:0:0:0:
192,192,56397,128,0,56611:0:0:0:0:
320,192,56611,128,0,57040:0:0:0:0:
64,192,56611,128,0,57040:0:0:0:0:
192,192,57040,128,0,57468:0:0:0:0:
448,192,57468,1,0,0:0:0:0:
448,192,57682,1,0,0:0:0:0:
448,192,57897,1,0,0:0:0:0:
192,192,58111,1,0,0:0:0:0:
448,192,58325,128,0,58754:0:0:0:0:
64,192,58325,128,0,58754:0:0:0:0:
192,192,58754,128,0,59182:0:0:0:0:
320,192,58754,128,0,59182:0:0:0:0:
448,192,59182,1,0,0:0:0:0:
448,192,59397,1,0,0:0:0:0:
448,192,59611,1,0,0:0:0:0:
448,192,59825,1,0,0:0:0:0:
448,192,60040,128,0,60254:0:0:0:0:
320,192,60254,128,0,60468:0:0:0:0:
192,192,60468,128,0,60897:0:0:0:0:
64,192,60468,128,0,60897:0:0:0:0:
320,192,60897,128,0,61111:0:0:0:0:
192,192,61111,128,0,61325:0:0:0:0:
320,192,61325,128,0,61540:0:0:0:0:
320,192,61754,128,0,62611:0:0:0:0:
448,192,61754,128,0,62611:0:0:0:0:
192,192,62611,1,0,0:0:0:0:
64,192,62825,1,0,0:0:0:0:
192,192,63040,1,0,0:0:0:0:
64,192,63254,1,0,0:0:0:0:
192,192,63468,128,0,64325:0:0:0:0:
320,192,63468,128,0,64325:0:0:0:0:
64,192,64325,1,0,0:0:0:0:
64,192,64540,1,0,0:0:0:0:
64,192,64754,1,0,0:0:0:0:
64,192,64968,1,0,0:0:0:0:
192,192,65182,128,0,65611:0:0:0:0:
320,192,65182,128,0,65611:0:0:0:0:
64,192,65611,128,0,65932:0:0:0:0:
192,192,65932,128,0,66254:0:0:0:0:
320,192,66254,128,0,66575:0:0:0:0:
448,192,66575,128,0,66897:0:0:0:0:
192,192,66897,128,0,67218:0:0:0:0:
64,192,66897,128,0,67218:0:0:0:0:
448,192,67218,128,0,67540:0:0:0:0:
64,192,67540,128,0,67861:0:0:0:0:
192,192,67861,128,0,68182:0:0:0:0:
320,192,68182,1,0,0:0:0:0:
448,192,68182,1,0,0:0:0:0:
64,192,68397,1,0,0:0:0:0:
192,192,68611,128,0,69468:0:0:0:0:
448,192,68611,128,0,69468:0:0:0:0:
320,192,69468,128,0,69682:0:0:0:0:
448,192,69682,128,0,69897:0:0:0:0:
320,192,69897,128,0,70111:0:0:0:0:
192,192,70111,128,0,70325:0:0:0:0:
64,192,70325,128,0,70754:0:0:0:0:
192,192,70754,128,0,71182:0:0:0:0:
64,192,71182,1,0,0:0:0:0:
64,192,71397,1,0,0:0:0:0:
320,192,71611,128,0,71825:0:0:0:0:
192,192,71825,128,0,72040:0:0:0:0:
320,192,72040,128,0,72468:0:0:0:0:
448,192,72040,128,0,72468:0:0:0:0:
192,192,72468,128,0,72897:0:0:0:0:
448,192,72897,1,0,0:0:0:0:
320,192,73111,1,0,0:0:0:0:
448,192,73325,1,0,0:0:0:0:
320,192,73540,1,0,0:0:0:0:
448,192,73754,128,0,73968:0:0:0:0:
320,192,73968,128,0,74182:0:0:0:0:
192,192,74182,128,0,74397:0:0:0:0:
64,192,74611,128,0,74825:0:0:0:0:
192,192,74825,128,0,75040:0:0:0:0:
320,192,75040,128,0,75468:0:0:0:0:
448,192,75468,128,0,76325:0:0:0:0:
320,192,76325,1,0,0:0:0:0:
192,192,76540,1,0,0:0:0:0:
320,192,76754,1,0,0:0:0:0:
192,192,76968,1,0,0:0:0:0:
448,192,77182,128,0,78040:0:0:0:0:
320,192,78040,1,0,0:0:0:0:
64,192,78254,1,0,0:0:0:0:
320,192,78468,1,0,0:0:0:0:
64,192,78682,1,0,0:0:0:0:
320,192,78897,128,0,79325:0:0:0:0:
64,192,79325,128,0,79647:0:0:0:0:
448,192,79325,128,0,79647:0:0:0:0:
192,192,79647,128,0,79968:0:0:0:0:
320,192,79647,128,0,79968:0:0:0:0:
448,192,79968,128,0,80290:0:0:0:0:
192,192,80290,128,0,80611:0:0:0:0:
64,192,80611,128,0,80932:0:0:0:0:
320,192,80611,128,0,80932:0:0:0:0:
192,192,80932,128,0,81254:0:0:0:0:
448,192,80932,128,0,81254:0:0:0:0:
320,192,81254,128,0,81575:0:0:0:0:
64,192,81254,128,0,81575:0:0:0:0:
192,192,81575,128,0,81897:0:0:0:0:
448,192,81575,128,0,81897:0:0:0:0:
320,192,81897,1,0,0:0:0:0:
64,192,81897,1,0,0:0:0:0:
320,192,82325,1,0,0:0:0:0:
320,192,82540,1,0,0:0:0:0:
192,192,82754,1,0,0:0:0:0:
64,192,82861,1,0,0:0:0:0:
448,192,83075,1,0,0:0:0:0:
320,192,83182,1,0,0:0:0:0:
192,192,83397,1,0,0:0:0:0:
64,192,83504,1,0,0:0:0:0:
448,192,83718,1,0,0:0:0:0:
320,192,83825,1,0,0:0:0:0:
192,192,84040,1,0,0:0:0:0:
192,192,84254,1,0,0:0:0:0:
64,192,84468,1,0,0:0:0:0:
448,192,84575,1,0,0:0:0:0:
320,192,84790,1,0,0:0:0:0:
192,192,84897,1,0,0:0:0:0:
64,192,85111,1,0,0:0:0:0:
448,192,85218,1,0,0:0:0:0:
320,192,85432,1,0,0:0:0:0:
192,192,85540,1,0,0:0:0:0:
64,192,85754,1,0,0:0:0:0:
64,192,85968,1,0,0:0:0:0:
192,192,86182,1,0,0:0:0:0:
320,192,86290,1,0,0:0:0:0:
192,192,86504,1,0,0:0:0:0:
64,192,86611,1,0,0:0:0:0:
448,192,86825,1,0,0:0:0:0:
192,192,86932,1,0,0:0:0:0:
192,192,87147,1,0,0:0:0:0:
64,192,87254,1,0,0:0:0:0:
448,192,87468,1,0,0:0:0:0:
448,192,87682,1,0,0:0:0:0:
320,192,87897,1,0,0:0:0:0:
192,192,88004,1,0,0:0:0:0:
64,192,88218,1,0,0:0:0:0:
448,192,88325,1,0,0:0:0:0:
320,192,88540,1,0,0:0:0:0:
448,192,88647,1,0,0:0:0:0:
64,192,88861,1,0,0:0:0:0:
448,192,88968,1,0,0:0:0:0:
320,192,89182,1,0,0:0:0:0:
320,192,89397,1,0,0:0:0:0:
192,192,89611,1,0,0:0:0:0:
64,192,89718,1,0,0:0:0:0:
448,192,89932,1,0,0:0:0:0:
320,192,90040,1,0,0:0:0:0:
192,192,90254,1,0,0:0:0:0:
64,192,90361,1,0,0:0:0:0:
448,192,90575,1,0,0:0:0:0:
320,192,90682,1,0,0:0:0:0:
192,192,90897,1,0,0:0:0:0:
192,192,91111,1,0,0:0:0:0:
192,192,91325,1,0,0:0:0:0:
64,192,91432,1,0,0:0:0:0:
448,192,91647,1,0,0:0:0:0:
320,192,91754,1,0,0:0:0:0:
192,192,91968,1,0,0:0:0:0:
64,192,92075,1,0,0:0:0:0:
448,192,92290,1,0,0:0:0:0:
320,192,92397,1,0,0:0:0:0:
192,192,92611,1,0,0:0:0:0:
64,192,92611,1,0,0:0:0:0:
192,192,93040,128,0,93361:0:0:0:0:
320,192,93040,128,0,93361:0:0:0:0:
448,192,93361,128,0,93682:0:0:0:0:
64,192,93361,128,0,93682:0:0:0:0:
320,192,93682,128,0,94004:0:0:0:0:
448,192,94004,128,0,94325:0:0:0:0:
192,192,94325,128,0,94647:0:0:0:0:
320,192,94647,128,0,94968:0:0:0:0:
64,192,94968,128,0,95290:0:0:0:0:
192,192,95290,128,0,95611:0:0:0:0:
448,192,95611,1,0,0:0:0:0:
64,192,95611,1,0,0:0:0:0:
320,192,96040,1,0,0:0:0:0:
320,192,96254,1,0,0:0:0:0:
192,192,96468,1,0,0:0:0:0:
64,192,96575,1,0,0:0:0:0:
448,192,96790,1,0,0:0:0:0:
320,192,96897,1,0,0:0:0:0:
320,192,97111,1,0,0:0:0:0:
192,192,97218,1,0,0:0:0:0:
448,192,97432,1,0,0:0:0:0:
320,192,97540,1,0,0:0:0:0:
192,192,97754,1,0,0:0:0:0:
192,192,97968,1,0,0:0:0:0:
64,192,98182,1,0,0:0:0:0:
448,192,98290,1,0,0:0:0:0:
320,192,98504,1,0,0:0:0:0:
192,192,98611,1,0,0:0:0:0:
64,192,98825,1,0,0:0:0:0:
448,192,98932,1,0,0:0:0:0:
192,192,99147,1,0,0:0:0:0:
64,192,99254,1,0,0:0:0:0:
448,192,99468,1,0,0:0:0:0:
448,192,99682,1,0,0:0:0:0:
320,192,99897,1,0,0:0:0:0:
192,192,100004,1,0,0:0:0:0:
64,192,100218,1,0,0:0:0:0:
448,192,100325,1,0,0:0:0:0:
320,192,100540,1,0,0:0:0:0:
192,192,100647,1,0,0:0:0:0:
64,192,100861,1,0,0:0:0:0:
448,192,100968,1,0,0:0:0:0:
320,192,101182,1,0,0:0:0:0:
320,192,101397,1,0,0:0:0:0:
192,192,101611,1,0,0:0:0:0:
64,192,101718,1,0,0:0:0:0:
448,192,101932,1,0,0:0:0:0:
320,192,102040,1,0,0:0:0:0:
192,192,102254,1,0,0:0:0:0:
320,192,102361,1,0,0:0:0:0:
448,192,102575,1,0,0:0:0:0:
320,192,102682,1,0,0:0:0:0:
448,192,102897,1,0,0:0:0:0:
448,192,103111,1,0,0:0:0:0:
320,192,103325,1,0,0:0:0:0:
192,192,103432,1,0,0:0:0:0:
64,192,103647,1,0,0:0:0:0:
448,192,103754,1,0,0:0:0:0:
320,192,103968,1,0,0:0:0:0:
192,192,104075,1,0,0:0:0:0:
64,192,104290,1,0,0:0:0:0:
448,192,104397,1,0,0:0:0:0:
320,192,104611,1,0,0:0:0:0:
320,192,104825,1,0,0:0:0:0:
192,192,105040,1,0,0:0:0:0:
64,192,105147,1,0,0:0:0:0:
448,192,105361,1,0,0:0:0:0:
320,192,105468,1,0,0:0:0:0:
192,192,105682,1,0,0:0:0:0:
64,192,105790,1,0,0:0:0:0:
448,192,106004,1,0,0:0:0:0:
320,192,106111,1,0,0:0:0:0:
192,192,106325,1,0,0:0:0:0:
448,192,106325,1,0,0:0:0:0:
320,192,106754,128,0,107075:0:0:0:0:
192,192,106754,128,0,107075:0:0:0:0:
64,192,107075,128,0,107397:0:0:0:0:
448,192,107075,128,0,107397:0:0:0:0:
320,192,107397,128,0,107718:0:0:0:0:
448,192,107718,128,0,108040:0:0:0:0:
192,192,108040,128,0,108361:0:0:0:0:
320,192,108040,128,0,108361:0:0:0:0:
448,192,108361,128,0,108682:0:0:0:0:
192,192,108682,128,0,109004:0:0:0:0:
64,192,108682,128,0,109004:0:0:0:0:
320,192,109004,128,0,109325:0:0:0:0:
448,192,109004,128,0,109325:0:0:0:0:
192,192,109325,1,0,0:0:0:0:
64,192,109325,1,0,0:0:0:0:
