osu file format v14

[General]
AudioFilename: Boss Mode.mp3
AudioLeadIn: 0
PreviewTime: 75868
Countdown: 0
SampleSet: Normal
StackLeniency: 0.7
Mode: 3
LetterboxInBreaks: 0
SpecialStyle: 0
WidescreenStoryboard: 1

[Editor]
Bookmarks: 29846
DistanceSpacing: 0.8
BeatDivisor: 8
GridSize: 8
TimelineZoom: 1

[Metadata]
Title:Boss Mode
TitleUnicode:Boss Mode
Artist:Knife Party
ArtistUnicode:Knife Party
Creator:Izect Ztenz
Version:HD
Source:
Tags:edm knife party boss mode 855wa SanHolo-
BeatmapID:779585
BeatmapSetID:346072

[Difficulty]
HPDrainRate:8
CircleSize:4
OverallDifficulty:7.5
ApproachRate:5
SliderMultiplier:1.4
SliderTickRate:1

[Events]
//Background and Video events
0,0,"106649.jpg",0,0
//Break Periods
//Storyboard Layer 0 (Background)
//Storyboard Layer 1 (Fail)
//Storyboard Layer 2 (Pass)
//Storyboard Layer 3 (Foreground)
//Storyboard Sound Samples

[TimingPoints]
10755.1818181818,681.818181818182,4,1,0,65,1,0
54732,-100,4,2,0,30,0,0
65300,-100,4,1,0,34,0,0
75698,-200,4,1,0,34,0,0
76209,-100,4,1,0,34,0,1
125300,-100,4,1,0,65,0,0

[HitObjects]
64,192,10755,5,0,0:0:0:0:
448,192,10755,1,0,0:0:0:0:
192,192,10925,1,0,2:0:0:0:
320,192,11096,1,0,2:0:0:0:
192,192,11266,1,0,2:0:0:0:
64,192,11436,1,0,0:0:0:0:
320,192,11607,1,0,0:0:0:0:
448,192,11777,1,0,2:0:0:0:
320,192,11948,1,0,2:0:0:0:
64,192,12118,1,0,0:0:0:0:
448,192,12118,1,0,0:0:0:0:
192,192,12459,1,0,0:0:0:0:
448,192,12459,1,0,0:0:0:0:
64,192,12800,1,0,0:0:0:0:
192,192,12971,1,0,0:0:0:0:
448,192,13141,1,0,0:0:0:0:
320,192,13311,1,0,0:0:0:0:
448,192,13482,1,0,0:0:0:0:
64,192,13482,1,0,0:0:0:0:
320,192,13652,1,0,2:0:0:0:
192,192,13823,1,0,2:0:0:0:
448,192,13993,1,0,2:0:0:0:
64,192,14164,1,0,0:0:0:0:
192,192,14334,1,0,0:0:0:0:
64,192,14505,1,0,2:0:0:0:
320,192,14675,1,0,2:0:0:0:
448,192,14846,1,0,0:0:0:0:
192,192,14846,1,0,0:0:0:0:
64,192,15186,1,0,0:0:0:0:
448,192,15186,1,0,0:0:0:0:
320,192,15527,1,0,0:0:0:0:
192,192,15698,1,0,0:0:0:0:
320,192,15868,1,0,0:0:0:0:
448,192,16039,1,0,0:0:0:0:
64,192,16209,1,0,0:0:0:0:
320,192,16209,1,0,0:0:0:0:
192,192,16380,1,0,2:0:0:0:
64,192,16550,1,0,2:0:0:0:
320,192,16721,1,0,2:0:0:0:
64,192,16891,1,0,0:0:0:0:
320,192,17061,1,0,0:0:0:0:
448,192,17232,1,0,2:0:0:0:
192,192,17402,1,0,2:0:0:0:
64,192,17573,1,0,0:0:0:0:
320,192,17573,1,0,0:0:0:0:
448,192,17914,1,0,0:0:0:0:
192,192,17914,1,0,0:0:0:0:
64,192,18255,1,0,0:0:0:0:
192,192,18425,1,0,0:0:0:0:
320,192,18596,1,0,0:0:0:0:
192,192,18766,1,0,0:0:0:0:
320,192,18936,1,0,0:0:0:0:
64,192,18936,1,0,0:0:0:0:
192,192,19107,1,0,2:0:0:0:
320,192,19277,1,0,2:0:0:0:
448,192,19448,1,0,2:0:0:0:
192,192,19618,1,0,0:0:0:0:
448,192,19789,1,0,0:0:0:0:
320,192,19959,1,0,2:0:0:0:
64,192,20130,1,0,2:0:0:0:
192,192,20300,1,0,0:0:0:0:
448,192,20300,1,0,0:0:0:0:
320,192,20641,1,0,0:0:0:0:
64,192,20641,1,0,0:0:0:0:
192,192,20982,1,0,0:0:0:0:
64,192,21152,1,0,0:0:0:0:
320,192,21323,1,0,0:0:0:0:
448,192,21493,1,0,0:0:0:0:
64,192,21664,1,0,0:0:0:0:
448,192,21664,1,0,0:0:0:0:
192,192,21834,1,0,2:0:0:0:
448,192,22005,1,0,2:0:0:0:
192,192,22175,1,0,0:0:0:0:
320,192,22346,1,0,2:0:0:0:
64,192,22516,1,0,0:0:0:0:
320,192,22686,1,0,2:0:0:0:
192,192,22857,1,0,2:0:0:0:
64,192,23027,1,0,0:0:0:0:
448,192,23027,1,0,0:0:0:0:
320,192,23368,1,0,0:0:0:0:
64,192,23368,1,0,0:0:0:0:
192,192,23709,1,0,0:0:0:0:
448,192,23880,1,0,0:0:0:0:
64,192,24050,1,0,0:0:0:0:
320,192,24221,1,0,0:0:0:0:
448,192,24391,1,0,0:0:0:0:
192,192,24391,1,0,0:0:0:0:
64,192,24561,1,0,2:0:0:0:
192,192,24732,1,0,2:0:0:0:
320,192,24902,1,0,2:0:0:0:
64,192,25073,1,0,0:0:0:0:
448,192,25243,1,0,2:0:0:0:
192,192,25414,1,0,0:0:0:0:
320,192,25584,1,0,2:0:0:0:
448,192,25755,1,0,0:0:0:0:
192,192,25755,1,0,0:0:0:0:
64,192,26096,1,0,0:0:0:0:
448,192,26096,1,0,0:0:0:0:
192,192,26436,1,0,0:0:0:0:
448,192,26607,1,0,0:0:0:0:
192,192,26777,1,0,0:0:0:0:
320,192,26948,1,0,0:0:0:0:
64,192,27118,1,0,0:0:0:0:
448,192,27118,1,0,0:0:0:0:
320,192,27289,1,0,2:0:0:0:
192,192,27459,1,0,2:0:0:0:
320,192,27630,1,0,2:0:0:0:
64,192,27800,1,0,0:0:0:0:
320,192,27971,1,0,0:0:0:0:
448,192,28141,1,0,2:0:0:0:
320,192,28311,1,0,2:0:0:0:
64,192,28482,1,0,0:0:0:0:
448,192,28482,1,0,0:0:0:0:
448,192,28823,1,0,0:0:0:0:
192,192,28823,1,0,0:0:0:0:
64,192,29164,1,0,0:0:0:0:
320,192,29334,1,0,0:0:0:0:
192,192,29505,1,0,0:0:0:0:
320,192,29675,1,0,0:0:0:0:
448,192,29846,1,0,0:0:0:0:
64,192,29846,1,0,0:0:0:0:
192,192,30186,1,0,0:0:0:0:
448,192,30186,1,0,0:0:0:0:
64,192,30698,1,0,0:0:0:0:
320,192,30698,1,0,0:0:0:0:
192,192,31209,1,0,0:0:0:0:
320,192,31209,1,0,0:0:0:0:
448,192,31209,1,0,0:0:0:0:
64,192,31550,1,0,0:0:0:0:
320,192,31550,1,0,0:0:0:0:
192,192,32061,1,0,0:0:0:0:
448,192,32061,1,0,0:0:0:0:
64,192,32573,1,0,0:0:0:0:
448,192,32573,1,0,0:0:0:0:
192,192,32743,1,0,2:0:0:0:
320,192,32914,1,0,2:0:0:0:
192,192,33084,1,0,2:0:0:0:
320,192,33255,1,0,0:0:0:0:
448,192,33255,1,0,0:0:0:0:
64,192,33425,1,0,0:0:0:0:
192,192,33425,1,0,0:0:0:0:
320,192,33596,1,0,2:0:0:0:
192,192,33766,1,0,2:0:0:0:
64,192,33936,1,0,0:0:0:0:
320,192,33936,1,0,0:0:0:0:
448,192,34107,1,0,2:0:0:0:
64,192,34277,1,0,0:0:0:0:
320,192,34277,1,0,0:0:0:0:
192,192,34448,1,0,2:0:0:0:
64,192,34618,1,0,0:0:0:0:
448,192,34618,1,0,0:0:0:0:
64,192,34789,1,0,0:0:0:0:
192,192,34789,1,0,0:0:0:0:
192,192,34959,1,0,2:0:0:0:
448,192,35130,128,0,35982:0:0:0:0:
320,192,35300,1,0,0:0:0:0:
64,192,35300,1,0,0:0:0:0:
192,192,35471,1,0,2:0:0:0:
320,192,35641,1,0,2:0:0:0:
192,192,35811,1,0,2:0:0:0:
320,192,35982,1,0,0:0:0:0:
64,192,35982,1,0,0:0:0:0:
192,192,36152,1,0,0:0:0:0:
448,192,36152,1,0,0:0:0:0:
64,192,36323,1,0,2:0:0:0:
192,192,36493,1,0,2:0:0:0:
320,192,36664,1,0,0:0:0:0:
448,192,36664,1,0,0:0:0:0:
448,192,36834,1,0,2:0:0:0:
448,192,37005,1,0,0:0:0:0:
192,192,37005,1,0,0:0:0:0:
320,192,37175,1,0,2:0:0:0:
448,192,37346,1,0,0:0:0:0:
64,192,37346,1,0,0:0:0:0:
192,192,37516,1,0,0:0:0:0:
320,192,37516,1,0,0:0:0:0:
448,192,37686,1,0,2:0:0:0:
64,192,37857,128,0,38709:0:0:0:0:
320,192,37857,1,0,2:0:0:0:
192,192,38027,1,0,0:0:0:0:
448,192,38027,1,0,0:0:0:0:
320,192,38198,1,0,2:0:0:0:
192,192,38368,1,0,2:0:0:0:
320,192,38539,1,0,2:0:0:0:
320,192,38709,1,0,0:0:0:0:
448,192,38709,1,0,0:0:0:0:
64,192,38880,1,0,0:0:0:0:
448,192,38880,1,0,0:0:0:0:
192,192,39050,1,0,2:0:0:0:
320,192,39221,1,0,2:0:0:0:
448,192,39391,1,0,0:0:0:0:
64,192,39391,1,0,0:0:0:0:
320,192,39561,1,0,2:0:0:0:
64,192,39732,1,0,0:0:0:0:
320,192,39732,1,0,0:0:0:0:
192,192,39902,1,0,2:0:0:0:
320,192,40073,1,0,0:0:0:0:
64,192,40073,1,0,0:0:0:0:
192,192,40243,1,0,0:0:0:0:
448,192,40243,1,0,0:0:0:0:
64,192,40414,1,0,2:0:0:0:
192,192,40584,1,0,2:0:0:0:
64,192,40755,1,0,0:0:0:0:
448,192,40755,128,0,41436:0:0:0:0:
192,192,40925,1,0,2:0:0:0:
320,192,41096,1,0,2:0:0:0:
192,192,41266,1,0,2:0:0:0:
64,192,41436,1,0,0:0:0:0:
320,192,41436,1,0,0:0:0:0:
64,192,41607,1,0,0:0:0:0:
320,192,41607,1,0,0:0:0:0:
192,192,41777,1,0,2:0:0:0:
320,192,41948,1,0,2:0:0:0:
64,192,42118,1,0,0:0:0:0:
448,192,42118,1,0,0:0:0:0:
192,192,42289,1,0,0:0:0:0:
320,192,42289,1,0,0:0:0:0:
64,192,42459,1,0,0:0:0:0:
448,192,42459,1,0,0:0:0:0:
192,192,42630,1,0,2:0:0:0:
320,192,42800,1,0,0:0:0:0:
448,192,42800,1,0,0:0:0:0:
64,192,42971,1,0,0:0:0:0:
192,192,42971,1,0,0:0:0:0:
192,192,43141,1,0,2:0:0:0:
320,192,43311,1,0,2:0:0:0:
64,192,43482,1,0,0:0:0:0:
448,192,43482,1,0,0:0:0:0:
192,192,43652,1,0,2:0:0:0:
320,192,43823,1,0,2:0:0:0:
448,192,43993,1,0,2:0:0:0:
64,192,44164,1,0,0:0:0:0:
448,192,44164,1,0,0:0:0:0:
192,192,44334,1,0,0:0:0:0:
320,192,44334,1,0,0:0:0:0:
64,192,44505,1,0,2:0:0:0:
192,192,44675,1,0,2:0:0:0:
320,192,44846,1,0,0:0:0:0:
448,192,44846,1,0,0:0:0:0:
192,192,45016,1,0,2:0:0:0:
64,192,45186,1,0,0:0:0:0:
320,192,45186,1,0,0:0:0:0:
192,192,45357,1,0,2:0:0:0:
64,192,45527,1,0,0:0:0:0:
192,192,45527,1,0,0:0:0:0:
448,192,45698,1,0,0:0:0:0:
320,192,45698,1,0,0:0:0:0:
192,192,45868,1,0,2:0:0:0:
64,192,46039,128,0,46891:0:0:0:0:
320,192,46209,1,0,0:0:0:0:
448,192,46209,1,0,0:0:0:0:
192,192,46380,1,0,2:0:0:0:
320,192,46550,1,0,2:0:0:0:
448,192,46721,1,0,2:0:0:0:
192,192,46891,1,0,0:0:0:0:
448,192,46891,1,0,0:0:0:0:
64,192,47061,1,0,0:0:0:0:
448,192,47061,1,0,0:0:0:0:
192,192,47232,1,0,2:0:0:0:
320,192,47402,1,0,2:0:0:0:
64,192,47573,1,0,0:0:0:0:
448,192,47573,1,0,0:0:0:0:
192,192,47743,1,0,2:0:0:0:
320,192,47914,1,0,0:0:0:0:
448,192,47914,1,0,0:0:0:0:
192,192,48084,1,0,2:0:0:0:
64,192,48255,1,0,0:0:0:0:
448,192,48255,1,0,0:0:0:0:
192,192,48425,1,0,0:0:0:0:
320,192,48425,1,0,0:0:0:0:
192,192,48596,1,0,2:0:0:0:
320,192,48766,1,0,2:0:0:0:
64,192,48936,1,0,0:0:0:0:
448,192,48936,1,0,0:0:0:0:
192,192,49107,1,0,2:0:0:0:
320,192,49277,1,0,2:0:0:0:
448,192,49448,1,0,0:0:0:0:
64,192,49618,1,0,0:0:0:0:
448,192,49618,1,0,0:0:0:0:
192,192,49789,1,0,0:0:0:0:
320,192,49789,1,0,0:0:0:0:
64,192,49959,1,0,2:0:0:0:
192,192,50130,1,0,2:0:0:0:
320,192,50300,1,0,0:0:0:0:
192,192,50300,1,0,0:0:0:0:
320,192,50471,1,0,2:0:0:0:
448,192,50641,1,0,0:0:0:0:
320,192,50641,1,0,0:0:0:0:
448,192,50811,1,0,0:0:0:0:
320,192,50811,1,0,0:0:0:0:
448,192,50982,1,0,0:0:0:0:
64,192,50982,1,0,0:0:0:0:
448,192,51152,1,0,0:0:0:0:
64,192,51152,1,0,0:0:0:0:
192,192,51323,1,0,2:0:0:0:
320,192,51493,1,0,2:0:0:0:
64,192,51664,128,0,52346:0:0:0:0:
448,192,51664,1,0,0:0:0:0:
320,192,51834,1,0,2:0:0:0:
192,192,52005,1,0,2:0:0:0:
320,192,52175,1,0,2:0:0:0:
448,192,52346,1,0,0:0:0:0:
320,192,52346,1,0,0:0:0:0:
64,192,52516,1,0,0:0:0:0:
192,192,52516,1,0,0:0:0:0:
320,192,52686,1,0,2:0:0:0:
192,192,52857,1,0,2:0:0:0:
64,192,53027,1,0,0:0:0:0:
320,192,53027,1,0,0:0:0:0:
448,192,53198,1,0,3:0:0:0:
320,192,53368,1,4,3:0:0:0:
64,192,53368,1,4,3:0:0:0:
192,192,53539,1,0,3:0:0:0:
64,192,53709,1,4,3:0:0:0:
448,192,53709,1,4,3:0:0:0:
192,192,53880,1,4,3:0:0:0:
320,192,53880,1,4,3:0:0:0:
64,192,54050,1,0,3:0:0:0:
192,192,54221,1,0,3:0:0:0:
64,192,54391,1,4,0:0:0:0:
448,192,54391,1,4,0:0:0:0:
192,192,54391,128,0,54732:0:0:0:0:
448,192,54732,128,0,55073:0:0:0:0:
320,192,54732,1,0,2:0:0:0:
64,192,55073,128,0,55414:0:0:0:0:
192,192,55073,1,0,2:0:0:0:
320,192,55414,128,0,55755:0:0:0:0:
448,192,55414,1,0,2:0:0:0:
192,192,55755,128,0,56096:0:0:0:0:
64,192,55755,1,0,2:0:0:0:
448,192,56096,128,0,56436:0:0:0:0:
320,192,56096,1,0,2:0:0:0:
192,192,56436,128,0,56777:0:0:0:0:
64,192,56436,1,0,0:0:0:0:
320,192,56777,128,0,57118:0:0:0:0:
448,192,56777,1,0,0:0:0:0:
64,192,57118,128,0,57459:0:0:0:0:
192,192,57118,1,0,0:0:0:0:
192,192,57459,128,0,57800:0:0:0:0:
320,192,57459,1,0,0:0:0:0:
448,192,57800,128,0,58141:0:0:0:0:
320,192,57800,1,0,0:0:0:0:
192,192,58141,128,0,58482:0:0:0:0:
64,192,58141,1,0,0:0:0:0:
320,192,58482,128,0,58823:0:0:0:0:
448,192,58482,1,0,0:0:0:0:
64,192,58823,128,0,59164:0:0:0:0:
192,192,58823,1,0,0:0:0:0:
448,192,59164,128,0,59505:0:0:0:0:
320,192,59164,1,0,0:0:0:0:
192,192,59505,128,0,59846:0:0:0:0:
64,192,59505,1,0,0:0:0:0:
320,192,59846,128,0,60186:0:0:0:0:
448,192,59846,1,0,0:0:0:0:
64,192,60186,128,0,60527:0:0:0:0:
192,192,60186,1,0,0:0:0:0:
320,192,60527,1,0,0:0:0:0:
192,192,60527,128,0,60868:0:0:0:0:
448,192,60868,128,0,61209:0:0:0:0:
320,192,60868,1,0,0:0:0:0:
192,192,61209,128,0,61550:0:0:0:0:
320,192,61209,1,0,0:0:0:0:
320,192,61550,128,0,61891:0:0:0:0:
448,192,61550,1,0,0:0:0:0:
64,192,61891,128,0,62232:0:0:0:0:
192,192,61891,1,0,0:0:0:0:
320,192,62232,128,0,62573:0:0:0:0:
448,192,62232,1,0,0:0:0:0:
64,192,62573,128,0,62914:0:0:0:0:
192,192,62573,1,0,0:0:0:0:
192,192,62914,128,0,63255:0:0:0:0:
320,192,62914,1,0,0:0:0:0:
320,192,63255,128,0,63596:0:0:0:0:
64,192,63255,1,0,0:0:0:0:
448,192,63596,128,0,63936:0:0:0:0:
192,192,63596,1,0,0:0:0:0:
192,192,63936,128,0,64277:0:0:0:0:
64,192,63936,1,0,0:0:0:0:
448,192,64277,128,0,64618:0:0:0:0:
320,192,64277,1,0,0:0:0:0:
64,192,64618,128,0,64959:0:0:0:0:
192,192,64618,1,0,0:0:0:0:
320,192,64959,128,0,65300:0:0:0:0:
192,192,64959,1,0,0:0:0:0:
64,192,65300,5,4,3:0:0:0:
448,192,65300,1,4,3:0:0:0:
192,192,65471,1,0,2:0:0:0:
320,192,65641,1,4,3:0:0:0:
448,192,65641,1,4,3:0:0:0:
192,192,65811,1,0,2:0:0:0:
320,192,65982,1,4,3:0:0:0:
64,192,65982,1,4,3:0:0:0:
192,192,66152,1,0,2:0:0:0:
64,192,66323,1,4,3:0:0:0:
448,192,66323,1,4,3:0:0:0:
320,192,66493,1,0,2:0:0:0:
192,192,66664,1,4,3:0:0:0:
448,192,66664,1,4,3:0:0:0:
320,192,66834,1,0,2:0:0:0:
64,192,67005,1,4,3:0:0:0:
192,192,67005,1,4,3:0:0:0:
320,192,67175,1,0,2:0:0:0:
192,192,67346,1,4,3:0:0:0:
448,192,67346,1,4,3:0:0:0:
64,192,67516,1,0,2:0:0:0:
448,192,67686,1,4,3:0:0:0:
192,192,67686,1,4,3:0:0:0:
320,192,67857,1,0,2:0:0:0:
64,192,68027,1,4,3:0:0:0:
448,192,68027,1,4,3:0:0:0:
320,192,68198,1,0,2:0:0:0:
192,192,68368,1,4,3:0:0:0:
64,192,68368,1,4,3:0:0:0:
320,192,68539,1,0,2:0:0:0:
448,192,68709,1,4,3:0:0:0:
192,192,68709,1,4,3:0:0:0:
320,192,68880,1,0,2:0:0:0:
64,192,69050,1,4,3:0:0:0:
448,192,69050,1,4,3:0:0:0:
192,192,69221,1,0,2:0:0:0:
320,192,69391,1,4,3:0:0:0:
448,192,69391,1,4,3:0:0:0:
192,192,69561,1,0,2:0:0:0:
448,192,69732,1,4,3:0:0:0:
64,192,69732,1,4,3:0:0:0:
192,192,69902,1,0,2:0:0:0:
320,192,70073,1,4,3:0:0:0:
64,192,70073,1,4,3:0:0:0:
192,192,70243,1,0,2:0:0:0:
448,192,70414,1,4,3:0:0:0:
64,192,70414,1,4,3:0:0:0:
320,192,70584,1,0,0:0:0:0:
64,192,70755,1,0,0:0:0:0:
192,192,70755,1,0,0:0:0:0:
192,192,70925,1,0,0:0:0:0:
320,192,70925,1,0,0:0:0:0:
320,192,71096,1,0,0:0:0:0:
448,192,71096,1,0,0:0:0:0:
192,192,71266,1,0,0:0:0:0:
320,192,71266,1,0,0:0:0:0:
64,192,71436,1,0,0:0:0:0:
192,192,71436,1,0,0:0:0:0:
320,192,71607,1,0,0:0:0:0:
192,192,71607,1,0,0:0:0:0:
320,192,71777,1,0,0:0:0:0:
448,192,71777,1,0,0:0:0:0:
320,192,71948,1,0,0:0:0:0:
192,192,71948,1,0,0:0:0:0:
64,192,72118,1,0,0:0:0:0:
192,192,72118,1,0,0:0:0:0:
320,192,72289,1,0,0:0:0:0:
192,192,72289,1,0,0:0:0:0:
320,192,72459,1,0,0:0:0:0:
448,192,72459,1,0,0:0:0:0:
320,192,72630,1,0,0:0:0:0:
192,192,72630,1,0,0:0:0:0:
64,192,72800,1,0,0:0:0:0:
192,192,72800,1,0,0:0:0:0:
192,192,72971,1,0,0:0:0:0:
320,192,72971,1,0,0:0:0:0:
320,192,73141,1,0,0:0:0:0:
448,192,73141,1,0,0:0:0:0:
192,192,73311,1,0,0:0:0:0:
320,192,73311,1,0,0:0:0:0:
448,192,73482,128,0,75527:0:0:0:0:
64,192,73482,1,0,0:0:0:0:
320,192,73482,1,0,0:0:0:0:
192,192,73652,1,0,0:0:0:0:
320,192,73823,1,0,0:0:0:0:
64,192,73823,1,0,0:0:0:0:
64,192,73993,1,0,0:0:0:0:
64,192,74164,1,0,0:0:0:0:
320,192,74164,1,0,0:0:0:0:
192,192,74334,1,0,0:0:0:0:
64,192,74505,1,0,0:0:0:0:
320,192,74505,1,0,0:0:0:0:
320,192,74675,1,0,0:0:0:0:
64,192,74846,1,0,0:0:0:0:
320,192,74846,1,0,0:0:0:0:
192,192,75016,1,0,0:0:0:0:
64,192,75186,1,0,0:0:0:0:
320,192,75186,1,0,0:0:0:0:
64,192,75357,1,0,0:0:0:0:
64,192,75527,1,0,0:0:0:0:
320,192,75527,1,0,0:0:0:0:
64,192,75868,1,4,0:0:0:0:
448,192,75868,1,4,0:0:0:0:
64,192,76209,1,0,0:0:0:0:
448,192,76209,1,0,0:0:0:0:
192,192,76380,1,0,2:0:0:0:
320,192,76550,1,0,2:0:0:0:
448,192,76721,1,0,2:0:0:0:
64,192,76891,1,0,0:0:0:0:
320,192,76891,1,0,0:0:0:0:
192,192,77061,1,0,2:0:0:0:
64,192,77232,1,0,0:0:0:0:
448,192,77232,1,0,0:0:0:0:
320,192,77402,1,0,2:0:0:0:
192,192,77573,1,0,2:0:0:0:
320,192,77743,1,0,2:0:0:0:
448,192,77914,1,0,0:0:0:0:
64,192,77914,1,0,0:0:0:0:
192,192,78084,1,0,2:0:0:0:
192,192,78255,1,0,0:0:0:0:
320,192,78255,1,0,0:0:0:0:
64,192,78425,1,0,2:0:0:0:
192,192,78596,1,0,2:0:0:0:
320,192,78766,1,0,2:0:0:0:
64,192,78937,1,0,0:0:0:0:
448,192,78937,1,0,0:0:0:0:
320,192,79107,1,0,2:0:0:0:
192,192,79277,1,0,2:0:0:0:
448,192,79448,1,0,2:0:0:0:
64,192,79618,1,0,0:0:0:0:
320,192,79618,1,0,0:0:0:0:
192,192,79789,1,0,2:0:0:0:
64,192,79959,1,0,0:0:0:0:
448,192,79959,1,0,0:0:0:0:
192,192,80130,1,0,2:0:0:0:
320,192,80300,1,0,2:0:0:0:
192,192,80471,1,0,2:0:0:0:
448,192,80641,1,0,0:0:0:0:
64,192,80641,1,0,0:0:0:0:
320,192,80812,1,0,2:0:0:0:
192,192,80982,1,0,0:0:0:0:
320,192,80982,1,0,0:0:0:0:
64,192,81152,1,0,2:0:0:0:
448,192,81323,1,0,2:0:0:0:
320,192,81493,1,0,2:0:0:0:
448,192,81664,1,0,0:0:0:0:
64,192,81664,1,0,0:0:0:0:
192,192,81834,1,0,2:0:0:0:
320,192,82005,1,0,2:0:0:0:
192,192,82175,1,0,2:0:0:0:
448,192,82346,1,0,0:0:0:0:
64,192,82346,1,0,0:0:0:0:
320,192,82516,1,0,2:0:0:0:
448,192,82687,1,0,0:0:0:0:
192,192,82687,1,0,0:0:0:0:
64,192,82857,1,0,2:0:0:0:
320,192,83027,1,0,2:0:0:0:
448,192,83198,1,0,2:0:0:0:
64,192,83368,1,0,0:0:0:0:
320,192,83368,1,0,0:0:0:0:
192,192,83539,1,0,2:0:0:0:
320,192,83709,1,0,0:0:0:0:
192,192,83709,1,0,0:0:0:0:
64,192,83880,1,0,2:0:0:0:
320,192,84050,1,0,2:0:0:0:
192,192,84221,1,0,2:0:0:0:
64,192,84391,1,0,0:0:0:0:
448,192,84391,1,0,0:0:0:0:
192,192,84562,1,0,2:0:0:0:
320,192,84732,1,0,2:0:0:0:
448,192,84902,1,0,2:0:0:0:
64,192,85073,1,0,0:0:0:0:
320,192,85073,1,0,0:0:0:0:
192,192,85243,1,0,2:0:0:0:
64,192,85414,1,0,0:0:0:0:
448,192,85414,1,0,0:0:0:0:
320,192,85584,1,0,2:0:0:0:
192,192,85755,1,0,2:0:0:0:
320,192,85925,1,0,2:0:0:0:
448,192,86096,1,0,0:0:0:0:
64,192,86096,1,0,0:0:0:0:
320,192,86266,1,0,2:0:0:0:
192,192,86437,1,0,0:0:0:0:
320,192,86437,1,0,0:0:0:0:
64,192,86607,1,0,2:0:0:0:
192,192,86777,1,0,2:0:0:0:
320,192,86948,1,0,2:0:0:0:
448,192,87118,128,0,89846:0:0:0:0:
64,192,87118,1,0,0:0:0:0:
320,192,87118,1,0,0:0:0:0:
192,192,87459,1,0,2:0:0:0:
320,192,87630,1,0,2:0:0:0:
64,192,87800,1,0,0:0:0:0:
320,192,87800,1,0,0:0:0:0:
64,192,88141,1,0,0:0:0:0:
320,192,88141,1,0,0:0:0:0:
192,192,88482,1,0,0:0:0:0:
320,192,88482,1,0,0:0:0:0:
192,192,88652,1,0,0:0:0:0:
64,192,88652,1,0,0:0:0:0:
64,192,88823,1,0,0:0:0:0:
320,192,88823,1,0,0:0:0:0:
64,192,89164,1,0,0:0:0:0:
320,192,89164,1,0,0:0:0:0:
64,192,89505,1,0,0:0:0:0:
320,192,89505,1,0,0:0:0:0:
320,192,89846,128,0,92573:0:0:0:0:
64,192,89846,1,0,0:0:0:0:
192,192,90187,1,0,0:0:0:0:
448,192,90187,1,0,0:0:0:0:
64,192,90357,1,0,0:0:0:0:
192,192,90357,1,0,0:0:0:0:
64,192,90527,1,0,0:0:0:0:
448,192,90527,1,0,0:0:0:0:
64,192,90868,1,0,0:0:0:0:
448,192,90868,1,0,0:0:0:0:
192,192,91380,1,0,0:0:0:0:
448,192,91380,1,0,0:0:0:0:
64,192,91550,1,0,0:0:0:0:
64,192,91891,1,0,0:0:0:0:
448,192,91891,1,0,0:0:0:0:
64,192,92232,1,0,0:0:0:0:
448,192,92232,1,0,0:0:0:0:
448,192,92573,1,0,0:0:0:0:
64,192,92573,1,0,0:0:0:0:
192,192,92743,1,0,2:0:0:0:
320,192,92914,1,0,2:0:0:0:
448,192,93084,1,0,2:0:0:0:
64,192,93255,1,0,0:0:0:0:
320,192,93255,1,0,0:0:0:0:
192,192,93425,1,0,2:0:0:0:
64,192,93596,1,0,0:0:0:0:
448,192,93596,1,0,0:0:0:0:
320,192,93766,1,0,2:0:0:0:
192,192,93937,1,0,2:0:0:0:
448,192,94107,1,0,2:0:0:0:
320,192,94277,1,0,0:0:0:0:
64,192,94277,1,0,0:0:0:0:
192,192,94448,1,0,2:0:0:0:
192,192,94618,1,0,0:0:0:0:
320,192,94618,1,0,0:0:0:0:
64,192,94789,1,0,2:0:0:0:
192,192,94959,1,0,2:0:0:0:
448,192,95130,1,0,2:0:0:0:
320,192,95300,1,0,0:0:0:0:
64,192,95300,1,0,0:0:0:0:
192,192,95471,1,0,2:0:0:0:
448,192,95641,1,0,2:0:0:0:
320,192,95812,1,0,2:0:0:0:
448,192,95982,1,0,0:0:0:0:
192,192,95982,1,0,0:0:0:0:
320,192,96152,1,0,2:0:0:0:
448,192,96323,1,0,0:0:0:0:
64,192,96323,1,0,0:0:0:0:
192,192,96493,1,0,2:0:0:0:
320,192,96664,1,0,2:0:0:0:
448,192,96834,1,0,2:0:0:0:
64,192,97005,1,0,0:0:0:0:
320,192,97005,1,0,0:0:0:0:
192,192,97175,1,0,2:0:0:0:
320,192,97346,1,0,0:0:0:0:
192,192,97346,1,0,0:0:0:0:
64,192,97516,1,0,2:0:0:0:
320,192,97687,1,0,0:0:0:0:
192,192,97857,1,0,2:0:0:0:
320,192,98027,1,0,2:0:0:0:
64,192,98027,1,0,0:0:0:0:
448,192,98198,1,0,2:0:0:0:
320,192,98368,1,0,2:0:0:0:
192,192,98539,1,0,2:0:0:0:
64,192,98709,1,0,0:0:0:0:
320,192,98709,1,0,0:0:0:0:
192,192,98880,1,0,2:0:0:0:
64,192,99050,1,0,0:0:0:0:
448,192,99050,1,0,0:0:0:0:
320,192,99221,1,0,2:0:0:0:
448,192,99391,1,0,2:0:0:0:
192,192,99562,1,0,2:0:0:0:
448,192,99732,1,0,0:0:0:0:
64,192,99732,1,0,0:0:0:0:
320,192,99902,1,0,2:0:0:0:
192,192,100073,1,0,0:0:0:0:
320,192,100073,1,0,0:0:0:0:
64,192,100243,1,0,2:0:0:0:
320,192,100414,1,0,2:0:0:0:
192,192,100584,1,0,2:0:0:0:
448,192,100755,1,0,0:0:0:0:
64,192,100755,1,0,0:0:0:0:
192,192,100925,1,0,2:0:0:0:
448,192,101096,1,0,2:0:0:0:
320,192,101266,1,0,2:0:0:0:
448,192,101437,1,0,0:0:0:0:
64,192,101437,1,0,0:0:0:0:
192,192,101607,1,0,2:0:0:0:
320,192,101777,1,0,0:0:0:0:
64,192,101777,1,0,0:0:0:0:
192,192,101948,1,0,2:0:0:0:
448,192,102118,1,0,2:0:0:0:
320,192,102289,1,0,2:0:0:0:
192,192,102459,1,0,0:0:0:0:
448,192,102459,1,0,0:0:0:0:
64,192,102630,1,0,2:0:0:0:
320,192,102800,1,0,0:0:0:0:
192,192,102800,1,0,0:0:0:0:
64,192,102971,1,0,2:0:0:0:
192,192,103141,1,0,2:0:0:0:
320,192,103312,1,0,2:0:0:0:
64,192,103482,128,0,106209:0:0:0:0:
192,192,103482,1,0,0:0:0:0:
448,192,103482,1,0,0:0:0:0:
192,192,103823,1,0,2:0:0:0:
320,192,103993,1,0,2:0:0:0:
192,192,104164,1,0,0:0:0:0:
448,192,104164,1,0,0:0:0:0:
192,192,104505,1,0,0:0:0:0:
448,192,104505,1,0,0:0:0:0:
192,192,104846,1,0,2:0:0:0:
320,192,105016,1,0,2:0:0:0:
192,192,105187,1,0,0:0:0:0:
448,192,105187,1,0,0:0:0:0:
320,192,105527,1,0,0:0:0:0:
448,192,105527,1,0,0:0:0:0:
192,192,105868,1,0,0:0:0:0:
320,192,105868,1,0,0:0:0:0:
320,192,106039,1,0,0:0:0:0:
448,192,106039,1,0,0:0:0:0:
192,192,106209,128,0,108937:0:0:0:0:
320,192,106209,1,0,0:0:0:0:
320,192,106550,1,0,0:0:0:0:
448,192,106721,1,0,0:0:0:0:
448,192,106891,1,0,0:0:0:0:
64,192,106891,1,0,0:0:0:0:
64,192,107232,1,0,0:0:0:0:
320,192,107232,1,0,0:0:0:0:
320,192,107743,1,0,0:0:0:0:
448,192,107743,1,0,0:0:0:0:
320,192,107914,1,0,0:0:0:0:
64,192,107914,1,0,0:0:0:0:
320,192,108255,1,0,0:0:0:0:
64,192,108255,1,0,0:0:0:0:
64,192,108596,1,0,0:0:0:0:
448,192,108596,1,0,0:0:0:0:
64,192,108937,1,0,0:0:0:0:
448,192,108937,1,0,0:0:0:0:
192,192,109107,1,0,2:0:0:0:
320,192,109277,1,0,2:0:0:0:
192,192,109448,1,0,2:0:0:0:
64,192,109618,1,0,0:0:0:0:
448,192,109618,1,0,0:0:0:0:
192,192,109789,1,0,2:0:0:0:
320,192,109959,1,0,0:0:0:0:
192,192,109959,1,0,0:0:0:0:
64,192,110471,1,0,2:0:0:0:
192,192,110641,1,0,0:0:0:0:
448,192,110641,1,0,0:0:0:0:
320,192,110812,1,0,2:0:0:0:
448,192,110982,1,0,0:0:0:0:
64,192,110982,1,0,0:0:0:0:
192,192,111323,1,0,0:0:0:0:
320,192,111323,1,0,0:0:0:0:
64,192,111664,1,0,0:0:0:0:
192,192,111664,1,0,0:0:0:0:
192,192,112005,1,0,2:0:0:0:
320,192,112175,1,0,2:0:0:0:
192,192,112346,1,0,0:0:0:0:
448,192,112346,1,0,0:0:0:0:
320,192,112687,1,0,0:0:0:0:
64,192,112687,1,0,0:0:0:0:
192,192,112857,1,0,2:0:0:0:
320,192,113027,1,0,2:0:0:0:
448,192,113198,1,0,0:0:0:0:
64,192,113368,1,0,0:0:0:0:
448,192,113368,1,0,0:0:0:0:
192,192,113539,1,0,2:0:0:0:
64,192,113709,1,0,0:0:0:0:
320,192,113709,1,0,0:0:0:0:
192,192,114050,1,0,2:0:0:0:
320,192,114221,1,0,2:0:0:0:
192,192,114391,1,0,0:0:0:0:
448,192,114391,1,0,0:0:0:0:
320,192,114562,1,0,2:0:0:0:
192,192,114732,1,0,2:0:0:0:
64,192,114902,1,0,2:0:0:0:
192,192,115073,1,0,0:0:0:0:
448,192,115073,1,0,0:0:0:0:
64,192,115414,1,0,0:0:0:0:
320,192,115414,1,0,0:0:0:0:
192,192,115584,1,0,2:0:0:0:
320,192,115755,1,0,2:0:0:0:
448,192,115925,1,0,2:0:0:0:
64,192,116096,1,0,0:0:0:0:
448,192,116096,1,0,0:0:0:0:
192,192,116437,1,0,0:0:0:0:
64,192,116437,1,0,0:0:0:0:
192,192,116777,1,0,2:0:0:0:
320,192,116948,1,0,2:0:0:0:
64,192,117118,1,0,0:0:0:0:
448,192,117118,1,0,0:0:0:0:
64,192,117459,1,0,0:0:0:0:
320,192,117459,1,0,0:0:0:0:
192,192,117630,1,0,2:0:0:0:
192,192,117800,1,0,0:0:0:0:
448,192,117800,1,0,0:0:0:0:
192,192,118141,1,0,0:0:0:0:
320,192,118141,1,0,0:0:0:0:
192,192,118823,1,0,0:0:0:0:
320,192,118823,1,0,0:0:0:0:
64,192,119164,1,0,0:0:0:0:
448,192,119164,1,0,0:0:0:0:
192,192,119505,1,0,2:0:0:0:
320,192,119675,1,0,2:0:0:0:
64,192,119846,1,0,0:0:0:0:
448,192,119846,1,0,0:0:0:0:
448,192,120187,1,0,0:0:0:0:
320,192,120357,1,0,2:0:0:0:
64,192,120527,1,0,0:0:0:0:
448,192,120527,1,0,0:0:0:0:
64,192,120868,1,0,0:0:0:0:
448,192,120868,1,0,0:0:0:0:
192,192,121039,1,0,2:0:0:0:
320,192,121209,1,0,2:0:0:0:
448,192,121380,1,0,2:0:0:0:
320,192,121550,1,0,0:0:0:0:
192,192,121550,1,0,0:0:0:0:
64,192,121891,1,0,0:0:0:0:
448,192,121891,1,0,0:0:0:0:
64,192,122232,1,0,2:0:0:0:
320,192,122232,1,0,2:0:0:0:
192,192,122402,1,0,2:0:0:0:
448,192,122402,1,0,2:0:0:0:
64,192,122573,1,0,0:0:0:0:
320,192,122573,1,0,0:0:0:0:
192,192,122743,1,0,2:0:0:0:
64,192,122914,1,0,2:0:0:0:
192,192,123084,1,0,0:0:0:0:
320,192,123084,1,0,0:0:0:0:
64,192,123255,1,0,0:0:0:0:
448,192,123255,1,0,0:0:0:0:
64,192,123596,1,0,0:0:0:0:
448,192,123596,1,0,0:0:0:0:
64,192,123937,1,0,2:0:0:0:
192,192,124107,1,0,2:0:0:0:
320,192,124277,1,0,0:0:0:0:
448,192,124277,1,0,0:0:0:0:
64,192,124618,1,0,0:0:0:0:
320,192,124618,1,0,0:0:0:0:
192,192,124959,1,0,0:0:0:0:
320,192,124959,1,0,0:0:0:0:
64,192,125300,1,0,0:0:0:0:
448,192,125300,1,0,0:0:0:0:
192,192,125471,1,0,2:0:0:0:
64,192,125641,1,0,2:0:0:0:
192,192,125812,1,0,2:0:0:0:
64,192,125982,1,0,0:0:0:0:
320,192,125982,1,0,0:0:0:0:
192,192,126323,1,0,0:0:0:0:
320,192,126323,1,0,0:0:0:0:
320,192,126493,1,0,2:0:0:0:
448,192,126664,1,0,2:0:0:0:
320,192,126834,1,0,2:0:0:0:
192,192,127005,1,0,0:0:0:0:
320,192,127005,1,0,0:0:0:0:
64,192,127346,1,0,0:0:0:0:
448,192,127346,1,0,0:0:0:0:
320,192,127516,1,0,2:0:0:0:
192,192,127687,1,0,2:0:0:0:
64,192,127857,1,0,2:0:0:0:
192,192,128027,1,0,0:0:0:0:
320,192,128027,1,0,0:0:0:0:
192,192,128198,1,0,2:0:0:0:
320,192,128368,1,0,2:0:0:0:
192,192,128539,1,0,2:0:0:0:
64,192,128709,1,0,0:0:0:0:
448,192,128709,1,0,0:0:0:0:
64,192,129050,1,0,0:0:0:0:
448,192,129050,1,0,0:0:0:0:
192,192,129221,1,0,2:0:0:0:
320,192,129391,1,0,2:0:0:0:
64,192,129562,1,0,2:0:0:0:
192,192,129732,1,0,0:0:0:0:
320,192,129732,1,0,0:0:0:0:
64,192,130073,1,0,0:0:0:0:
448,192,130073,1,0,0:0:0:0:
320,192,130243,1,0,2:0:0:0:
64,192,130414,1,0,2:0:0:0:
320,192,130584,1,0,2:0:0:0:
64,192,130755,1,0,0:0:0:0:
448,192,130755,1,0,0:0:0:0:
192,192,130925,1,0,2:0:0:0:
448,192,131096,1,0,2:0:0:0:
192,192,131266,1,0,2:0:0:0:
64,192,131437,1,0,0:0:0:0:
448,192,131437,1,0,0:0:0:0:
192,192,131777,1,0,0:0:0:0:
320,192,131777,1,0,0:0:0:0:
192,192,132118,1,0,2:0:0:0:
320,192,132289,1,0,2:0:0:0:
192,192,132459,1,0,0:0:0:0:
320,192,132459,1,0,0:0:0:0:
64,192,132800,1,0,0:0:0:0:
448,192,132800,1,0,0:0:0:0:
320,192,132971,1,0,2:0:0:0:
192,192,133141,1,0,2:0:0:0:
64,192,133312,1,0,2:0:0:0:
192,192,133482,1,0,0:0:0:0:
320,192,133482,1,0,0:0:0:0:
64,192,133652,1,0,2:0:0:0:
320,192,133823,1,0,2:0:0:0:
192,192,133993,1,0,2:0:0:0:
64,192,134164,1,0,0:0:0:0:
448,192,134164,1,0,0:0:0:0:
192,192,134505,1,0,0:0:0:0:
320,192,134505,1,0,0:0:0:0:
192,192,134675,1,0,2:0:0:0:
320,192,134846,1,0,2:0:0:0:
192,192,135016,1,0,2:0:0:0:
192,192,135187,1,0,0:0:0:0:
320,192,135187,1,0,0:0:0:0:
64,192,135527,1,8,0:0:0:0:
192,192,135868,1,8,3:0:0:0:
320,192,135868,1,8,3:0:0:0:
320,192,136209,1,8,3:0:0:0:
448,192,136209,1,8,3:0:0:0:
192,192,136550,1,0,2:0:0:0:
64,192,136891,1,8,3:0:0:0:
320,192,136891,1,8,3:0:0:0:
448,192,137232,1,8,3:0:0:0:
320,192,137232,1,8,3:0:0:0:
192,192,137573,1,0,2:0:0:0:
64,192,137914,1,8,3:0:0:0:
320,192,137914,1,8,3:0:0:0:
192,192,138255,1,8,3:0:0:0:
448,192,138255,1,8,3:0:0:0:
192,192,138596,1,2,2:0:0:0:
320,192,138766,1,2,2:0:0:0:
64,192,138937,1,4,3:0:0:0:
192,192,138937,1,4,3:0:0:0:
448,192,139277,1,0,2:0:0:0:
64,192,139618,1,8,3:0:0:0:
192,192,139618,1,8,3:0:0:0:
320,192,139959,1,8,3:0:0:0:
448,192,139959,1,8,3:0:0:0:
64,192,140300,1,0,2:0:0:0:
192,192,140641,1,8,3:0:0:0:
448,192,140641,1,8,3:0:0:0:
320,192,140982,1,8,3:0:0:0:
192,192,140982,1,8,3:0:0:0:
64,192,141323,1,2,2:0:0:0:
192,192,141493,1,2,2:0:0:0:
64,192,141664,1,4,0:0:0:0:
320,192,141664,1,4,0:0:0:0:
448,192,141664,1,4,0:0:0:0:
