osu file format v13

[General]
AudioFilename: Boncabe!.mp3
AudioLeadIn: 0
PreviewTime: 55177
Countdown: 0
SampleSet: Normal
StackLeniency: 0.8
Mode: 0
LetterboxInBreaks: 0
WidescreenStoryboard: 0

[Editor]
Bookmarks: 11039,22078,33108,44142,55177,66216,77246,88285,99315,110354,121389,132423,140673
DistanceSpacing: 0.6
BeatDivisor: 8
GridSize: 4
TimelineZoom: 1

[Metadata]
Title:Bonfire
TitleUnicode:Bonfire
Artist:Knife Party
ArtistUnicode:Knife Party
Creator:inverness
Version:Rage
Source:
Tags:dubstep rage valley -bakari- bci black_cherry_ita kyshiro kazukisinx -anhedonia- backfire inaba-tan
BeatmapID:281918
BeatmapSetID:73576

[Difficulty]
HPDrainRate:8
CircleSize:4
OverallDifficulty:9
ApproachRate:9
SliderMultiplier:3.59999990463257
SliderTickRate:1

[Events]
//Background and Video events
0,0,"actualbg.jpg",0,0
//Break Periods
2,33313,43547
//Storyboard Layer 0 (Background)
//Storyboard Layer 1 (Fail)
//Storyboard Layer 2 (Pass)
//Storyboard Layer 3 (Foreground)
//Storyboard Sound Samples
//Background Colour Transformations
3,100,163,162,255

[TimingPoints]
10,689.655172413793,4,1,1,50,1,0
22078,-100,4,1,1,55,0,0
44147,-100,4,1,1,50,0,0
49665,-100,4,1,1,60,0,0
52423,-100,4,1,1,70,0,0
55182,-100,4,1,1,70,0,1
66130,-100,4,1,1,70,0,0
66216,-100,4,1,1,70,0,1
77251,-100,4,1,1,70,0,0
99320,-100,4,1,1,70,0,1
110268,-100,4,1,1,70,0,0
110354,-100,4,1,1,70,0,1
121389,-100,4,1,1,70,0,0
140673,689.655172413793,4,1,1,70,1,0
140759,-100,4,1,1,10,0,0
141017,-100,4,1,1,15,0,0
141362,-100,4,1,1,20,0,0
141707,-100,4,1,1,25,0,0
142052,-100,4,1,1,30,0,0
142397,-100,4,1,1,35,0,0
142741,-100,4,1,1,40,0,0

[Colours]
Combo1 : 128,0,0
Combo2 : 128,128,128
Combo3 : 192,192,192
Combo4 : 65,65,65
Combo5 : 176,0,0

[HitObjects]
36,240,11044,6,0,P|80:308|180:300,1,179.999995231628,4|2,0:0|2:0,0:0:0:0:
124,232,11561,1,2,3:0:0:0:
256,332,11734,2,0,P|308:296|396:316,1,134.999996423721,8|0,0:0|2:0,0:0:0:0:
400,312,12078,2,0,P|444:316|488:280,1,89.9999976158142,2|8,2:0|2:0,0:0:0:0:
416,228,12423,2,0,B|400:184|400:184|412:140,1,89.9999976158142,0|0,0:0|2:0,0:0:0:0:
312,68,12768,2,0,B|328:112|328:112|316:156,1,89.9999976158142,2|2,2:0|3:0,0:0:0:0:
232,36,13113,2,0,P|180:76|104:56,1,134.999996423721,8|0,0:0|2:0,0:0:0:0:
115,64,13458,1,2,2:0:0:0:
36,16,13630,1,0,3:0:0:0:
88,152,13803,6,0,L|100:256,1,89.9999976158142,0|0,0:0|2:0,0:0:0:0:
192,164,14147,2,0,L|180:60,1,89.9999976158142,2|2,2:0|3:0,0:0:0:0:
28,276,14492,2,0,P|104:268|164:316,1,134.999996423721,8|0,0:0|2:0,0:0:0:0:
168,316,14837,2,0,P|224:296|244:248,1,89.9999976158142,2|8,2:0|2:0,0:0:0:0:
240,92,15182,1,0,0:0:0:0:
252,180,15354,1,0,2:0:0:0:
324,232,15527,1,2,2:0:0:0:
412,228,15699,1,2,3:0:0:0:
240,92,15872,2,0,P|168:148|184:236,1,179.999995231628,8|2,0:0|2:0,0:0:0:0:
252,180,16389,1,0,3:0:0:0:
324,124,16561,6,0,P|332:76|304:28,1,89.9999976158142,0|0,0:0|2:0,0:0:0:0:
178,228,16906,2,0,P|170:276|198:324,1,89.9999976158142,2|2,2:0|3:0,0:0:0:0:
104,168,17251,2,0,P|152:132|168:60,1,134.999996423721,8|0,0:0|2:0,0:0:0:0:
152,40,17596,2,0,B|193:51|193:51|237:35,1,89.9999976158142,2|8,2:0|2:0,0:0:0:0:
348,112,17941,2,0,B|306:100|306:100|262:116,1,89.9999976158142,0|0,0:0|2:0,0:0:0:0:
356,24,18285,2,0,B|397:35|397:35|441:19,1,89.9999976158142,2|2,2:0|3:0,0:0:0:0:
312,192,18630,2,0,P|308:256|416:316,1,179.999995231628,8|2,0:0|2:0,0:0:0:0:
396,228,19147,1,0,3:0:0:0:
117,318,19320,38,0,P|204:256|200:192,2,179.999995231628,0|2|8,0:0|2:0|0:0,0:0:0:0:
116,228,20182,1,2,2:0:0:0:
88,144,20354,1,0,0:0:0:0:
28,76,20527,1,0,0:0:0:0:
116,228,20699,2,0,B|140:265|187:256|187:256|193:276|193:276|236:267|264:304,1,179.999995231628,0|2,0:0|2:0,0:0:0:0:
200,364,21216,1,2,3:0:0:0:
348,280,21389,2,0,P|344:216|452:156,1,179.999995231628,8|0,0:0|3:0,0:0:0:0:
164,104,22078,6,0,P|168:168|60:228,1,180,4|2,0:0|2:0,0:0:0:0:
80,140,22596,1,2,3:0:0:0:
248,72,22768,2,0,B|312:92|312:92|380:80,1,135,8|0,0:0|2:0,0:0:0:0:
404,76,23113,2,0,P|392:128|408:164,1,90,2|8,2:0|2:0,0:0:0:0:
468,316,23458,2,0,P|480:264|464:228,1,90,0|0,0:0|2:0,0:0:0:0:
392,276,23803,1,2,2:0:0:0:
480,116,23975,1,2,3:0:0:0:
392,276,24147,2,0,P|328:268|260:340,1,135,8|0,0:0|2:0,0:0:0:0:
273,307,24492,1,2,2:0:0:0:
348,352,24665,1,0,3:0:0:0:
200,260,24837,6,0,L|96:272,1,90,0|0,0:0|2:0,0:0:0:0:
36,156,25182,2,0,L|140:144,1,90,2|2,2:0|3:0,0:0:0:0:
273,307,25527,2,0,P|232:252|252:168,1,135,8|0,0:0|2:0,0:0:0:0:
248,164,25872,2,0,P|256:116|228:72,1,90,2|8,2:0|2:0,0:0:0:0:
328,228,26216,1,0,0:0:0:0:
416,204,26389,1,0,2:0:0:0:
396,292,26561,1,2,2:0:0:0:
352,140,26734,1,2,3:0:0:0:
480,268,26906,2,0,P|456:356|376:376,1,180,8|2,0:0|2:0,0:0:0:0:
244,320,27423,1,0,3:0:0:0:
244,320,27596,38,0,B|199:304|199:304|155:317,1,90,0|0,0:0|2:0,0:0:0:0:
81,218,27941,2,0,B|125:233|125:233|169:220,1,90,2|2,2:0|3:0,0:0:0:0:
304,372,28285,2,0,P|268:316|288:240,1,135,8|0,0:0|2:0,0:0:0:0:
296,232,28630,2,0,P|312:184|292:140,1,90,2|8,2:0|2:0,0:0:0:0:
204,32,28975,2,0,P|188:80|208:124,1,90,0|0,0:0|2:0,0:0:0:0:
81,218,29320,2,0,P|97:170|77:126,1,90,2|2,2:0|3:0,0:0:0:0:
0,244,29665,2,0,P|56:304|132:288,1,135,8|0,0:0|2:0,0:0:0:0:
104,303,30010,1,2,2:0:0:0:
81,218,30182,1,0,3:0:0:0:
176,352,30354,6,0,B|204:320|189:276|189:276|208:267|208:267|191:226|220:188,2,180,0|2|8,0:0|2:0|0:0,0:0:0:0:
104,303,31216,1,2,2:0:0:0:
292,236,31389,1,0,0:0:0:0:
176,352,31561,1,0,0:0:0:0:
216,193,31734,2,0,P|148:177|116:77,1,180,0|2,0:0|2:0,0:0:0:0:
201,106,32251,1,0,3:0:0:0:
328,328,32423,2,0,P|368:292|448:296,1,135,8|0,0:0|2:0,0:0:0:0:
468,308,32768,2,0,P|452:244|488:176,1,134.999996423721,2|0,2:0|2:0,0:0:0:0:
479,183,33113,1,4,0:0:0:0:
190,248,44147,6,0,P|103:257|48:192,2,180,4|8|0,0:0|0:3|0:0,0:0:0:0:
140,172,45010,1,0,0:0:0:0:
280,264,45182,2,0,B|320:244|320:244|368:248,1,90,8|0,0:2|0:0,0:0:0:0:
404,328,45527,2,0,P|366:248|400:164,1,180,0|8,0:0|0:3,0:0:0:0:
130,83,46216,2,0,L|142:187,1,90,0|0,0:0|0:0,0:0:0:0:
260,236,46561,2,0,L|248:132,1,90,8|0,0:2|0:0,0:0:0:0:
76,28,46906,38,0,P|148:60|220:20,1,135,0|0,0:0|2:0,0:0:0:0:
220,28,47251,2,0,P|264:12|328:40,1,90,8|0,0:3|0:0,0:0:0:0:
268,104,47596,1,0,0:0:0:0:
352,132,47768,1,0,0:0:0:0:
440,120,47941,1,8,0:2:0:0:
500,52,48113,1,0,0:0:0:0:
268,104,48285,2,0,P|272:168|328:216,1,135,0|0,0:0|2:0,0:0:0:0:
321,213,48630,1,8,0:3:0:0:
104,288,48975,2,0,B|112:242|112:242|94:200,1,90
180,112,49320,2,0,B|171:157|171:157|189:199,1,90,8|0,0:2|0:0,0:0:0:0:
216,32,49665,6,0,P|168:24|124:44,1,90
130,38,49923,1,0,0:0:0:0:
130,38,50010,1,8,0:2:0:0:
288,80,50182,1,0,0:0:0:0:
376,88,50354,1,0,0:0:0:0:
460,60,50527,1,0,0:0:0:0:
288,80,50699,2,0,L|276:184,1,90,8|0,0:2|0:0,0:0:0:0:
320,344,51044,2,0,L|332:240,1,90
348,236,51303,1,0,0:0:0:0:
364,216,51389,2,0,L|376:112,1,90,8|0,0:2|0:0,0:0:0:0:
416,296,51734,2,0,P|452:312|504:296,1,90
279,169,52078,2,0,P|243:153|191:169,1,90,8|0,0:2|0:0,0:0:0:0:
182,267,52423,5,0,0:0:0:0:
196,244,52510,1,0,0:0:0:0:
203,218,52596,1,0,0:0:0:0:
202,191,52682,1,0,0:0:0:0:
195,165,52768,1,8,0:2:0:0:
180,142,52854,1,0,0:0:0:0:
160,124,52941,1,0,0:0:0:0:
136,113,53027,1,0,0:0:0:0:
109,108,53113,2,0,L|50:101,1,45
213,58,53285,2,0,L|257:52,1,45
324,175,53458,2,0,L|279:169,1,45,8|0,0:2|0:0,0:0:0:0:
400,84,53630,2,0,L|444:78,1,45
392,100,53803,1,4,0:0:0:0:
391,100,55182,6,2,B|400:161|458:93|442:5|277:43|332:163|403:152|456:185|431:291,1,315,4|0,0:0|2:0,0:0:0:0:
435,267,55872,1,8,0:0:0:0:
391,100,56044,1,2,0:0:0:0:
491,162,56216,1,2,0:0:0:0:
324,201,56389,1,2,0:0:0:0:
328,36,56561,2,0,P|368:12|416:16,1,90,0|0,0:0|2:0,0:0:0:0:
324,201,56906,2,0,P|284:225|236:221,1,90,4|0,2:0|2:0,0:0:0:0:
391,100,57251,2,0,P|433:101|473:77,1,90,8|0,0:0|2:0,0:0:0:0:
264,136,57596,2,0,P|221:134|181:158,1,90,8|0,2:0|2:0,0:0:0:0:
164,317,57941,6,0,B|196:253|147:187|147:187|158:170|181:156|181:156|132:88|177:10,1,315,0|0,0:0|2:0,0:0:0:0:
166,32,58630,1,8,0:0:0:0:
252,88,58803,1,2,0:0:0:0:
80,264,58975,1,2,0:0:0:0:
252,88,59147,1,2,0:0:0:0:
80,264,59320,2,0,P|64:312|80:360,1,90,0|0,0:0|2:0,0:0:0:0:
252,88,59665,2,0,P|268:40|252:-8,1,90,4|0,2:0|2:0,0:0:0:0:
116,180,60010,2,0,B|161:187|161:187|202:167,1,90,8|0,0:0|2:0,0:0:0:0:
396,208,60354,2,0,B|350:200|350:200|309:220,1,90,2|8,2:2|2:0,0:0:0:0:
364,292,60699,53,2,0:3:0:0:
428,128,60872,1,2,0:3:0:0:
351,324,61044,1,2,0:3:0:0:
440,100,61216,1,2,0:3:0:0:
316,176,61389,1,10,0:0:0:0:
480,240,61561,1,2,0:0:0:0:
284,164,61734,1,2,0:0:0:0:
508,252,61906,1,2,0:0:0:0:
248,152,62078,2,0,L|144:164,1,90,0|2,0:0|0:0,0:0:0:0:
100,308,62423,2,0,L|204:296,1,90,0|2,2:0|0:0,0:0:0:0:
288,84,62768,2,0,P|272:148|316:212,1,135,8|0,0:0|3:0,0:0:0:0:
324,224,63113,2,0,P|352:268|348:308,1,90,2|0,0:0|0:0,0:0:0:0:
364,136,63458,5,4,0:2:0:0:
260,288,63630,1,2,2:0:0:0:
237,273,63716,1,0,2:0:0:0:
211,265,63803,1,0,0:0:0:0:
184,263,63889,1,0,2:0:0:0:
158,267,63975,1,2,2:0:0:0:
133,278,64061,1,0,2:0:0:0:
112,296,64147,2,0,L|100:192,1,90,0|4,0:0|0:2,0:0:0:0:
240,88,64492,2,0,L|252:192,1,90,0|4,0:0|0:2,0:0:0:0:
416,284,64837,2,0,L|404:180,1,90,4|0,0:2|3:0,0:0:0:0:
172,52,65182,2,0,P|248:68|304:24,1,135,2|0,0:0|3:0,0:0:0:0:
308,16,65527,2,2,P|360:32|384:64,1,90,2|0,0:0|3:0,0:0:0:0:
453,190,65872,2,0,P|401:174|380:148,1,90,2|0,3:3|3:0,0:0:0:0:
320,216,66216,54,2,B|305:248|268:247|268:247|260:267|260:267|248:246|248:246|248:274|248:274|222:260|222:260|252:296|252:296|204:276|150:300|146:345,1,315,4|0,0:0|2:0,0:0:0:0:
159,313,66906,1,8,0:0:0:0:
220,376,67078,1,2,0:0:0:0:
152,224,67251,1,2,0:0:0:0:
68,356,67423,1,2,0:0:0:0:
232,256,67596,2,0,B|239:211|239:211|219:170,1,90,0|0,0:0|2:0,0:0:0:0:
296,76,67941,2,0,B|289:121|289:121|309:162,1,90,4|0,2:0|2:0,0:0:0:0:
312,332,68285,2,0,L|324:228,1,90,8|0,0:0|2:2,0:0:0:0:
216,4,68630,2,0,L|204:108,1,90,8|0,2:0|2:2,0:0:0:0:
184,316,68975,6,0,B|152:301|153:264|153:264|133:256|133:256|154:244|154:244|120:240|120:240|140:218|140:218|92:216|44:172|64:104,1,315,0|0,0:0|2:0,0:0:0:0:
59,123,69665,1,8,0:0:0:0:
100,332,69837,1,2,0:0:0:0:
144,132,70010,1,2,0:0:0:0:
16,344,70182,1,2,0:0:0:0:
228,144,70354,2,0,L|332:132,1,90,0|0,0:0|2:2,0:0:0:0:
404,248,70699,2,0,L|300:260,1,90,4|0,2:0|2:2,0:0:0:0:
388,76,71044,2,0,P|408:120|396:176,1,90,8|0,0:0|2:0,0:0:0:0:
248,316,71389,2,0,P|228:272|240:216,1,90,2|8,2:0|2:0,0:0:0:0:
316,260,71734,53,2,0:3:0:0:
232,232,71906,1,2,0:3:0:0:
168,168,72078,1,2,0:3:0:0:
132,84,72251,1,2,0:3:0:0:
298,173,72423,1,10,0:0:0:0:
232,232,72596,1,2,0:0:0:0:
144,255,72768,1,2,0:0:0:0:
53,244,72941,1,2,0:0:0:0:
320,92,73113,2,0,B|365:99|365:99|406:79,1,90,0|2,0:0|0:0,0:0:0:0:
404,304,73458,2,0,B|365:285|365:285|320:292,1,90,0|2,2:0|0:0,0:0:0:0:
298,173,73803,2,0,P|296:104|224:64,1,135,8|0,0:0|3:0,0:0:0:0:
220,64,74147,2,2,L|116:76,1,90,2|0,0:0|0:2,0:0:0:0:
232,232,74492,5,4,0:2:0:0:
372,231,74665,1,2,2:0:0:0:
352,249,74751,1,0,2:0:0:0:
328,261,74837,1,0,0:0:0:0:
301,265,74923,1,0,2:0:0:0:
276,262,75010,1,2,2:0:0:0:
251,250,75096,1,0,2:0:0:0:
232,232,75182,2,0,L|128:244,1,90,0|4,0:0|0:2,0:0:0:0:
56,136,75527,2,0,L|160:124,1,90,0|4,0:0|0:2,0:0:0:0:
176,352,75872,2,0,L|72:364,1,90,4|0,0:2|2:2,0:0:0:0:
0,84,76216,2,0,P|36:144|0:224,1,135,2|0,0:0|3:0,0:0:0:0:
4,224,76561,2,2,P|16:272|64:304,1,90,2|0,0:0|2:0,0:0:0:0:
176,352,76906,2,0,P|164:304|116:272,1,90,2|0,3:3|2:0,0:0:0:0:
264,344,77251,22,0,P|360:340|400:268,2,180,0|2|8,0:0|2:2|0:0,0:0:0:0:
308,264,78113,1,4,3:2:0:0:
176,352,78285,2,0,L|86:362,1,90,0|8,3:0|3:2,0:0:0:0:
308,264,78630,2,0,P|324:200|252:128,1,135,4|0,0:2|2:0,0:0:0:0:
268,128,78975,2,0,B|232:104|232:104|220:52,1,90,2|0,2:0|3:0,0:0:0:0:
156,160,79320,2,0,B|192:184|192:184|204:236,1,90,8|0,0:0|3:0,0:0:0:0:
136,76,79665,2,0,B|100:52|100:52|88:0,1,90,2|0,2:0|3:0,0:0:0:0:
292,216,80010,6,0,P|352:164|312:52,1,180,0|2,0:0|2:0,0:0:0:0:
268,128,80527,1,0,3:0:0:0:
224,280,80699,2,0,L|234:369,1,90,8|4,0:0|2:2,0:0:0:0:
268,128,81044,2,0,L|257:38,1,90,2|8,2:0|2:2,0:0:0:0:
292,216,81389,2,0,P|364:220|408:268,1,135,4|0,0:2|2:0,0:0:0:0:
416,288,81734,2,0,P|464:264|476:216,1,90,2|0,2:0|3:0,0:0:0:0:
224,280,82078,1,8,0:0:0:0:
136,264,82251,1,2,2:0:0:0:
120,176,82423,1,0,0:0:0:0:
180,108,82596,1,0,3:0:0:0:
136,264,82768,38,0,P|60:240|40:132,2,180,0|2|8,0:0|2:0|0:0,0:0:0:0:
120,176,83630,1,4,2:0:0:0:
224,280,83803,2,0,B|264:260|264:260|316:264,1,90,0|8,3:0|2:0,0:0:0:0:
440,332,84147,2,0,P|396:276|404:216,1,135,4|0,0:2|2:0,0:0:0:0:
420,192,84492,2,0,P|440:152|428:100,1,90,2|0,2:0|3:0,0:0:0:0:
288,84,84837,2,0,P|312:121|363:136,1,90,8|0,0:0|3:0,0:0:0:0:
448,24,85182,2,0,P|403:26|364:63,1,90,2|0,2:0|3:0,0:0:0:0:
420,192,85527,6,0,B|399:229|353:230|353:230|351:251|351:251|306:249|280:289,1,180,0|2,0:0|2:0,0:0:0:0:
356,336,86044,1,0,3:0:0:0:
200,272,86216,2,0,B|155:265|155:265|114:285,1,90,8|0,0:0|2:0,0:0:0:0:
0,216,86561,2,0,B|45:223|45:223|86:203,1,90,2|8,2:0|2:0,0:0:0:0:
232,204,86906,2,0,P|224:276|284:332,1,135,4|0,0:2|2:0,0:0:0:0:
260,322,87251,1,2,2:0:0:0:
356,336,87423,1,0,3:0:0:0:
296,144,87596,2,0,P|252:116|192:124,1,90,8|0,0:0|3:0,0:0:0:0:
356,212,87941,2,0,P|384:168|376:108,1,90,8|8,0:0|0:0,0:0:0:0:
424,276,88285,6,2,P|468:204|460:80,2,180,4|2|8,0:0|2:0|0:0,0:0:0:0:
356,336,89147,1,4,3:2:0:0:
356,336,89320,2,0,L|267:346,1,90,0|8,3:0|0:2,0:0:0:0:
196,232,89665,2,2,L|329:216,1,135,4|0,0:2|2:2,0:0:0:0:
356,212,90010,2,0,P|396:176|452:184,1,90,2|0,2:0|3:0,0:0:0:0:
280,132,90354,2,2,P|228:115|207:62,1,90,8|0,0:0|3:0,0:0:0:0:
248,232,90699,2,2,P|259:284|224:329,1,90,2|0,2:0|3:0,0:0:0:0:
356,212,91044,38,2,P|316:140|360:40,1,180,0|2,0:0|2:0,0:0:0:0:
432,32,91561,1,0,3:0:0:0:
240,56,91734,2,0,B|195:63|195:63|154:43,1,90,8|4,0:0|2:0,0:0:0:0:
40,116,92078,2,0,B|85:109|85:109|126:129,1,90,2|8,2:0|2:0,0:0:0:0:
76,204,92423,2,2,B|109:220|109:220|127:257|127:257|164:274|208:232,1,135,4|0,0:2|2:0,0:0:0:0:
204,240,92768,2,2,P|248:228|292:244,1,90,2|0,2:0|3:0,0:0:0:0:
308,328,93113,1,8,0:0:0:0:
290,242,93285,1,2,2:2:0:0:
308,152,93458,1,0,0:3:0:0:
372,88,93630,1,0,3:3:0:0:
180,320,93803,6,2,B|138:312|121:270|121:270|100:275|100:275|87:232|40:221,2,180,0|2|8,0:0|2:0|0:0,0:0:0:0:
20,304,94665,1,4,3:2:0:0:
56,136,94837,2,0,L|46:47,1,90,0|8,3:0|2:0,0:0:0:0:
136,176,95182,2,2,P|192:180|248:120,1,135,4|0,0:2|2:0,0:0:0:0:
252,100,95527,2,0,P|304:96|352:132,1,90,2|0,2:0|3:0,0:0:0:0:
396,212,95872,2,2,P|344:216|296:180,1,90,8|0,0:0|3:0,0:0:0:0:
180,268,96216,2,2,P|232:264|280:300,1,90,2|0,2:0|3:0,0:0:0:0:
208,352,96561,5,4,0:2:0:0:
426,287,96734,1,2,2:0:0:0:
409,265,96820,1,0,2:0:0:0:
399,240,96906,1,0,0:0:0:0:
396,213,96992,1,0,2:0:0:0:
400,187,97078,1,2,2:0:0:0:
412,163,97165,1,0,2:0:0:0:
430,142,97251,2,0,B|385:149|385:149|344:129,1,90,0|4,3:2|0:2,0:0:0:0:
214,218,97596,2,0,B|257:202|257:202|313:222,1,90,0|4,3:0|0:2,0:0:0:0:
166,129,97941,2,0,B|127:149|127:149|82:142,1,90,4|0,0:2|2:2,0:0:0:0:
264,296,98285,2,0,B|297:312|297:312|315:349|315:349|352:366|396:324,1,135,2|0,0:0|3:0,0:0:0:0:
392,332,98630,2,0,P|436:320|480:336,1,90,2|0,0:0|3:0,0:0:0:0:
184,336,98975,2,0,P|140:348|96:332,1,90,2|0,3:0|3:0,0:0:0:0:
304,136,99320,22,10,B|256:156|256:220|256:220|242:192|242:192|236:216|236:216|220:198|220:198|225:229|225:229|207:216|207:216|188:258|148:260,1,315,4|0,0:0|2:0,0:0:0:0:
148,259,100010,1,8,0:0:0:0:
344,208,100182,1,2,0:0:0:0:
128,180,100354,1,2,0:0:0:0:
344,208,100527,1,2,0:0:0:0:
128,180,100699,2,0,P|84:200|60:244,1,90,0|0,0:0|2:0,0:0:0:0:
72,100,101044,2,0,P|116:80|139:35,1,90,4|0,2:0|2:0,0:0:0:0:
260,208,101389,2,0,P|216:228|192:272,1,90,8|0,0:0|2:0,0:0:0:0:
204,128,101734,2,0,P|248:108|271:63,1,90,8|0,2:0|2:0,0:0:0:0:
432,78,102078,54,0,B|423:139|498:89|507:0|338:-8|357:122|429:131|471:177|417:272,1,315,0|0,0:0|2:0,0:0:0:0:
427,250,102768,1,8,0:0:0:0:
432,78,102941,1,2,0:0:0:0:
512,172,103113,1,2,0:0:0:0:
341,151,103285,1,2,0:0:0:0:
444,348,103458,2,0,B|399:341|399:341|358:361,1,90,0|0,0:0|2:0,0:0:0:0:
248,292,103803,2,0,B|293:299|293:299|334:279,1,90,4|0,2:0|2:0,0:0:0:0:
196,220,104147,2,0,B|151:213|151:213|110:233,1,90,8|0,0:0|2:0,0:0:0:0:
0,164,104492,2,0,B|45:171|45:171|86:151,1,90,2|8,2:0|2:0,0:0:0:0:
227,42,104837,5,2,0:3:0:0:
211,133,105010,1,2,0:3:0:0:
196,220,105182,1,2,0:3:0:0:
180,306,105354,1,2,0:3:0:0:
374,251,105527,1,10,0:0:0:0:
283,235,105699,1,2,0:0:0:0:
196,220,105872,1,2,0:0:0:0:
110,204,106044,1,2,0:0:0:0:
374,251,106216,2,0,L|463:241,1,90,0|2,0:0|0:0,0:0:0:0:
300,123,106561,2,0,L|211:133,1,90,0|2,2:0|0:0,0:0:0:0:
380,164,106906,2,0,P|388:96|332:36,1,135,8|0,0:0|3:0,0:0:0:0:
324,36,107251,2,2,P|272:32|232:-8,1,90,2|0,0:0|0:0,0:0:0:0:
300,124,107596,53,4,0:2:0:0:
470,172,107768,1,2,2:0:0:0:
465,198,107854,1,0,2:0:0:0:
453,222,107941,1,0,0:0:0:0:
434,241,108027,1,0,2:0:0:0:
410,253,108113,1,2,2:0:0:0:
383,258,108199,1,0,2:0:0:0:
357,254,108285,2,0,B|312:247|312:247|271:267,1,90,0|4,0:0|0:2,0:0:0:0:
148,328,108630,2,0,B|176:292|176:292|179:248,1,90,0|4,0:0|0:2,0:0:0:0:
188,104,108975,2,0,B|204:146|204:146|241:171,1,90,4|0,0:2|2:2,0:0:0:0:
224,20,109320,2,0,P|132:28|96:92,1,135,2|0,0:0|3:0,0:0:0:0:
96,80,109665,2,0,P|44:84|4:52,1,90,2|0,0:0|3:0,0:0:0:0:
308,52,110010,2,0,P|360:48|400:80,1,90,2|0,3:3|3:0,0:0:0:0:
460,272,110354,6,2,B|424:272|408:240|408:240|389:236|389:236|410:224|410:224|382:224|382:224|396:198|396:198|360:228|360:228|376:156|311:122,1,314.99999165535,4|0,0:0|2:0,0:0:0:0:
332,135,111044,1,8,0:0:0:0:
272,204,111216,1,2,0:0:0:0:
424,104,111389,1,2,0:0:0:0:
272,204,111561,1,2,0:0:0:0:
424,104,111734,2,0,L|434:15,1,90,0|0,0:0|2:0,0:0:0:0:
252,28,112078,2,0,L|242:117,1,90,4|0,2:0|2:0,0:0:0:0:
262,293,112423,2,0,L|272:204,1,90,8|0,0:0|2:0,0:0:0:0:
90,217,112768,2,0,L|80:306,1,90,8|0,2:0|2:0,0:0:0:0:
84,128,113113,54,8,B|122:116|154:149|154:149|166:130|166:130|172:161|172:161|181:139|181:139|195:159|195:159|201:128|201:128|246:183|323:152,1,315,0|0,0:0|2:0,0:0:0:0:
293,161,113803,1,8,0:0:0:0:
276,72,113975,1,2,0:0:0:0:
316,248,114147,1,2,0:0:0:0:
364,100,114320,1,2,0:0:0:0:
228,224,114492,2,0,P|232:284|264:320,1,90,0|0,0:0|2:0,0:0:0:0:
364,100,114837,2,0,P|363:39|333:2,1,90,4|0,2:0|2:0,0:0:0:0:
392,192,115182,2,0,P|441:158|454:132,1,90,8|0,0:0|2:0,0:0:0:0:
204,136,115527,2,0,P|154:169|141:195,1,90,2|8,2:0|2:0,0:0:0:0:
228,224,115872,5,2,0:3:0:0:
164,60,116044,1,2,0:3:0:0:
241,256,116216,1,2,0:3:0:0:
152,32,116389,1,2,0:3:0:0:
112,172,116561,1,10,0:0:0:0:
276,108,116734,1,2,0:0:0:0:
84,184,116906,1,2,0:0:0:0:
308,96,117078,1,2,0:0:0:0:
52,200,117251,2,0,L|40:304,1,90,0|2,0:0|0:0,0:0:0:0:
241,255,117596,2,0,L|253:151,1,90,0|2,2:0|0:0,0:0:0:0:
176,320,117941,2,0,P|231:349|304:320,1,135,8|0,0:0|3:0,0:0:0:0:
316,308,118285,2,0,P|360:292|412:308,1,90,2|0,0:0|0:0,0:0:0:0:
364,384,118630,53,4,0:2:0:0:
444,220,118803,1,2,2:0:0:0:
429,197,118889,1,0,2:0:0:0:
421,171,118975,1,0,0:0:0:0:
419,144,119061,1,0,2:0:0:0:
423,118,119147,1,2,2:0:0:0:
434,93,119234,1,0,2:0:0:0:
452,72,119320,2,0,L|348:60,1,90,0|4,0:0|0:2,0:0:0:0:
188,88,119665,2,0,L|292:100,1,90,0|4,3:0|0:2,0:0:0:0:
104,132,120010,2,0,L|0:120,1,90,4|0,0:2|2:2,0:0:0:0:
184,176,120354,2,0,P|224:222|303:221,1,135,2|0,0:0|3:0,0:0:0:0:
316,212,120699,2,0,B|355:192|355:192|400:199,1,90,2|0,0:0|3:0,0:0:0:0:
480,100,121044,2,0,B|440:119|440:119|395:112,1,90,2|0,3:0|2:0,0:0:0:0:
52,204,121389,22,0,B|74:239|120:238|120:238|123:259|123:259|168:254|196:293,1,180,4|2,0:0|2:0,0:0:0:0:
128,348,121906,1,0,3:0:0:0:
284,300,122078,2,0,P|356:300|400:252,1,135,8|0,0:0|2:0,0:0:0:0:
408,232,122423,2,0,P|432:192|476:176,1,90,2|8,2:0|2:0,0:0:0:0:
352,148,122768,2,0,P|315:118|268:118,1,90,0|0,0:0|2:0,0:0:0:0:
408,76,123113,2,0,P|452:56|494:61,1,90,2|0,2:0|3:0,0:0:0:0:
280,204,123458,2,0,P|220:188|192:84,1,180,8|2,0:0|2:0,0:0:0:0:
252,16,123975,1,0,3:0:0:0:
116,40,124147,6,0,B|76:59|76:59|31:52,1,90,0|0,0:0|2:0,0:0:0:0:
104,144,124492,2,0,B|143:124|143:124|188:131,1,90,2|0,2:0|3:0,0:0:0:0:
156,220,124837,2,0,B|123:236|123:236|105:273|105:273|68:290|24:248,1,135,8|0,0:0|2:0,0:0:0:0:
50,268,125182,1,2,2:0:0:0:
16,184,125354,1,8,2:0:0:0:
200,300,125527,2,0,P|245:317|298:294,1,90,0|0,0:0|2:0,0:0:0:0:
432,244,125872,2,0,P|386:226|333:249,1,90,2|0,2:0|3:0,0:0:0:0:
482,316,126216,2,0,P|444:275|460:151,1,180,8|2,0:0|2:0,0:0:0:0:
364,44,126734,1,0,3:0:0:0:
364,44,126906,6,0,L|274:54,1,90,0|0,0:0|2:0,0:0:0:0:
104,104,127251,2,0,L|193:93,1,90,2|0,2:0|3:0,0:0:0:0:
60,168,127596,2,0,P|76:100|44:48,1,135,8|0,0:0|2:0,0:0:0:0:
44,47,127941,1,2,2:0:0:0:
4,236,128113,1,8,2:0:0:0:
4,236,128285,2,0,P|52:260|108:236,1,90,0|0,0:0|2:0,0:0:0:0:
152,192,128630,1,2,2:0:0:0:
200,268,128803,1,0,3:0:0:0:
268,212,128975,2,0,L|446:191,1,180,8|2,0:0|2:0,0:0:0:0:
200,268,129665,38,0,P|252:336|342:324,2,180,0|2|8,0:0|2:0|0:0,0:0:0:0:
288,252,130527,1,0,3:0:0:0:
128,212,130699,2,0,B|88:231|88:231|43:224,1,90,2|8,2:0|2:0,0:0:0:0:
80,144,131044,2,0,B|106:127|106:127|117:87|117:87|157:60|201:98,1,135,0|0,0:0|2:0,0:0:0:0:
200,92,131389,2,0,P|240:104|288:88,1,90,2|0,2:0|3:0,0:0:0:0:
240,12,131734,1,8,0:0:0:0:
285,90,131906,1,0,3:0:0:0:
360,136,132078,1,8,0:0:0:0:
448,152,132251,1,8,0:0:0:0:
240,12,132423,6,0,P|196:84|252:172,1,180,4|2,0:0|2:0,0:0:0:0:
285,90,132941,1,0,3:0:0:0:
224,256,133113,2,0,B|264:264|296:236|296:236|272:292|312:340,1,180,8|2,0:0|2:0,0:0:0:0:
380,280,133630,1,8,2:0:0:0:
380,280,133803,2,0,P|402:314|449:333,1,90,0|0,0:0|2:0,0:0:0:0:
236,168,134147,2,0,P|213:133|166:114,1,90,2|0,2:0|3:0,0:0:0:0:
152,204,134492,2,0,B|160:233|190:251|190:251|186:279|161:302|161:302|180:337|154:389,1,180,8|2,0:0|2:0,0:0:0:0:
76,340,135010,1,0,2:0:0:0:
76,340,135182,6,0,B|60:298|60:298|71:254,1,90,0|0,0:0|2:0,0:0:0:0:
48,80,135527,2,0,B|63:121|63:121|52:165,1,90,2|0,2:0|3:0,0:0:0:0:
127,28,135872,2,0,B|152:88|152:88|220:68|212:112|284:88,1,179.999995231629,8|2,0:0|2:0,0:0:0:0:
184,168,136389,1,8,2:0:0:0:
336,32,136561,2,0,P|356:72|352:120,1,90,0|0,0:0|2:0,0:0:0:0:
468,180,136906,2,0,P|448:140|452:92,1,90,2|0,2:0|3:0,0:0:0:0:
380,212,137251,2,0,B|397:253|431:271|431:271|364:276|340:352,1,180,8|2,0:0|2:0,0:0:0:0:
436,360,137768,1,0,3:0:0:0:
264,324,137941,38,0,L|174:334,1,90,0|0,0:0|2:0,0:0:0:0:
8,300,138285,2,0,L|98:290,1,90,2|0,2:0|3:0,0:0:0:0:
380,212,138630,2,0,P|312:228|240:152,2,180,8|2|0,0:0|2:0|0:0,0:0:0:0:
332,136,139492,1,0,2:0:0:0:
348,48,139665,1,2,2:0:0:0:
436,24,139837,1,0,3:0:0:0:
380,212,140009,6,0,B|348:236|304:226|304:226|300:240|300:240|284:204|224:208,1,179.999995231629,0|2,0:0|2:0,0:0:0:0:
232,212,140673,1,4,2:1:0:0:
256,192,140759,12,2,143432,2:0:0:0:
