osu file format v13

[General]
AudioFilename: Boncabe!.mp3
AudioLeadIn: 0
PreviewTime: 55177
Countdown: 0
SampleSet: Normal
StackLeniency: 0.3
Mode: 0
LetterboxInBreaks: 0
WidescreenStoryboard: 0

[Editor]
Bookmarks: 11039,22078,33108,44142,55177,66216,77246,88285,99315,110354,121389,132423,140673
DistanceSpacing: 0.6
BeatDivisor: 8
GridSize: 4
TimelineZoom: 1

[Metadata]
Title:Bonfire
TitleUnicode:Bonfire
Artist:Knife Party
ArtistUnicode:Knife Party
Creator:inverness
Version:Normal
Source:
Tags:dubstep rage valley -bakari- bci black_cherry_ita kyshiro kazukisinx -anhedonia- backfire inaba-tan
BeatmapID:346874
BeatmapSetID:73576

[Difficulty]
HPDrainRate:4
CircleSize:3
OverallDifficulty:4
ApproachRate:5
SliderMultiplier:2.2
SliderTickRate:1

[Events]
//Background and Video events
0,0,"actualbg.jpg",0,0
//Break Periods
2,33312,42947
//Storyboard Layer 0 (Background)
//Storyboard Layer 1 (Fail)
//Storyboard Layer 2 (Pass)
//Storyboard Layer 3 (Foreground)
//Storyboard Sound Samples
//Background Colour Transformations
3,100,163,162,255

[TimingPoints]
10,689.655172413793,4,1,1,60,1,0
44147,-100,4,1,1,50,0,0
52682,-100,4,1,1,10,0,0
52768,-100,4,1,1,50,0,0
53027,-100,4,1,1,10,0,0
53113,-100,4,1,1,50,0,0
53372,-100,4,1,1,10,0,0
53458,-100,4,1,1,50,0,0
53716,-100,4,1,1,10,0,0
53803,-100,4,1,1,50,0,0
55182,-100,4,1,1,70,0,1
66130,-100,4,1,1,70,0,0
66216,-100,4,1,1,70,0,1
77251,-100,4,1,1,70,0,0
99320,-100,4,1,1,70,0,1
110268,-100,4,1,1,70,0,0
110354,-100,4,1,1,70,0,1
121389,-100,4,1,1,70,0,0
140673,689.655172413793,4,1,1,70,1,0
140759,-100,4,1,1,10,0,0
141017,-100,4,1,1,15,0,0
141362,-100,4,1,1,20,0,0
141707,-100,4,1,1,25,0,0
142052,-100,4,1,1,30,0,0
142397,-100,4,1,1,35,0,0
142741,-100,4,1,1,40,0,0

[Colours]
Combo1 : 128,0,0
Combo2 : 128,128,128
Combo3 : 192,192,192
Combo4 : 65,65,65
Combo5 : 176,0,0

[HitObjects]
392,92,11044,6,0,P|386:208|476:261,1,220,4|8,0:0|0:0,0:0:0:0:
404,340,12078,2,0,P|344:304|312:264,1,110,2|0,2:0|0:0,0:0:0:0:
276,184,12768,1,2,2:0:0:0:
256,90,13113,2,0,P|202:87|156:117,1,110,8|2,0:0|2:0,0:0:0:0:
130,219,13803,6,0,B|170:183|156:119|156:119|93:101|82:44,2,220,0|8|0,0:0|0:0|0:0,0:0:0:0:
56,284,15527,2,0,P|16:332|12:388,2,110,2|8|2,2:0|0:0|2:0,0:0:0:0:
130,219,16561,70,0,B|166:191|210:191|242:215|270:235|306:235|346:207,1,220,0|8,0:0|0:0,0:0:0:0:
424,160,17596,2,0,P|440:216|424:268,2,110,2|0|2,2:0|0:0|2:0,0:0:0:0:
360,84,18630,1,8,0:0:0:0:
260,128,18975,1,2,2:0:0:0:
168,60,19320,6,0,P|148:136|16:164,2,220,0|8|0,0:0|0:0|0:0,0:0:0:0:
260,128,21044,1,2,2:0:0:0:
344,60,21389,2,0,P|364:136|496:164,1,220,8|4,0:0|0:0,0:0:0:0:
332,288,22768,69,8,0:0:0:0:
248,240,23113,1,2,2:0:0:0:
220,144,23458,2,0,P|156:204|192:320,1,220,0|8,0:0|0:0,0:0:0:0:
100,368,24492,2,0,P|64:316|56:264,1,110,2|0,2:0|0:0,0:0:0:0:
100,76,25527,38,0,P|46:70|5:33,2,110,8|2|0,0:0|2:0|0:0,0:0:0:0:
197,62,26561,1,2,2:0:0:0:
294,49,26906,2,0,P|347:54|388:91,1,110,8|2,0:0|2:0,0:0:0:0:
399,196,27596,70,0,B|364:154|388:93|388:93|453:85|473:30,2,220,0|8|0,0:0|0:0|0:0,0:0:0:0:
456,276,29320,1,2,2:0:0:0:
404,360,29665,2,0,P|356:340|292:344,1,110,8|2,0:0|2:0,0:0:0:0:
200,356,30354,6,0,P|108:312|112:196,1,220,0|8,0:0|0:0,0:0:0:0:
164,124,31389,1,2,2:0:0:0:
248,72,31734,2,0,P|264:140|244:188,1,110,0|2,0:0|2:0,0:0:0:0:
332,236,32423,2,0,P|364:132|328:20,1,220,8|4,0:0|0:0,0:0:0:0:
92,180,44147,6,0,B|136:208|204:192|204:192|184:248|204:296,1,220,4|0,0:0|0:0,0:0:0:0:
256,376,45182,1,8,0:2:0:0:
308,293,45527,2,0,B|328:248|308:192|308:192|376:208|420:180,1,220,0|0,0:0|0:0,0:0:0:0:
492,112,46561,1,8,0:2:0:0:
420,180,46906,38,0,B|376:208|308:192|308:192|328:248|308:293,1,220,0|0,0:0|0:0,0:0:0:0:
256,376,47941,1,8,0:2:0:0:
203,293,48285,2,0,B|184:248|204:192|204:192|136:208|92:180,1,220,0|0,0:0|0:0,0:0:0:0:
20,112,49320,1,8,0:2:0:0:
92,44,49665,70,0,P|152:28|216:56,1,110,0|8,0:0|0:2,0:0:0:0:
252,124,50354,2,0,P|192:140|128:112,1,110,0|8,0:0|0:2,0:0:0:0:
204,248,51044,2,0,P|264:232|328:260,1,110,0|8,0:0|0:2,0:0:0:0:
364,328,51734,2,0,P|304:344|240:316,1,110,0|8,0:0|0:2,0:0:0:0:
256,192,52423,12,4,53803,0:0:0:0:
352,88,55182,38,2,P|396:192|332:264,1,220,4|8,0:0|0:0,0:0:0:0:
236,288,56216,1,2,0:0:0:0:
136,284,56561,2,0,P|84:264|48:208,1,110,0|4,0:0|2:0,0:0:0:0:
156,184,57251,2,0,P|129:135|140:72,1,110,8|8,0:0|2:0,0:0:0:0:
236,116,57941,6,0,P|312:52|424:80,1,220,0|8,0:0|0:0,0:0:0:0:
484,156,58975,2,0,P|500:208|488:276,1,110,2|0,0:0|0:0,0:0:0:0:
395,205,59665,2,0,P|375:257|321:284,1,110,4|8,2:0|0:0,0:0:0:0:
296,192,60354,1,2,2:2:0:0:
297,192,60699,70,0,B|263:215|227:215|199:195|167:171|123:171|87:199,1,220,2|10,0:3|0:0,0:0:0:0:
44,112,61734,2,0,P|100:88|172:92,1,110,2|0,0:0|0:0,0:0:0:0:
244,108,62423,1,2,0:0:0:0:
340,88,62768,2,0,P|388:89|444:113,1,110,8|2,0:0|0:0,0:0:0:0:
476,216,63458,54,0,B|444:112|444:112|472:56|536:36,2,220,4|0|4,0:2|0:0|0:2,0:0:0:0:
504,308,65182,1,2,0:0:0:0:
416,348,65527,1,2,0:0:0:0:
316,348,65872,1,2,0:3:0:0:
240,284,66216,70,2,P|206:185|283:108,1,220,4|8,0:0|0:0,0:0:0:0:
304,207,67251,2,0,L|81:155,1,220,2|4,0:0|2:0,0:0:0:0:
68,60,68285,2,0,L|196:92,1,110,8|8,0:0|2:0,0:0:0:0:
272,112,68975,6,0,P|305:210|228:287,1,220,0|8,0:0|0:0,0:0:0:0:
300,364,70010,2,0,P|380:284|400:168,1,220,2|4,0:0|2:0,0:0:0:0:
376,88,71044,1,8,0:0:0:0:
300,24,71389,70,0,P|276:80|292:136,1,110,2|2,2:0|0:3,0:0:0:0:
188,124,72078,2,0,P|205:182|248:216,2,110,2|10|2,0:3|0:0|0:0,0:0:0:0:
176,24,73113,1,0,0:0:0:0:
88,72,73458,2,0,P|88:188|148:284,1,220,2|2,0:0|0:0,0:0:0:0:
232,308,74492,54,0,P|284:292|340:304,1,110,4|0,0:2|0:0,0:0:0:0:
340,204,75182,2,0,P|390:225|425:270,1,110,0|0,0:0|0:0,0:0:0:0:
488,196,75872,2,0,P|512:244|510:301,2,110,4|2|2,0:2|0:0|0:0,0:0:0:0:
484,192,77251,38,0,B|448:164|404:164|372:188|344:208|308:208|268:180,1,220,0|8,0:0|0:0,0:0:0:0:
192,132,78285,2,0,P|176:184|201:244,2,110,0|4|2,3:2|0:2|2:0,0:0:0:0:
104,84,79320,2,0,P|76:200|116:304,1,220,8|0,0:0|0:0,0:0:0:0:
200,332,80354,6,0,L|320:344,1,110,2|8,2:0|0:0,0:0:0:0:
376,268,81044,1,2,2:0:0:0:
316,192,81389,2,0,L|196:180,2,110,4|2|8,0:2|2:0|0:0,0:0:0:0:
412,172,82423,1,0,0:0:0:0:
412,172,82768,70,0,P|476:276|432:360,1,220,0|8,0:0|0:0,0:0:0:0:
340,380,83803,1,0,3:0:0:0:
268,312,84147,2,0,P|247:258|261:199,1,110,4|2,0:2|2:0,0:0:0:0:
156,208,84837,2,0,P|175:153|222:117,1,110,8|2,0:0|2:0,0:0:0:0:
139,52,85527,38,0,P|248:28|316:104,2,220,0|8|4,0:0|0:0|0:2,0:0:0:0:
72,124,87251,2,0,P|44:80|44:24,2,110,2|8|8,2:0|0:0|0:0,0:0:0:0:
148,188,88285,70,2,P|196:272|136:368,1,220,4|8,0:0|0:0,0:0:0:0:
96,276,89320,1,0,3:0:0:0:
196,280,89665,2,2,L|320:284,1,110,4|2,0:2|2:0,0:0:0:0:
352,372,90354,6,0,P|304:288|364:192,1,220,8|0,0:0|0:0,0:0:0:0:
464,196,91389,2,0,P|448:136|396:100,2,110,2|8|2,2:0|0:0|2:0,0:0:0:0:
408,280,92423,2,2,P|467:296|525:269,2,110,4|2|8,0:2|2:0|0:0,0:0:0:0:
364,192,93458,1,0,0:3:0:0:
364,192,93803,70,0,B|308:224|308:288|308:288|264:252|196:272,1,220,0|8,0:0|0:0,0:0:0:0:
140,336,94837,2,0,P|200:364|256:352,2,110,0|4|2,3:0|0:2|2:0,0:0:0:0:
72,256,95872,2,2,P|44:168|116:68,1,220,8|4,0:0|0:2,0:0:0:0:
212,48,96906,5,0,0:0:0:0:
284,120,97251,1,0,0:2:0:0:
376,80,97596,1,0,0:0:0:0:
456,144,97941,2,0,P|472:208|444:268,1,110,4|2,0:2|0:0,0:0:0:0:
376,300,98630,2,0,P|360:236|388:176,1,110,2|2,0:0|3:0,0:0:0:0:
372,196,99320,6,2,B|336:168|292:168|260:192|232:212|196:212|156:184,1,220,4|8,0:0|0:0,0:0:0:0:
212,100,100354,1,2,0:0:0:0:
308,80,100699,2,0,P|372:88|424:116,2,110,0|4|8,0:0|2:0|0:0,0:0:0:0:
212,100,101734,1,8,2:0:0:0:
124,144,102078,6,0,B|156:200|220:200|220:200|184:244|204:312,1,220,0|8,0:0|0:0,0:0:0:0:
272,368,103113,2,0,P|296:328|292:252,1,110,2|0,0:0|0:0,0:0:0:0:
392,256,103803,2,0,P|376:206|332:159,1,110,4|8,2:0|0:0,0:0:0:0:
244,132,104492,1,2,2:0:0:0:
244,132,104837,70,0,P|300:68|424:108,1,220,2|10,0:3|0:0,0:0:0:0:
412,200,105872,2,0,P|466:198|509:164,2,110,2|0|2,0:0|0:0|0:0,0:0:0:0:
316,180,106906,2,0,P|262:182|219:216,1,110,8|2,0:0|0:0,0:0:0:0:
201,319,107596,54,0,B|238:280|219:218|219:218|154:205|138:149,2,220,4|0|4,0:2|0:0|0:2,0:0:0:0:
292,360,109320,1,2,0:0:0:0:
328,268,109665,1,2,0:0:0:0:
308,172,110010,1,2,3:0:0:0:
224,128,110354,70,2,P|124:140|64:44,1,220,4|8,0:0|0:0,0:0:0:0:
164,48,111389,2,0,L|56:252,1,220,2|4,0:0|2:0,0:0:0:0:
128,316,112423,2,0,L|184:208,1,110,8|8,0:0|2:0,0:0:0:0:
228,132,113113,6,0,P|309:196|286:302,1,220,0|8,0:0|0:0,0:0:0:0:
388,328,114147,2,0,P|411:217|365:109,1,220,2|4,0:0|2:0,0:0:0:0:
296,60,115182,1,8,0:0:0:0:
200,44,115527,70,0,P|212:116|252:148,1,110,2|2,2:0|0:3,0:0:0:0:
144,192,116216,2,0,P|203:235|251:236,2,110,2|10|2,0:3|0:0|0:0,0:0:0:0:
100,100,117251,1,0,0:0:0:0:
100,0,117596,2,0,P|12:52|28:168,1,220,2|2,0:0|0:0,0:0:0:0:
100,224,118630,54,0,L|224:236,1,110,4|0,0:2|0:0,0:0:0:0:
188,136,119320,2,0,L|312:148,1,110,0|0,0:0|0:0,0:0:0:0:
276,48,120010,2,0,L|400:60,2,110,4|2|2,0:2|0:0|0:0,0:0:0:0:
276,48,121389,38,0,P|172:88|168:200,1,220,4|8,0:0|0:0,0:0:0:0:
72,232,122423,2,0,P|56:176|60:100,2,110,2|0|2,2:0|0:0|2:0,0:0:0:0:
124,316,123458,1,8,0:0:0:0:
224,324,123803,1,2,2:0:0:0:
312,276,124147,6,0,P|368:188|332:80,2,220,0|8|0,0:0|0:0|0:0,0:0:0:0:
384,348,125872,2,0,P|428:304|452:260,1,110,2|0,2:0|0:0,0:0:0:0:
460,164,126561,1,2,2:0:0:0:
424,72,126906,70,0,B|368:92|359:155|359:155|318:101|263:108,1,220,0|8,0:0|0:0,0:0:0:0:
276,208,127941,2,0,P|312:252|372:260,2,110,2|0|2,2:0|0:0|2:0,0:0:0:0:
268,108,128975,1,8,0:0:0:0:
184,56,129320,1,2,2:0:0:0:
92,92,129665,38,0,P|88:208|184:240,1,220,0|0,0:0|0:0,0:0:0:0:
256,192,130699,1,2,2:0:0:0:
340,242,131044,2,0,P|424:208|420:92,2,220,0|8|4,0:0|0:0|0:0,0:0:0:0:
160,164,133113,6,0,P|138:112|164:56,1,110,8|2,0:0|2:0,0:0:0:0:
68,28,133803,2,0,P|48:144|108:248,1,220,0|0,0:0|0:0,0:0:0:0:
180,276,134837,1,2,2:0:0:0:
280,276,135182,1,0,0:0:0:0:
356,92,135872,6,0,P|391:52|445:40,1,110,0|2,0:0|2:0,0:0:0:0:
444,140,136561,2,0,P|460:191|442:244,1,110,0|2,0:0|2:0,0:0:0:0:
360,188,137251,2,0,P|307:177|270:136,1,110,0|2,0:0|2:0,0:0:0:0:
259,34,137941,70,0,B|293:77|266:138|266:138|201:143|179:198,2,220,0|0|0,0:0|0:0|0:0,0:0:0:0:
356,12,139665,1,2,2:0:0:0:
372,108,140010,1,8,0:0:0:0:
344,204,140354,1,2,2:0:0:0:
272,272,140673,1,4,2:1:0:0:
256,192,140759,12,2,143432,2:0:0:0:
