osu file format v13

[General]
AudioFilename: Boncabe!.mp3
AudioLeadIn: 2500
PreviewTime: 55177
Countdown: 0
SampleSet: Normal
StackLeniency: 0.3
Mode: 1
LetterboxInBreaks: 0
WidescreenStoryboard: 0

[Editor]
Bookmarks: 11039,22078,33108,44142,55177,66216,77246,88285,99315,110354,121389,132423,140673
DistanceSpacing: 1
BeatDivisor: 8
GridSize: 4
TimelineZoom: 1.8

[Metadata]
Title:Bonfire
TitleUnicode:Bonfire
Artist:Knife Party
ArtistUnicode:Knife Party
Creator:inverness
Version:Collab Taiko Oni
Source:
Tags:dubstep rage valley -bakari- bci black_cherry_ita kyshiro kazukisinx -anhedonia- backfire inaba-tan
BeatmapID:434380
BeatmapSetID:73576

[Difficulty]
HPDrainRate:5
CircleSize:4
OverallDifficulty:5
ApproachRate:5
SliderMultiplier:2.8
SliderTickRate:1

[Events]
//Background and Video events
0,0,"actualbg.jpg",0,0
//Break Periods
//Storyboard Layer 0 (Background)
//Storyboard Layer 1 (Fail)
//Storyboard Layer 2 (Pass)
//Storyboard Layer 3 (Foreground)
Sprite,Foreground,Centre,"SB\b-backfire.png",135,430 F,0,10,699,0,1 C,0,52413,55172,255,255,255,255,138,138 C,0,74482,77241,255,138,138,255,255,255 F,0,77241,77586,1,0
Sprite,Foreground,Centre,"SB\b-kazu.png",135,430 F,0,77241,77586,0,1 C,0,96551,99310,255,255,255,255,138,138 C,0,118620,121379,255,138,138,255,255,255 F,0,143431,146190,1,0
//Storyboard Sound Samples
//Background Colour Transformations
3,100,163,162,255

[TimingPoints]
10,689.655172413793,4,1,0,70,1,0
33113,-200,4,1,0,70,0,0
38630,-133.333333333333,4,1,0,70,0,0
44147,-100,4,1,0,70,0,0
49665,-95.2380952380952,4,1,0,70,0,0
50354,-90.9090909090909,4,1,0,70,0,0
51044,-86.9565217391303,4,1,0,70,0,0
51734,-83.3333333333333,4,1,0,70,0,0
52423,-80,4,1,0,70,0,0
52510,-78.125,4,1,0,70,0,0
52596,-76.3358778625954,4,1,0,70,0,0
52682,-74.6268656716418,4,1,0,70,0,0
52768,-72.992700729927,4,1,0,70,0,0
52854,-71.4285714285714,4,1,0,70,0,0
52941,-69.9300699300699,4,1,0,70,0,0
53027,-68.4931506849315,4,1,0,70,0,0
53113,-67.1140939597315,4,1,0,70,0,0
53199,-65.7894736842105,4,1,0,70,0,0
53285,-64.5161290322581,4,1,0,70,0,0
53372,-63.2911392405063,4,1,0,70,0,0
53458,-62.111801242236,4,1,0,70,0,0
53544,-60.9756097560976,4,1,0,70,0,0
53630,-59.8802395209581,4,1,0,70,0,0
53716,-58.8235294117647,4,1,0,70,0,0
53803,-50,4,1,0,70,0,0
54837,-100,4,1,0,70,0,0
55182,-67.1140939597315,4,1,0,20,0,0
55268,-68.4931506849315,4,1,0,20,0,0
55354,-69.9300699300699,4,1,0,20,0,0
55441,-71.4285714285714,4,1,0,20,0,0
55527,-72.992700729927,4,1,0,20,0,0
55613,-74.6268656716418,4,1,0,20,0,0
55699,-76.3358778625954,4,1,0,20,0,0
55785,-78.125,4,1,0,20,0,0
55872,-80,4,1,0,70,0,1
66216,-67.1140939597315,4,1,0,20,0,1
66303,-68.4931506849315,4,1,0,20,0,1
66389,-69.9300699300699,4,1,0,20,0,1
66475,-71.4285714285714,4,1,0,20,0,1
66561,-72.992700729927,4,1,0,20,0,1
66647,-74.6268656716418,4,1,0,20,0,1
66734,-76.3358778625954,4,1,0,20,0,1
66820,-78.125,4,1,0,20,0,1
66906,-80,4,1,0,70,0,1
77251,-80,4,1,0,70,0,0
77423,-100,4,1,0,70,0,0
96561,-90.9090909090909,4,1,0,70,0,0
97078,-88.4955752212389,4,1,0,70,0,0
97165,-86.2068965517241,4,1,0,70,0,0
97251,-84.0336134453781,4,1,0,70,0,0
97337,-81.9672131147541,4,1,0,70,0,0
97423,-80,4,1,0,70,0,0
97510,-78.125,4,1,0,70,0,0
97596,-76.3358778625954,4,1,0,70,0,0
97682,-74.6268656716418,4,1,0,70,0,0
97768,-72.992700729927,4,1,0,70,0,0
97854,-71.4285714285714,4,1,0,70,0,0
97941,-69.9300699300699,4,1,0,70,0,0
98027,-68.4931506849315,4,1,0,70,0,0
98113,-67.1140939597315,4,1,0,70,0,0
98199,-66.6666666666667,4,1,0,70,0,0
98285,-66.6666666666667,4,1,0,70,0,0
98372,-66.6666666666667,4,1,0,70,0,0
98458,-66.6666666666667,4,1,0,70,0,0
98544,-66.6666666666667,4,1,0,70,0,0
98630,-62.5,4,1,0,70,0,0
99320,-67.1140939597315,4,1,0,20,0,1
99406,-68.4931506849315,4,1,0,20,0,1
99492,-69.9300699300699,4,1,0,20,0,1
99578,-71.4285714285714,4,1,0,20,0,1
99665,-72.992700729927,4,1,0,20,0,1
99751,-74.6268656716418,4,1,0,20,0,1
99837,-76.3358778625954,4,1,0,20,0,1
99923,-78.125,4,1,0,20,0,1
100010,-80,4,1,0,70,0,1
110354,-67.1140939597315,4,1,0,20,0,1
110441,-68.4931506849315,4,1,0,20,0,1
110527,-69.9300699300699,4,1,0,20,0,1
110613,-71.4285714285714,4,1,0,20,0,1
110699,-72.992700729927,4,1,0,20,0,1
110785,-74.6268656716418,4,1,0,20,0,1
110872,-76.3358778625954,4,1,0,20,0,1
110958,-78.125,4,1,0,20,0,1
111044,-80,4,1,0,70,0,1
121389,-80,4,1,0,70,0,0
121561,-100,4,1,0,70,0,0
140673,689.655172413793,4,1,1,70,1,0
140673,-100,4,1,0,70,0,0
141017,-100,4,1,0,70,0,0
141362,-100,4,1,0,70,0,0
141707,-100,4,1,0,70,0,0
142052,-100,4,1,0,70,0,0
142397,-100,4,1,0,70,0,0
142741,-100,4,1,0,70,0,0

[Colours]
Combo1 : 0,128,255
Combo2 : 255,0,0

[HitObjects]
264,180,10,5,4,0:0:0:0:
264,180,699,1,8,0:0:0:0:
264,180,1389,1,0,0:0:0:0:
264,180,1906,1,0,0:0:0:0:
264,180,2078,1,8,0:0:0:0:
112,200,2423,1,0,0:0:0:0:
256,232,2768,1,0,0:0:0:0:
256,232,3458,1,8,0:0:0:0:
256,232,4147,1,0,0:0:0:0:
172,132,4665,1,0,0:0:0:0:
256,232,4837,1,8,0:0:0:0:
224,256,5182,1,0,0:0:0:0:
224,256,5527,1,0,0:0:0:0:
256,232,6216,1,8,0:0:0:0:
224,256,6906,1,0,0:0:0:0:
256,232,7423,1,0,0:0:0:0:
256,232,7596,1,8,0:0:0:0:
224,256,8285,1,0,0:0:0:0:
256,232,8975,1,8,0:0:0:0:
224,256,9665,1,0,0:0:0:0:
252,204,10354,5,8,0:0:0:0:
252,204,10527,1,0,0:0:0:0:
252,204,10613,1,0,0:0:0:0:
252,204,10699,1,0,0:0:0:0:
252,204,10872,1,0,0:0:0:0:
252,204,11044,1,4,0:0:0:0:
252,204,11216,1,0,0:0:0:0:
252,204,11389,1,0,0:0:0:0:
252,204,11561,1,0,0:0:0:0:
252,204,11734,1,8,0:0:0:0:
252,204,11906,1,0,0:0:0:0:
252,204,11992,1,0,0:0:0:0:
252,204,12078,1,0,0:0:0:0:
252,204,12251,1,0,0:0:0:0:
252,204,12423,1,8,0:0:0:0:
252,204,12596,1,0,0:0:0:0:
304,184,12682,1,0,0:0:0:0:
304,184,12768,1,0,0:0:0:0:
200,152,12941,1,0,0:0:0:0:
200,152,13113,1,8,0:0:0:0:
200,152,13285,1,0,0:0:0:0:
200,152,13458,1,8,0:0:0:0:
200,152,13630,1,0,0:0:0:0:
200,152,13803,1,8,0:0:0:0:
200,152,13975,1,0,0:0:0:0:
200,152,14061,1,0,0:0:0:0:
200,152,14147,1,0,0:0:0:0:
200,152,14320,1,0,0:0:0:0:
180,184,14492,1,8,0:0:0:0:
180,184,14578,1,0,0:0:0:0:
180,184,14665,1,0,0:0:0:0:
200,152,14751,1,0,0:0:0:0:
200,152,14837,1,8,0:0:0:0:
200,152,15010,1,0,0:0:0:0:
200,152,15182,1,8,0:0:0:0:
200,152,15268,1,8,0:0:0:0:
200,152,15354,1,8,0:0:0:0:
200,152,15527,1,8,0:0:0:0:
200,152,15613,1,8,0:0:0:0:
200,152,15699,1,0,0:0:0:0:
200,152,15872,1,8,0:0:0:0:
180,184,15958,1,0,0:0:0:0:
180,184,16044,1,0,0:0:0:0:
180,184,16216,1,8,0:0:0:0:
200,152,16389,1,0,0:0:0:0:
200,152,16561,1,4,0:0:0:0:
200,152,16734,1,0,0:0:0:0:
200,152,16906,1,0,0:0:0:0:
200,152,17078,1,0,0:0:0:0:
200,152,17251,1,8,0:0:0:0:
200,152,17423,1,0,0:0:0:0:
72,208,17596,1,0,0:0:0:0:
172,252,17768,1,0,0:0:0:0:
172,252,17854,1,0,0:0:0:0:
172,252,17941,1,0,0:0:0:0:
184,192,18113,1,8,0:0:0:0:
184,192,18199,1,0,0:0:0:0:
184,192,18285,1,0,0:0:0:0:
184,192,18372,1,0,0:0:0:0:
184,192,18458,1,8,0:0:0:0:
184,192,18630,1,8,0:0:0:0:
200,152,18803,1,0,0:0:0:0:
200,152,18889,1,0,0:0:0:0:
200,152,18975,1,0,0:0:0:0:
184,192,19147,1,0,0:0:0:0:
184,192,19320,1,8,0:0:0:0:
184,192,19492,1,0,0:0:0:0:
184,192,19578,1,0,0:0:0:0:
200,152,19665,1,8,0:0:0:0:
200,152,19837,1,0,0:0:0:0:
184,192,20010,1,8,0:0:0:0:
184,192,20182,1,0,0:0:0:0:
200,152,20268,1,0,0:0:0:0:
200,152,20354,1,8,0:0:0:0:
184,192,20527,1,0,0:0:0:0:
184,192,20613,1,0,0:0:0:0:
184,192,20699,1,8,0:0:0:0:
104,228,21044,1,0,0:0:0:0:
104,228,21389,1,12,0:0:0:0:
104,228,21734,1,0,0:0:0:0:
104,228,22078,1,4,0:0:0:0:
240,160,22251,1,0,0:0:0:0:
240,160,22337,1,0,0:0:0:0:
232,196,22423,1,8,0:0:0:0:
180,168,22596,1,0,0:0:0:0:
232,196,22768,1,8,0:0:0:0:
232,196,22854,1,8,0:0:0:0:
180,168,22941,1,0,0:0:0:0:
240,160,23027,1,0,0:0:0:0:
240,160,23113,1,8,0:0:0:0:
180,168,23285,1,0,0:0:0:0:
180,168,23458,1,8,0:0:0:0:
180,168,23630,1,0,0:0:0:0:
180,168,23716,1,0,0:0:0:0:
180,168,23803,1,0,0:0:0:0:
180,168,23975,1,8,0:0:0:0:
180,168,24147,1,0,0:0:0:0:
180,168,24320,1,0,0:0:0:0:
240,160,24406,1,0,0:0:0:0:
240,160,24492,1,8,0:0:0:0:
208,144,24578,1,8,0:0:0:0:
208,144,24665,1,0,0:0:0:0:
208,144,24837,1,8,0:0:0:0:
208,144,25010,1,0,0:0:0:0:
120,220,25096,1,0,0:0:0:0:
120,220,25182,1,0,0:0:0:0:
136,176,25354,1,0,0:0:0:0:
136,176,25527,1,8,0:0:0:0:
136,176,25613,1,0,0:0:0:0:
136,176,25699,1,0,0:0:0:0:
136,176,25785,1,0,0:0:0:0:
180,168,25872,1,8,0:0:0:0:
136,176,26044,1,0,0:0:0:0:
136,176,26216,1,8,0:0:0:0:
136,176,26389,1,0,0:0:0:0:
136,176,26475,1,8,0:0:0:0:
136,176,26561,1,0,0:0:0:0:
136,176,26734,1,8,0:0:0:0:
136,176,26906,1,0,0:0:0:0:
136,176,26992,1,0,0:0:0:0:
136,176,27078,1,8,0:0:0:0:
136,176,27251,1,12,0:0:0:0:
180,168,27423,1,0,0:0:0:0:
136,176,27596,1,4,0:0:0:0:
136,176,27768,1,0,0:0:0:0:
168,120,27941,1,8,0:0:0:0:
168,120,28027,1,8,0:0:0:0:
168,120,28113,1,0,0:0:0:0:
168,120,28285,1,8,0:0:0:0:
216,148,28458,1,0,0:0:0:0:
216,148,28544,1,0,0:0:0:0:
216,148,28630,1,8,0:0:0:0:
216,148,28803,1,0,0:0:0:0:
216,148,28975,1,8,0:0:0:0:
216,148,29147,1,0,0:0:0:0:
216,148,29234,1,0,0:0:0:0:
216,148,29320,1,8,0:0:0:0:
216,148,29406,1,8,0:0:0:0:
216,148,29492,1,0,0:0:0:0:
216,148,29665,1,8,0:0:0:0:
216,148,29837,1,0,0:0:0:0:
216,148,29923,1,8,0:0:0:0:
216,148,30010,1,0,0:0:0:0:
216,148,30182,1,8,0:0:0:0:
216,148,30354,1,4,0:0:0:0:
216,148,30699,1,8,0:0:0:0:
216,148,31044,1,12,0:0:0:0:
216,148,31216,1,0,0:0:0:0:
216,148,31303,1,0,0:0:0:0:
216,148,31389,1,8,0:0:0:0:
216,148,31561,1,0,0:0:0:0:
24,204,31647,1,0,0:0:0:0:
24,204,31734,1,8,0:0:0:0:
72,184,32078,1,8,0:0:0:0:
256,192,32423,12,0,32941,0:0:0:0:
288,252,33113,5,4,0:0:0:0:
288,252,33458,1,8,0:0:0:0:
236,272,33803,1,0,0:0:0:0:
236,272,34147,1,8,0:0:0:0:
236,272,34492,1,0,0:0:0:0:
236,272,34837,1,8,0:0:0:0:
236,272,35010,1,8,0:0:0:0:
236,272,35354,1,4,0:0:0:0:
236,272,35699,1,8,0:0:0:0:
220,216,35872,1,4,0:0:0:0:
220,216,36216,1,8,0:0:0:0:
220,216,36561,1,0,0:0:0:0:
220,216,36906,1,8,0:0:0:0:
156,252,37251,1,0,0:0:0:0:
156,252,37596,1,8,0:0:0:0:
156,252,37768,1,8,0:0:0:0:
156,252,37941,1,0,0:0:0:0:
188,236,38113,1,0,0:0:0:0:
188,236,38285,1,8,0:0:0:0:
220,216,38458,1,0,0:0:0:0:
188,236,38630,1,4,0:0:0:0:
188,236,38975,1,8,0:0:0:0:
200,184,39320,1,0,0:0:0:0:
200,184,39665,1,8,0:0:0:0:
200,184,40010,1,0,0:0:0:0:
188,236,40354,1,8,0:0:0:0:
188,236,40527,1,8,0:0:0:0:
200,184,40872,1,4,0:0:0:0:
200,184,41216,1,8,0:0:0:0:
200,184,41389,1,4,0:0:0:0:
200,184,41734,1,8,0:0:0:0:
200,184,42078,1,0,0:0:0:0:
200,184,42423,1,8,0:0:0:0:
200,184,42768,1,0,0:0:0:0:
200,184,43113,1,8,0:0:0:0:
200,184,43285,1,8,0:0:0:0:
200,184,43458,1,0,0:0:0:0:
200,184,43630,1,0,0:0:0:0:
200,184,43803,1,8,0:0:0:0:
200,184,43975,1,0,0:0:0:0:
200,184,44147,1,4,0:0:0:0:
200,184,44492,1,12,0:0:0:0:
200,184,44837,1,4,0:0:0:0:
200,184,45010,1,4,0:0:0:0:
200,184,45182,1,12,0:0:0:0:
200,184,45354,1,12,0:0:0:0:
200,184,45527,1,4,0:0:0:0:
200,184,45872,1,12,0:0:0:0:
200,184,46044,1,4,0:0:0:0:
200,184,46389,1,4,0:0:0:0:
200,184,46561,1,12,0:0:0:0:
56,172,46734,1,12,0:0:0:0:
200,184,46906,1,4,0:0:0:0:
104,204,47251,1,12,0:0:0:0:
104,204,47596,1,4,0:0:0:0:
104,204,47768,1,4,0:0:0:0:
104,204,47941,1,12,0:0:0:0:
104,204,48113,1,12,0:0:0:0:
104,204,48285,1,4,0:0:0:0:
64,220,48630,1,12,0:0:0:0:
64,220,48803,1,4,0:0:0:0:
140,120,48975,1,4,0:0:0:0:
104,204,49147,1,12,0:0:0:0:
140,120,49320,1,4,0:0:0:0:
140,120,49492,1,12,0:0:0:0:
140,120,49665,1,4,0:0:0:0:
140,120,49837,1,0,0:0:0:0:
140,120,49923,1,0,0:0:0:0:
140,120,50010,1,8,0:0:0:0:
140,120,50182,1,8,0:0:0:0:
140,120,50354,1,4,0:0:0:0:
140,120,50527,1,0,0:0:0:0:
140,120,50613,1,0,0:0:0:0:
140,120,50699,1,8,0:0:0:0:
140,120,50872,1,8,0:0:0:0:
144,180,51044,1,4,0:0:0:0:
144,180,51216,1,0,0:0:0:0:
144,180,51303,1,0,0:0:0:0:
144,180,51389,1,8,0:0:0:0:
144,180,51561,1,8,0:0:0:0:
144,180,51734,1,4,0:0:0:0:
144,180,51906,1,0,0:0:0:0:
144,180,51992,1,0,0:0:0:0:
144,180,52078,1,8,0:0:0:0:
144,180,52251,1,8,0:0:0:0:
208,232,52423,5,0,0:0:0:0:
208,232,52510,1,0,0:0:0:0:
208,232,52596,1,0,0:0:0:0:
208,232,52682,1,0,0:0:0:0:
208,232,52768,1,8,0:0:0:0:
208,232,52854,1,0,0:0:0:0:
208,232,52941,1,0,0:0:0:0:
208,232,53027,1,0,0:0:0:0:
208,232,53113,1,0,0:0:0:0:
208,232,53199,1,0,0:0:0:0:
208,232,53285,1,0,0:0:0:0:
208,232,53372,1,0,0:0:0:0:
208,232,53458,1,8,0:0:0:0:
208,192,53544,1,0,0:0:0:0:
208,192,53630,1,0,0:0:0:0:
208,192,53716,1,0,0:0:0:0:
256,192,53803,12,0,54665,0:0:0:0:
140,252,54837,5,12,0:0:0:0:
200,140,55182,1,0,0:0:0:0:
200,140,55268,1,0,0:0:0:0:
200,140,55354,1,0,0:0:0:0:
200,140,55441,1,0,0:0:0:0:
200,140,55527,1,0,0:0:0:0:
200,140,55613,1,0,0:0:0:0:
200,140,55699,1,0,0:0:0:0:
200,140,55785,1,0,0:0:0:0:
200,140,55872,1,12,0:0:0:0:
320,188,56044,1,0,0:0:0:0:
264,204,56216,1,8,0:0:0:0:
264,204,56389,1,0,0:0:0:0:
264,204,56561,1,4,0:0:0:0:
264,204,56734,1,0,0:0:0:0:
264,204,56820,1,0,0:0:0:0:
264,204,56906,1,8,0:0:0:0:
320,188,57078,1,0,0:0:0:0:
320,188,57251,1,8,0:0:0:0:
320,188,57337,1,0,0:0:0:0:
320,188,57423,1,0,0:0:0:0:
320,188,57510,1,0,0:0:0:0:
320,188,57596,1,8,0:0:0:0:
320,188,57768,1,0,0:0:0:0:
320,188,57941,1,8,0:0:0:0:
264,204,58027,1,8,0:0:0:0:
264,204,58113,1,0,0:0:0:0:
264,204,58199,1,0,0:0:0:0:
264,204,58285,1,8,0:0:0:0:
264,204,58372,1,8,0:0:0:0:
264,204,58458,1,0,0:0:0:0:
264,204,58630,1,12,0:0:0:0:
264,204,58803,1,0,0:0:0:0:
264,204,58889,1,0,0:0:0:0:
264,204,58975,1,8,0:0:0:0:
320,188,59147,1,8,0:0:0:0:
320,188,59320,1,0,0:0:0:0:
320,188,59492,1,8,0:0:0:0:
320,188,59578,1,8,0:0:0:0:
320,188,59665,1,0,0:0:0:0:
320,188,59837,1,0,0:0:0:0:
320,188,60010,1,8,0:0:0:0:
320,188,60182,1,0,0:0:0:0:
320,188,60268,1,0,0:0:0:0:
320,188,60354,1,8,0:0:0:0:
320,188,60441,1,0,0:0:0:0:
320,188,60527,1,0,0:0:0:0:
348,184,60699,1,8,0:0:0:0:
368,136,60785,1,8,0:0:0:0:
368,136,60872,1,0,0:0:0:0:
368,136,60958,1,0,0:0:0:0:
368,136,61044,1,8,0:0:0:0:
368,136,61130,1,8,0:0:0:0:
368,136,61216,1,0,0:0:0:0:
368,136,61303,1,0,0:0:0:0:
368,136,61389,1,12,0:0:0:0:
368,136,61561,1,8,0:0:0:0:
368,136,61734,1,0,0:0:0:0:
184,200,61906,1,8,0:0:0:0:
184,200,61992,1,8,0:0:0:0:
184,200,62078,1,0,0:0:0:0:
184,200,62251,1,8,0:0:0:0:
184,200,62423,1,8,0:0:0:0:
184,200,62596,1,4,0:0:0:0:
224,200,62768,1,0,0:0:0:0:
216,140,63113,1,4,0:0:0:0:
172,160,63458,1,12,0:0:0:0:
172,160,63630,1,0,0:0:0:0:
172,160,63716,1,0,0:0:0:0:
172,160,63803,1,8,0:0:0:0:
172,160,63889,1,0,0:0:0:0:
144,128,63975,1,0,0:0:0:0:
172,160,64147,1,8,0:0:0:0:
224,236,64320,1,0,0:0:0:0:
224,236,64406,1,8,0:0:0:0:
224,236,64492,1,0,0:0:0:0:
224,236,64578,1,0,0:0:0:0:
224,236,64665,1,8,0:0:0:0:
180,204,64837,1,8,0:0:0:0:
224,236,65010,1,0,0:0:0:0:
224,236,65096,1,0,0:0:0:0:
224,236,65182,1,8,0:0:0:0:
224,236,65354,1,8,0:0:0:0:
224,236,65527,1,8,0:0:0:0:
224,236,65699,1,0,0:0:0:0:
224,236,65785,1,0,0:0:0:0:
224,236,65872,1,8,0:0:0:0:
244,208,65958,1,0,0:0:0:0:
244,208,66044,1,8,0:0:0:0:
140,176,66216,1,0,0:0:0:0:
140,176,66303,1,0,0:0:0:0:
140,176,66389,1,0,0:0:0:0:
164,156,66475,1,0,0:0:0:0:
140,176,66561,1,0,0:0:0:0:
140,176,66647,1,0,0:0:0:0:
140,176,66734,1,0,0:0:0:0:
164,156,66820,1,0,0:0:0:0:
164,156,66906,1,12,0:0:0:0:
244,208,67078,1,0,0:0:0:0:
244,208,67251,1,0,0:0:0:0:
244,208,67337,1,0,0:0:0:0:
244,208,67423,1,8,0:0:0:0:
244,208,67596,1,0,0:0:0:0:
264,204,67768,1,8,0:0:0:0:
244,208,67854,1,8,0:0:0:0:
244,208,67941,1,0,0:0:0:0:
244,208,68113,1,8,0:0:0:0:
244,208,68285,1,0,0:0:0:0:
244,208,68372,1,0,0:0:0:0:
244,208,68458,1,8,0:0:0:0:
244,208,68544,1,8,0:0:0:0:
244,208,68630,1,0,0:0:0:0:
244,208,68803,1,8,0:0:0:0:
256,256,68975,1,0,0:0:0:0:
256,256,69061,1,0,0:0:0:0:
256,256,69147,1,8,0:0:0:0:
256,256,69234,1,0,0:0:0:0:
256,256,69320,1,8,0:0:0:0:
228,176,69492,1,8,0:0:0:0:
228,176,69665,1,4,0:0:0:0:
228,176,69837,1,8,0:0:0:0:
228,176,69923,1,8,0:0:0:0:
228,176,70010,1,0,0:0:0:0:
228,176,70182,1,0,0:0:0:0:
132,200,70354,1,8,0:0:0:0:
132,200,70527,1,0,0:0:0:0:
92,192,70699,1,8,0:0:0:0:
92,192,70872,1,8,0:0:0:0:
92,192,71044,1,0,0:0:0:0:
92,192,71216,1,8,0:0:0:0:
92,192,71303,1,0,0:0:0:0:
92,192,71389,1,8,0:0:0:0:
92,192,71475,1,0,0:0:0:0:
92,192,71561,1,0,0:0:0:0:
164,180,71647,1,8,0:0:0:0:
164,180,71734,1,0,0:0:0:0:
92,192,71820,1,0,0:0:0:0:
228,176,71906,1,8,0:0:0:0:
228,176,71992,1,8,0:0:0:0:
228,176,72078,1,0,0:0:0:0:
228,176,72165,1,0,0:0:0:0:
228,176,72251,1,8,0:0:0:0:
228,176,72423,1,4,0:0:0:0:
164,180,72596,1,0,0:0:0:0:
200,200,72682,1,0,0:0:0:0:
200,200,72768,1,8,0:0:0:0:
200,200,72941,1,8,0:0:0:0:
164,180,73113,1,0,0:0:0:0:
228,176,73285,1,8,0:0:0:0:
228,176,73372,1,8,0:0:0:0:
228,176,73458,1,0,0:0:0:0:
228,176,73630,1,0,0:0:0:0:
228,176,73716,1,8,0:0:0:0:
228,176,73803,1,8,0:0:0:0:
228,176,73889,1,0,0:0:0:0:
228,176,73975,1,8,0:0:0:0:
200,200,74061,1,8,0:0:0:0:
228,176,74147,1,0,0:0:0:0:
200,200,74234,1,8,0:0:0:0:
200,200,74320,1,0,0:0:0:0:
164,180,74492,1,8,0:0:0:0:
164,180,74665,1,0,0:0:0:0:
164,180,74751,1,8,0:0:0:0:
164,180,74837,1,0,0:0:0:0:
164,180,74923,1,0,0:0:0:0:
164,180,75010,1,8,0:0:0:0:
164,180,75182,1,8,0:0:0:0:
164,180,75354,1,0,0:0:0:0:
200,200,75441,1,0,0:0:0:0:
200,200,75527,1,8,0:0:0:0:
200,156,75613,1,0,0:0:0:0:
200,156,75699,1,8,0:0:0:0:
200,156,75872,1,8,0:0:0:0:
200,156,75958,1,0,0:0:0:0:
200,156,76044,1,8,0:0:0:0:
200,156,76130,1,8,0:0:0:0:
200,156,76216,1,0,0:0:0:0:
200,200,76303,1,0,0:0:0:0:
200,156,76389,1,8,0:0:0:0:
200,156,76561,1,0,0:0:0:0:
200,156,76734,1,8,0:0:0:0:
164,180,76820,1,0,0:0:0:0:
164,180,76906,1,0,0:0:0:0:
164,180,77078,1,8,0:0:0:0:
164,180,77251,1,4,0:0:0:0:
200,156,77596,1,8,0:0:0:0:
200,156,77941,1,0,0:0:0:0:
200,156,78113,1,8,0:0:0:0:
200,156,78199,1,0,0:0:0:0:
200,156,78285,1,0,0:0:0:0:
164,180,78458,1,8,0:0:0:0:
164,180,78630,1,0,0:0:0:0:
200,156,78975,1,0,0:0:0:0:
200,156,79320,1,8,0:0:0:0:
200,156,79665,1,0,0:0:0:0:
200,156,79837,1,8,0:0:0:0:
200,156,80010,1,0,0:0:0:0:
200,156,80354,1,8,0:0:0:0:
240,192,80699,1,0,0:0:0:0:
200,156,80872,1,0,0:0:0:0:
200,156,80958,1,0,0:0:0:0:
200,156,81044,1,8,0:0:0:0:
240,192,81216,1,0,0:0:0:0:
200,156,81389,1,0,0:0:0:0:
200,156,81734,1,8,0:0:0:0:
240,192,82078,1,0,0:0:0:0:
240,192,82165,1,0,0:0:0:0:
64,176,82251,1,0,0:0:0:0:
240,192,82423,1,8,0:0:0:0:
240,192,82596,1,8,0:0:0:0:
88,156,82768,1,0,0:0:0:0:
240,192,83113,1,0,0:0:0:0:
120,172,83458,1,0,0:0:0:0:
240,192,83630,1,8,0:0:0:0:
120,172,83716,1,0,0:0:0:0:
120,172,83803,1,0,0:0:0:0:
120,172,83975,1,0,0:0:0:0:
120,172,84147,1,0,0:0:0:0:
240,192,84320,1,0,0:0:0:0:
240,192,84492,1,8,0:0:0:0:
240,192,84665,1,0,0:0:0:0:
120,172,84837,1,0,0:0:0:0:
240,192,84923,1,0,0:0:0:0:
120,172,85010,1,0,0:0:0:0:
240,192,85182,1,8,0:0:0:0:
120,172,85527,1,0,0:0:0:0:
120,172,85872,1,0,0:0:0:0:
240,192,86216,1,8,0:0:0:0:
120,172,86389,1,0,0:0:0:0:
240,192,86561,1,8,0:0:0:0:
120,172,86734,1,0,0:0:0:0:
120,172,86906,1,0,0:0:0:0:
240,192,87251,1,8,0:0:0:0:
120,172,87596,1,0,0:0:0:0:
240,192,87941,1,8,0:0:0:0:
240,192,88113,1,8,0:0:0:0:
120,172,88285,1,0,0:0:0:0:
120,172,88458,1,0,0:0:0:0:
120,172,88544,1,0,0:0:0:0:
52,172,88630,1,0,0:0:0:0:
52,172,88803,1,0,0:0:0:0:
240,192,88975,1,8,0:0:0:0:
52,172,89147,1,0,0:0:0:0:
52,172,89234,1,0,0:0:0:0:
52,172,89320,1,0,0:0:0:0:
68,136,89492,1,0,0:0:0:0:
68,136,89578,1,0,0:0:0:0:
240,192,89665,1,8,0:0:0:0:
68,136,89837,1,0,0:0:0:0:
240,192,90010,1,8,0:0:0:0:
240,192,90096,1,8,0:0:0:0:
68,136,90182,1,0,0:0:0:0:
68,136,90354,1,0,0:0:0:0:
240,192,90527,1,8,0:0:0:0:
68,136,90613,1,0,0:0:0:0:
240,192,90699,1,8,0:0:0:0:
68,136,90785,1,0,0:0:0:0:
68,136,90872,1,0,0:0:0:0:
68,136,91044,1,0,0:0:0:0:
240,192,91216,1,8,0:0:0:0:
68,136,91303,1,0,0:0:0:0:
68,136,91389,1,0,0:0:0:0:
240,192,91561,1,0,0:0:0:0:
240,192,91734,1,8,0:0:0:0:
240,192,91906,1,0,0:0:0:0:
240,192,91992,1,8,0:0:0:0:
240,192,92078,1,0,0:0:0:0:
240,192,92165,1,0,0:0:0:0:
240,192,92251,1,8,0:0:0:0:
240,192,92423,1,0,0:0:0:0:
240,192,92596,1,0,0:0:0:0:
240,192,92682,1,0,0:0:0:0:
240,192,92768,1,0,0:0:0:0:
240,192,92941,1,8,0:0:0:0:
240,192,93113,1,8,0:0:0:0:
240,192,93199,1,0,0:0:0:0:
240,192,93285,1,8,0:0:0:0:
240,192,93458,1,0,0:0:0:0:
240,192,93544,1,8,0:0:0:0:
240,192,93630,1,8,0:0:0:0:
240,192,93716,1,8,0:0:0:0:
240,192,93803,1,0,0:0:0:0:
240,192,93975,1,8,0:0:0:0:
240,192,94147,1,0,0:0:0:0:
240,192,94320,1,0,0:0:0:0:
240,192,94406,1,0,0:0:0:0:
240,192,94492,1,8,0:0:0:0:
240,192,94665,1,0,0:0:0:0:
240,192,94751,1,8,0:0:0:0:
240,192,94837,1,0,0:0:0:0:
240,192,94923,1,0,0:0:0:0:
240,192,95010,1,0,0:0:0:0:
240,192,95182,1,0,0:0:0:0:
240,192,95354,1,8,0:0:0:0:
240,192,95441,1,8,0:0:0:0:
240,192,95527,1,0,0:0:0:0:
240,192,95699,1,8,0:0:0:0:
240,192,95872,1,0,0:0:0:0:
240,192,95958,1,0,0:0:0:0:
240,192,96044,1,0,0:0:0:0:
240,192,96216,1,8,0:0:0:0:
240,192,96389,1,8,0:0:0:0:
176,236,96561,5,4,0:0:0:0:
176,236,96734,1,0,0:0:0:0:
176,236,96820,1,0,0:0:0:0:
176,236,96906,1,8,0:0:0:0:
176,236,97078,1,0,0:0:0:0:
140,236,97165,1,0,0:0:0:0:
176,236,97251,1,8,0:0:0:0:
176,236,97337,1,0,0:0:0:0:
176,236,97423,1,0,0:0:0:0:
176,236,97510,1,0,0:0:0:0:
176,236,97596,1,0,0:0:0:0:
176,236,97682,1,0,0:0:0:0:
176,236,97768,1,8,0:0:0:0:
176,236,97854,1,0,0:0:0:0:
176,236,97941,1,0,0:0:0:0:
136,196,98027,1,0,0:0:0:0:
176,236,98113,1,0,0:0:0:0:
176,236,98199,1,0,0:0:0:0:
176,236,98285,1,8,0:0:0:0:
136,196,98372,1,0,0:0:0:0:
276,216,98458,1,0,0:0:0:0:
276,216,98544,1,0,0:0:0:0:
256,192,98630,12,0,99147,0:0:0:0:
144,220,99320,5,0,0:0:0:0:
244,168,99406,1,0,0:0:0:0:
232,200,99492,1,0,0:0:0:0:
232,200,99578,1,0,0:0:0:0:
232,200,99665,1,0,0:0:0:0:
244,168,99751,1,0,0:0:0:0:
232,200,99837,1,0,0:0:0:0:
244,168,99923,1,0,0:0:0:0:
232,200,100010,1,12,0:0:0:0:
328,96,100182,1,8,0:0:0:0:
412,196,100354,1,8,0:0:0:0:
264,292,100527,1,8,0:0:0:0:
124,132,100699,1,0,0:0:0:0:
124,132,100785,1,0,0:0:0:0:
124,132,100872,1,8,0:0:0:0:
212,92,101044,1,0,0:0:0:0:
248,96,101130,1,0,0:0:0:0:
248,96,101216,1,0,0:0:0:0:
336,172,101389,1,8,0:0:0:0:
324,208,101475,1,8,0:0:0:0:
320,248,101561,1,0,0:0:0:0:
352,272,101647,1,0,0:0:0:0:
392,280,101734,1,8,0:0:0:0:
412,196,101906,1,0,0:0:0:0:
456,48,102078,1,8,0:0:0:0:
404,80,102165,1,8,0:0:0:0:
360,108,102251,1,8,0:0:0:0:
312,136,102337,1,0,0:0:0:0:
272,160,102423,1,0,0:0:0:0:
180,224,102596,1,0,0:0:0:0:
72,288,102768,1,8,0:0:0:0:
120,72,102941,1,8,0:0:0:0:
172,292,103113,1,8,0:0:0:0:
212,176,103285,1,8,0:0:0:0:
308,176,103372,1,8,0:0:0:0:
260,84,103458,1,0,0:0:0:0:
360,240,103630,1,0,0:0:0:0:
360,240,103716,1,0,0:0:0:0:
360,240,103803,1,0,0:0:0:0:
296,256,103975,1,8,0:0:0:0:
296,256,104147,1,0,0:0:0:0:
108,200,104492,1,8,0:0:0:0:
108,200,104578,1,8,0:0:0:0:
108,200,104665,1,0,0:0:0:0:
108,200,104751,1,0,0:0:0:0:
108,200,104837,1,0,0:0:0:0:
108,200,105010,1,0,0:0:0:0:
108,200,105182,1,0,0:0:0:0:
108,200,105354,1,0,0:0:0:0:
144,104,105527,1,8,0:0:0:0:
160,132,105613,1,8,0:0:0:0:
160,132,105699,1,8,0:0:0:0:
160,132,105872,1,8,0:0:0:0:
160,132,106044,1,0,0:0:0:0:
160,132,106130,1,0,0:0:0:0:
160,132,106216,1,8,0:0:0:0:
188,152,106389,1,0,0:0:0:0:
188,152,106561,1,0,0:0:0:0:
188,152,106647,1,0,0:0:0:0:
188,152,106734,1,0,0:0:0:0:
240,124,106906,1,8,0:0:0:0:
240,124,106992,1,8,0:0:0:0:
240,124,107078,1,0,0:0:0:0:
240,124,107165,1,0,0:0:0:0:
240,124,107251,1,8,0:0:0:0:
240,124,107423,1,0,0:0:0:0:
240,124,107596,1,12,0:0:0:0:
240,124,107768,1,0,0:0:0:0:
240,124,107854,1,0,0:0:0:0:
240,124,107941,1,0,0:0:0:0:
240,124,108113,1,0,0:0:0:0:
240,124,108285,1,8,0:0:0:0:
240,124,108372,1,0,0:0:0:0:
240,124,108458,1,0,0:0:0:0:
240,124,108544,1,8,0:0:0:0:
240,124,108630,1,0,0:0:0:0:
240,124,108803,1,0,0:0:0:0:
240,124,108975,1,0,0:0:0:0:
240,124,109061,1,8,0:0:0:0:
240,124,109147,1,0,0:0:0:0:
240,124,109320,1,8,0:0:0:0:
240,124,109492,1,8,0:0:0:0:
240,124,109578,1,0,0:0:0:0:
240,124,109665,1,0,0:0:0:0:
240,124,109837,1,0,0:0:0:0:
240,124,110010,1,8,0:0:0:0:
240,124,110096,1,8,0:0:0:0:
240,124,110182,1,0,0:0:0:0:
229,226,110354,5,0,0:0:0:0:
229,226,110441,1,0,0:0:0:0:
229,226,110527,1,0,0:0:0:0:
229,226,110613,1,0,0:0:0:0:
229,226,110699,1,0,0:0:0:0:
229,226,110785,1,0,0:0:0:0:
229,226,110872,1,0,0:0:0:0:
229,226,110958,1,0,0:0:0:0:
256,193,111044,5,12,0:0:0:0:
256,193,111216,1,8,0:0:0:0:
256,193,111389,1,8,0:0:0:0:
256,193,111561,1,8,0:0:0:0:
256,193,111734,1,0,0:0:0:0:
256,193,111820,1,0,0:0:0:0:
256,193,111906,1,0,0:0:0:0:
256,193,112078,1,8,0:0:0:0:
256,193,112165,1,0,0:0:0:0:
256,193,112251,1,0,0:0:0:0:
256,193,112423,1,8,0:0:0:0:
256,193,112596,1,0,0:0:0:0:
256,193,112768,1,8,0:0:0:0:
256,193,112941,1,0,0:0:0:0:
256,193,113113,1,0,0:0:0:0:
256,193,113199,1,0,0:0:0:0:
256,193,113285,1,8,0:0:0:0:
256,193,113372,1,8,0:0:0:0:
256,193,113458,1,8,0:0:0:0:
256,193,113544,1,8,0:0:0:0:
256,193,113630,1,0,0:0:0:0:
256,193,113803,1,8,0:0:0:0:
256,193,113975,1,8,0:0:0:0:
256,193,114147,1,0,0:0:0:0:
256,193,114320,1,8,0:0:0:0:
256,193,114492,1,4,0:0:0:0:
256,193,114837,1,12,0:0:0:0:
256,193,115182,1,4,0:0:0:0:
256,193,115527,1,8,0:0:0:0:
256,193,115613,1,8,0:0:0:0:
256,193,115699,1,0,0:0:0:0:
256,193,115785,1,0,0:0:0:0:
256,193,115872,1,0,0:0:0:0:
256,193,116044,1,0,0:0:0:0:
256,193,116216,1,0,0:0:0:0:
256,193,116389,1,0,0:0:0:0:
256,193,116561,1,8,0:0:0:0:
256,193,116734,1,8,0:0:0:0:
256,193,116906,1,8,0:0:0:0:
256,193,117078,1,8,0:0:0:0:
256,193,117251,1,8,0:0:0:0:
256,193,117337,1,8,0:0:0:0:
256,193,117423,1,0,0:0:0:0:
256,193,117596,1,0,0:0:0:0:
256,193,117768,1,0,0:0:0:0:
256,193,117941,1,4,0:0:0:0:
256,193,118285,1,12,0:0:0:0:
256,193,118630,1,12,0:0:0:0:
256,193,118803,1,0,0:0:0:0:
256,193,118889,1,0,0:0:0:0:
256,193,118975,1,0,0:0:0:0:
256,193,119147,1,0,0:0:0:0:
256,193,119320,1,8,0:0:0:0:
256,193,119406,1,0,0:0:0:0:
256,193,119492,1,8,0:0:0:0:
256,193,119578,1,0,0:0:0:0:
256,193,119665,1,0,0:0:0:0:
256,193,119837,1,0,0:0:0:0:
256,193,120010,1,8,0:0:0:0:
256,193,120096,1,0,0:0:0:0:
256,193,120182,1,0,0:0:0:0:
256,193,120268,1,0,0:0:0:0:
256,193,120354,1,8,0:0:0:0:
256,193,120441,1,8,0:0:0:0:
256,193,120527,1,0,0:0:0:0:
256,193,120699,1,0,0:0:0:0:
256,193,120872,1,0,0:0:0:0:
256,193,120958,1,0,0:0:0:0:
256,193,121044,1,8,0:0:0:0:
256,193,121216,1,8,0:0:0:0:
256,193,121389,1,4,0:0:0:0:
256,193,121734,1,8,0:0:0:0:
256,193,122078,1,0,0:0:0:0:
256,193,122423,1,8,0:0:0:0:
256,193,122596,1,8,0:0:0:0:
256,193,122768,1,0,0:0:0:0:
256,193,123113,1,0,0:0:0:0:
256,193,123458,1,8,0:0:0:0:
256,193,123803,1,8,0:0:0:0:
256,193,123975,1,8,0:0:0:0:
256,193,124061,1,8,0:0:0:0:
256,193,124147,1,0,0:0:0:0:
256,193,124320,1,0,0:0:0:0:
256,193,124492,1,0,0:0:0:0:
256,193,124837,1,8,0:0:0:0:
256,193,125010,1,0,0:0:0:0:
256,193,125182,1,0,0:0:0:0:
256,193,125268,1,0,0:0:0:0:
256,193,125354,1,0,0:0:0:0:
256,193,125527,1,8,0:0:0:0:
256,193,125872,1,8,0:0:0:0:
256,193,126216,1,8,0:0:0:0:
256,193,126303,1,8,0:0:0:0:
256,193,126389,1,0,0:0:0:0:
256,193,126561,1,0,0:0:0:0:
256,193,126647,1,0,0:0:0:0:
256,193,126734,1,8,0:0:0:0:
256,193,126820,1,8,0:0:0:0:
256,193,126906,1,0,0:0:0:0:
256,193,127078,1,0,0:0:0:0:
256,193,127251,1,0,0:0:0:0:
256,193,127423,1,0,0:0:0:0:
256,193,127596,1,8,0:0:0:0:
256,193,127682,1,8,0:0:0:0:
256,193,127768,1,0,0:0:0:0:
256,193,127941,1,0,0:0:0:0:
256,193,128113,1,0,0:0:0:0:
256,193,128285,1,0,0:0:0:0:
256,193,128372,1,0,0:0:0:0:
256,193,128458,1,0,0:0:0:0:
256,193,128630,1,0,0:0:0:0:
256,193,128803,1,8,0:0:0:0:
256,193,128975,1,8,0:0:0:0:
256,193,129061,1,0,0:0:0:0:
256,193,129147,1,0,0:0:0:0:
256,193,129320,1,8,0:0:0:0:
256,193,129492,1,8,0:0:0:0:
256,193,129578,1,8,0:0:0:0:
256,193,129665,1,0,0:0:0:0:
256,193,130010,1,0,0:0:0:0:
256,193,130354,1,12,0:0:0:0:
256,193,130527,1,0,0:0:0:0:
256,193,130699,1,8,0:0:0:0:
256,193,130872,1,0,0:0:0:0:
256,193,131044,1,8,0:0:0:0:
256,193,131130,1,0,0:0:0:0:
256,193,131216,1,0,0:0:0:0:
256,193,131389,1,0,0:0:0:0:
256,193,131561,1,0,0:0:0:0:
256,193,131647,1,0,0:0:0:0:
256,193,131734,1,0,0:0:0:0:
256,193,131906,1,0,0:0:0:0:
256,193,132078,1,8,0:0:0:0:
256,193,132165,1,8,0:0:0:0:
256,193,132251,1,0,0:0:0:0:
256,193,132423,1,12,0:0:0:0:
256,193,132768,1,0,0:0:0:0:
256,193,133113,1,8,0:0:0:0:
256,193,133285,1,0,0:0:0:0:
256,193,133372,1,0,0:0:0:0:
256,193,133458,1,0,0:0:0:0:
256,193,133630,1,8,0:0:0:0:
256,193,133803,1,0,0:0:0:0:
256,193,133889,1,8,0:0:0:0:
256,193,133975,1,0,0:0:0:0:
256,193,134147,1,8,0:0:0:0:
256,193,134234,1,0,0:0:0:0:
256,193,134320,1,0,0:0:0:0:
256,193,134492,1,0,0:0:0:0:
256,193,134665,1,8,0:0:0:0:
256,193,134837,1,8,0:0:0:0:
256,193,134923,1,8,0:0:0:0:
256,193,135010,1,0,0:0:0:0:
256,193,135096,1,8,0:0:0:0:
256,193,135182,1,0,0:0:0:0:
256,193,135354,1,0,0:0:0:0:
256,193,135527,1,0,0:0:0:0:
256,193,135613,1,0,0:0:0:0:
256,193,135699,1,0,0:0:0:0:
256,193,135872,1,8,0:0:0:0:
256,193,135958,1,8,0:0:0:0:
256,193,136044,1,0,0:0:0:0:
256,193,136130,1,0,0:0:0:0:
256,193,136216,1,8,0:0:0:0:
256,193,136389,1,8,0:0:0:0:
256,193,136561,1,8,0:0:0:0:
256,193,136647,1,8,0:0:0:0:
256,193,136734,1,0,0:0:0:0:
256,193,136906,1,0,0:0:0:0:
256,193,137078,1,8,0:0:0:0:
256,193,137165,1,8,0:0:0:0:
256,193,137251,1,0,0:0:0:0:
256,193,137423,1,0,0:0:0:0:
256,193,137596,1,4,0:0:0:0:
256,193,137941,1,12,0:0:0:0:
256,193,138113,1,0,0:0:0:0:
256,193,138199,1,0,0:0:0:0:
256,193,138285,1,0,0:0:0:0:
256,193,138458,1,0,0:0:0:0:
256,193,138630,1,8,0:0:0:0:
256,193,138716,1,8,0:0:0:0:
256,193,138803,1,0,0:0:0:0:
256,193,138889,1,0,0:0:0:0:
256,193,138975,1,0,0:0:0:0:
256,193,139147,1,0,0:0:0:0:
256,193,139320,1,8,0:0:0:0:
256,193,139406,1,8,0:0:0:0:
256,193,139492,1,0,0:0:0:0:
256,193,139578,1,0,0:0:0:0:
256,193,139665,1,8,0:0:0:0:
256,193,139837,1,8,0:0:0:0:
256,193,140010,1,0,0:0:0:0:
256,193,140096,1,0,0:0:0:0:
256,193,140182,1,0,0:0:0:0:
256,193,140354,1,8,0:0:0:0:
256,193,140441,1,0,0:0:0:0:
256,193,140527,1,0,0:0:0:0:
256,193,140673,1,12,0:0:0:0:
256,193,141362,1,12,0:0:0:0:
256,193,141534,1,12,0:0:0:0:
256,193,141707,1,12,0:0:0:0:
256,193,141879,1,12,0:0:0:0:
256,193,142051,1,4,0:0:0:0:
256,193,142396,1,12,0:0:0:0:
216,148,142741,5,0,0:0:0:0:
128,148,142914,1,8,0:0:0:0:
120,188,143000,1,0,0:0:0:0:
128,148,143086,1,0,0:0:0:0:
128,148,143258,1,8,0:0:0:0:
256,192,143431,12,0,148948,0:0:0:0:
