osu file format v13

[General]
AudioFilename: Knife-Party-Bonfire-Original-Mix.mp3
AudioLeadIn: 3000
PreviewTime: 52758
Countdown: 0
SampleSet: Soft
StackLeniency: 0.7
Mode: 0
LetterboxInBreaks: 1
WidescreenStoryboard: 0

[Editor]
Bookmarks: 262068
DistanceSpacing: 1
BeatDivisor: 8
GridSize: 4
TimelineZoom: 1

[Metadata]
Title:Bonfire
TitleUnicode:Bonfire
Artist:Knife Party
ArtistUnicode:Knife Party
Creator:Zexous
Version:Ember
Source:
Tags:
BeatmapID:432785
BeatmapSetID:179601

[Difficulty]
HPDrainRate:5
CircleSize:4
OverallDifficulty:6
ApproachRate:7
SliderMultiplier:2.99999990463257
SliderTickRate:1

[Events]
//Background and Video events
0,0,"bonfire.jpg",0,0
//Break Periods
2,33302,43237
//Storyboard Layer 0 (Background)
//Storyboard Layer 1 (Fail)
//Storyboard Layer 2 (Pass)
//Storyboard Layer 3 (Foreground)
//Storyboard Sound Samples
//Background Colour Transformations
3,100,163,162,255

[TimingPoints]
0,689.655172413793,4,2,1,80,1,0
10344,-100,4,1,1,70,0,0
11034,-100,4,2,1,85,0,0
22068,-100,4,2,1,90,0,0
32413,-200,4,2,1,90,0,0
44137,-100,4,1,1,70,0,0
54827,-100,4,1,0,80,0,0
55172,-200,4,1,1,90,0,1
55862,-100,4,1,1,90,0,1
57931,-200,4,1,1,90,0,1
58620,-100,4,1,1,90,0,1
63448,-100,4,2,1,90,0,0
66206,-200,4,1,1,90,0,1
66896,-100,4,1,1,90,0,1
68965,-200,4,1,1,90,0,1
69655,-100,4,1,1,90,0,1
74482,-100,4,2,1,90,0,0
77586,-100,4,1,1,80,0,0
96551,-100,4,2,1,80,0,0
99310,-200,4,1,1,90,0,1
99999,-100,4,1,1,90,0,1
102068,-200,4,1,1,90,0,1
102758,-100,4,1,1,90,0,1
107586,-100,4,2,1,90,0,0
110344,-200,4,1,1,90,0,1
111034,-100,4,1,1,90,0,1
113103,-200,4,1,1,90,0,1
113793,-100,4,1,1,90,0,1
118620,-100,4,2,1,90,0,0
121724,-100,4,1,1,80,0,0
140689,-100,4,2,1,80,0,0
154482,-200,4,2,1,60,0,0
165517,-133.333333333333,4,1,1,60,0,0
168275,-111.111111111111,4,1,1,70,0,0
171034,-100,4,1,1,80,0,0
176206,-100,4,1,0,80,0,0
176551,-200,4,1,1,90,0,1
177241,-100,4,1,1,90,0,1
179310,-200,4,1,1,90,0,1
179999,-100,4,1,1,90,0,1
184827,-100,4,2,1,90,0,0
187586,-200,4,1,1,90,0,1
188275,-100,4,1,1,90,0,1
190344,-200,4,1,1,90,0,1
191034,-100,4,1,1,90,0,1
195862,-100,4,2,1,90,0,0
198965,-100,4,1,1,80,0,0
217931,-100,4,2,1,80,0,0
220689,-200,4,1,1,90,0,1
221379,-100,4,1,1,90,0,1
223448,-200,4,1,1,90,0,1
224137,-100,4,1,1,90,0,1
228965,-100,4,2,1,90,0,0
231724,-200,4,1,1,90,0,1
232413,-100,4,1,1,90,0,1
234482,-200,4,1,1,90,0,1
235172,-100,4,1,1,90,0,1
239999,-100,4,2,1,90,0,0
243103,-100,4,1,1,80,0,0
253793,-100,4,1,1,85,0,0

[Colours]
Combo1 : 255,236,0
Combo2 : 147,147,147
Combo3 : 128,64,64
Combo4 : 255,0,0
Combo5 : 132,9,255
Combo6 : 255,128,0

[HitObjects]
80,93,0,6,0,P|138:106|208:36,1,149.999995231628,0|2,0:0|0:0,0:0:0:0:
411,174,689,2,0,P|339:183|287:133,1,149.999995231628,0|2,1:0|0:0,0:0:0:0:
236,189,1206,1,0,0:0:0:0:
179,238,1379,2,0,P|126:187|55:197,1,149.999995231628,0|2,0:0|0:0,0:0:0:0:
222,308,2068,2,0,L|399:293,1,149.999995231629,0|2,1:0|0:0,0:0:0:0:
467,81,2758,6,0,P|419:62|336:127,1,149.999995231629,0|2,0:0|0:0,0:0:0:0:
343,185,3275,1,0,0:0:0:0:
343,185,3448,2,0,L|260:168,1,74.9999976158143,0|0,1:0|0:0,0:0:0:0:
203,100,3793,2,0,L|286:83,1,74.9999976158143,2|0,0:0|0:0,0:0:0:0:
192,182,4137,2,0,B|120:176|120:176|46:121,1,149.999995231629,0|2,0:0|0:0,0:0:0:0:
288,265,4827,2,0,B|360:271|360:271|434:326,1,149.999995231629,0|2,1:0|0:0,0:0:0:0:
149,332,5517,70,0,P|110:303|140:213,1,149.999995231629,0|2,0:0|0:0,0:0:0:0:
169,150,6034,1,0,0:0:0:0:
169,150,6206,2,0,P|200:182|207:221,1,74.9999976158143
264,276,6551,2,0,P|275:240|302:215,1,74.9999976158143,2|0,0:0|0:0,0:0:0:0:
324,143,6896,2,0,B|368:160|376:204|376:204|453:185,2,149.999995231629,0|2|0,0:0|0:0|1:0,0:0:0:0:
452,65,7931,1,2,0:0:0:0:
256,48,8275,6,0,P|200:57|113:18,1,149.999995231629,0|2,0:0|0:0,0:0:0:0:
40,27,8793,1,0,0:0:0:0:
54,101,8965,2,0,P|104:156|116:229,1,149.999995231629,0|2,1:0|0:0,0:0:0:0:
256,336,9655,2,0,P|312:327|399:366,1,149.999995231629,0|2,0:0|0:0,0:0:0:0:
472,357,10173,1,0,0:0:0:0:
457,282,10344,6,0,P|421:253|404:210,1,74.9999976158143,0|8,0:0|0:3,0:0:0:0:
401,210,10603,1,4,0:3:0:0:
398,191,10689,1,4,0:3:0:0:
394,41,10862,1,0,0:0:0:0:
448,92,11034,54,0,P|406:114|322:56,1,149.999995231629,4|2,0:0|0:0,0:0:0:0:
260,27,11551,1,0,0:0:0:0:
260,27,11724,2,0,L|176:36,1,74.9999976158143,8|0,1:0|0:0,0:0:0:0:
256,103,12068,2,0,L|202:168,1,74.9999976158143,2|0,0:0|0:0,0:0:0:0:
216,234,12413,2,0,B|248:231|266:211|275:199|275:199|331:129,1,149.999995231629,0|2,0:0|0:0,0:0:0:0:
118,186,13103,2,0,B|86:189|68:209|59:221|59:221|3:291,1,149.999995231629,8|2,1:0|0:0,0:0:0:0:
256,320,13793,5,0,0:0:0:0:
416,192,14137,1,2,0:0:0:0:
321,41,14482,2,0,L|235:53,1,74.9999976158143,8|0,1:0|0:0,0:0:0:0:
219,143,14827,2,0,L|305:131,1,74.9999976158143,2|0,0:0|0:0,0:0:0:0:
155,80,15172,2,0,B|125:78|97:87|97:87|76:107|76:107|48:117|13:116,1,149.999995231629,0|2,0:0|0:0,0:0:0:0:
209,231,15862,2,0,B|239:233|267:224|267:224|288:204|288:204|316:194|351:195,2,149.999995231629,8|2|0,1:0|0:0|0:0,0:0:0:0:
147,187,16724,69,0,0:0:0:0:
91,237,16896,1,2,0:0:0:0:
34,187,17068,1,0,0:0:0:0:
21,261,17241,2,0,P|46:298|83:312,1,74.9999976158143,8|0,1:0|0:0,0:0:0:0:
216,315,17586,2,0,P|171:318|140:343,1,74.9999976158143,2|0,0:0|0:0,3:0:0:0:
287,349,17931,2,0,P|295:306|211:236,1,149.999995231629,0|2,0:0|0:0,0:0:0:0:
208,163,18448,1,0,0:0:0:0:
138,194,18620,2,0,L|284:130,1,149.999995231629,8|2,1:0|0:0,0:0:0:0:
410,67,19310,1,0,0:0:0:0:
382,263,19655,1,2,0:0:0:0:
191,321,19999,5,8,1:0:0:0:
181,323,20171,1,2,0:0:0:0:
172,325,20343,1,2,0:0:0:0:
163,327,20516,1,0,0:0:0:0:
154,329,20689,2,0,P|148:296|167:244,1,74.9999976158143,2|0,0:0|0:0,0:0:0:0:
98,126,21034,2,0,P|104:159|85:211,1,74.9999976158143,2|2,0:0|0:0,0:0:0:0:
33,67,21379,2,0,P|100:98|166:67,1,149.999995231629,2|0,0:0|0:0,0:0:0:0:
399,187,22068,38,0,L|227:141,1,149.999995231629,4|0,0:1|0:0,0:0:0:0:
288,80,22586,21,0,0:0:0:0:
230,219,22758,2,0,L|190:301,1,74.9999976158143,10|2,1:2|0:0,0:0:0:0:
59,349,23103,2,0,P|90:328|135:323,1,74.9999976158143,2|2,0:0|0:0,0:0:0:0:
161,154,23448,2,0,P|147:207|54:248,1,149.999995231629
115,75,24137,2,0,P|167:60|249:120,1,149.999995231629,8|0,1:0|0:0,0:0:0:0:
451,132,24827,70,0,B|436:173|436:173|391:197|318:162,1,149.999995231629,4|0,0:1|0:0,0:0:0:0:
333,93,25344,5,0,0:0:0:0:
268,131,25517,2,0,P|256:169|274:215,1,74.9999976158143,10|2,1:2|0:0,0:0:0:0:
323,320,25862,2,0,P|335:282|317:236,1,74.9999976158143,2|2,0:0|0:0,0:0:0:0:
257,282,26206,2,0,L|416:287,1,149.999995231629
176,337,26896,22,0,L|17:332,2,149.999995231629,8|4|4,1:0|0:1|0:1,0:0:0:0:
209,269,27758,69,0,0:0:0:0:
164,208,27931,1,0,0:0:0:0:
206,146,28103,1,0,0:0:0:0:
173,78,28275,2,0,P|142:106|131:144,1,74.9999976158143,10|2,1:2|0:0,0:0:0:0:
248,81,28620,2,0,P|279:53|290:15,1,74.9999976158143,2|2,0:0|0:0,0:0:0:0:
397,38,28965,2,0,P|364:65|320:170,1,149.999995231629
369,344,29655,2,0,P|402:317|446:212,1,149.999995231629,8|0,1:0|0:0,0:0:0:0:
256,48,30344,1,0,0:0:0:0:
92,192,30689,1,0,0:0:0:0:
289,314,31034,69,2,0:0:0:0:
297,310,31206,1,0,0:0:0:0:
306,307,31378,1,2,0:0:0:0:
315,304,31551,1,0,0:0:0:0:
324,301,31724,2,0,P|340:268|375:238,1,74.9999976158143,2|0,0:0|0:0,0:0:0:0:
464,165,32068,2,0,P|426:168|383:153,1,74.9999976158143,2|2,0:0|0:0,0:0:0:0:
207,86,32413,6,0,P|275:113|305:180,1,149.999995231629,2|4,0:0|0:1,0:0:0:0:
65,334,44137,69,0,0:0:0:0:
65,334,44482,1,0,0:0:0:0:
65,334,44827,2,0,P|95:325|157:326,1,74.9999976158143
187,266,45172,2,0,P|224:265|260:255,1,74.9999976158143
320,300,45517,6,0,P|365:285|482:293,1,149.999995231629
466,288,46206,2,0,P|457:261|461:203,1,74.9999976158143
391,179,46551,2,0,P|401:143|399:106,1,74.9999976158143
449,49,46896,69,0,0:0:0:0:
449,49,47241,1,0,0:0:0:0:
449,49,47586,2,0,P|409:37|352:36,1,74.9999976158143
318,82,47931,2,0,P|280:78|245:67,1,74.9999976158143
187,19,48275,6,0,P|123:10|27:35,1,149.999995231629
40,28,48965,2,0,L|30:115,1,74.9999976158143
99,134,49310,2,0,L|109:220,1,74.9999976158143
66,271,49655,69,0,0:0:0:0:
110,331,49827,2,0,L|136:363,2,37.4999988079071,8|4|4,0:3|0:3|0:3,0:0:0:0:
66,271,50172,1,0,0:0:0:0:
169,271,50344,2,0,L|264:266,1,74.9999976158143
323,340,50689,2,0,L|228:345,1,74.9999976158143
367,264,51034,5,0,0:0:0:0:
424,311,51206,2,0,L|456:339,2,37.4999988079071,8|4|4,0:3|0:3|0:3,0:0:0:0:
367,264,51551,1,0,0:0:0:0:
441,195,51724,2,0,P|451:150|445:110,1,74.9999976158143
371,68,52068,2,0,P|361:113|367:153,1,74.9999976158143
256,192,52413,12,0,53793,2:0:0:0:
99,319,54827,69,8,0:0:0:0:
99,319,55172,22,2,P|142:325|213:298,1,112.499996423721,2|2,0:0|2:0,0:0:0:0:
221,291,55862,6,0,P|254:266|292:253,1,74.9999976158143,10|2,0:0|0:0,0:0:0:0:
381,213,56206,2,0,P|342:196|312:170,1,74.9999976158143,10|2,0:0|0:0,0:0:0:0:
190,55,56551,2,0,P|230:117|229:191,1,149.999995231629,0|0,0:0|0:0,0:0:0:0:
86,345,57241,2,0,P|46:282|46:208,1,149.999995231629,8|0,0:0|0:0,0:0:0:0:
51,53,57931,70,2,L|181:45,1,112.499996423721,0|2,0:0|2:0,0:0:0:0:
181,49,58620,6,0,P|224:51|265:44,1,74.9999976158143,10|2,0:0|0:0,0:0:0:0:
362,33,58965,2,0,P|342:64|327:98,1,74.9999976158143,2|2,0:0|0:0,0:0:0:0:
408,115,59310,2,0,P|360:174|275:162,2,149.999995231629,0|0|8,0:0|0:0|0:0,0:0:0:0:
473,286,60344,2,0,P|466:332|475:366,1,74.9999976158143
381,314,60689,69,0,0:0:0:0:
381,314,60862,1,0,0:0:0:0:
295,272,61034,1,0,0:0:0:0:
295,272,61207,1,0,0:0:0:0:
209,315,61379,6,0,P|171:313|135:290,1,74.9999976158143,10|2,0:0|0:0,0:0:0:0:
91,184,61724,2,0,P|129:186|165:209,1,74.9999976158143,2|2,0:0|0:0,0:0:0:0:
91,184,62068,2,2,B|69:151|69:151|71:88|137:60,1,149.999995231629,2|2,0:0|0:0,0:0:0:0:
202,69,62586,1,2,0:0:0:0:
260,115,62758,2,0,P|312:126|398:65,1,149.999995231629,8|0,0:0|0:0,0:0:0:0:
