osu file format v13

[General]
AudioFilename: Knife-Party-Bonfire-Original-Mix.mp3
AudioLeadIn: 3000
PreviewTime: 52758
Countdown: 0
SampleSet: Soft
StackLeniency: 0.7
Mode: 0
LetterboxInBreaks: 1
WidescreenStoryboard: 0

[Editor]
Bookmarks: 262068
DistanceSpacing: 1
BeatDivisor: 8
GridSize: 4
TimelineZoom: 1

[Metadata]
Title:Bonfire
TitleUnicode:Bonfire
Artist:Knife Party
ArtistUnicode:Knife Party
Creator:Zexous
Version:Blaze
Source:
Tags:
BeatmapID:431787
BeatmapSetID:179601

[Difficulty]
HPDrainRate:7
CircleSize:4
OverallDifficulty:9
ApproachRate:9
SliderMultiplier:3.59999990463257
SliderTickRate:1

[Events]
//Background and Video events
0,0,"bonfire.jpg",0,0
//Break Periods
2,33302,43537
2,143648,153882
//Storyboard Layer 0 (Background)
//Storyboard Layer 1 (Fail)
//Storyboard Layer 2 (Pass)
//Storyboard Layer 3 (Foreground)
//Storyboard Sound Samples
//Background Colour Transformations
3,100,163,162,255

[TimingPoints]
0,689.655172413793,4,2,1,80,1,0
10344,-100,4,1,1,70,0,0
11034,-100,4,2,1,85,0,0
22068,-100,4,2,1,90,0,0
44137,-100,4,1,1,70,0,0
54827,-100,4,1,0,80,0,0
55172,-200,4,1,1,90,0,1
55862,-90.9090909090909,4,1,1,90,0,1
57931,-200,4,1,1,90,0,1
58620,-90.9090909090909,4,1,1,90,0,1
63448,-100,4,2,1,90,0,0
66206,-200,4,1,1,90,0,1
66896,-90.9090909090909,4,1,1,90,0,1
68965,-200,4,1,1,90,0,1
69655,-90.9090909090909,4,1,1,90,0,1
74482,-100,4,2,1,90,0,0
77586,-100,4,1,1,80,0,0
96551,-100,4,2,1,80,0,0
99310,-200,4,1,1,90,0,1
99999,-90.9090909090909,4,1,1,90,0,1
102068,-200,4,1,1,90,0,1
102758,-90.9090909090909,4,1,1,90,0,1
107586,-100,4,2,1,90,0,0
110344,-200,4,1,1,90,0,1
111034,-90.9090909090909,4,1,1,90,0,1
113103,-200,4,1,1,90,0,1
113793,-90.9090909090909,4,1,1,90,0,1
118620,-100,4,2,1,90,0,0
121724,-100,4,1,1,80,0,0
140689,-100,4,2,1,80,0,0
154482,-200,4,2,1,60,0,0
165517,-133.333333333333,4,1,1,60,0,0
168275,-111.111111111111,4,1,1,70,0,0
171034,-100,4,1,1,80,0,0
176206,-100,4,1,0,80,0,0
176551,-200,4,1,1,90,0,1
177241,-90.9090909090909,4,1,1,90,0,1
179310,-200,4,1,1,90,0,1
179999,-90.9090909090909,4,1,1,90,0,1
184827,-100,4,2,1,90,0,0
187586,-200,4,1,1,90,0,1
188275,-90.9090909090909,4,1,1,90,0,1
190344,-200,4,1,1,90,0,1
191034,-90.9090909090909,4,1,1,90,0,1
195862,-100,4,2,1,90,0,0
198965,-100,4,1,1,80,0,0
217931,-100,4,2,1,80,0,0
220689,-200,4,1,1,90,0,1
221379,-90.9090909090909,4,1,1,90,0,1
223448,-200,4,1,1,90,0,1
224137,-90.9090909090909,4,1,1,90,0,1
228965,-100,4,2,1,90,0,0
231724,-200,4,1,1,90,0,1
232413,-83.3333333333333,4,1,1,90,0,1
234482,-200,4,1,1,90,0,1
235172,-83.3333333333333,4,1,1,90,0,1
239999,-100,4,2,1,90,0,0
243103,-100,4,1,1,80,0,0
253793,-90.9090909090909,4,1,1,85,0,0

[Colours]
Combo1 : 255,236,0
Combo2 : 147,147,147
Combo3 : 128,64,64
Combo4 : 255,0,0
Combo5 : 132,9,255
Combo6 : 255,128,0

[HitObjects]
61,166,0,6,0,P|157:161|201:83,1,179.999995231628,0|2,0:0|0:0,0:0:0:0:
256,24,517,1,0,0:0:0:0:
312,96,689,2,0,P|364:166|451:166,1,179.999995231628,0|2,1:0|0:0,0:0:0:0:
407,86,1206,1,0,0:0:0:0:
409,268,1379,2,0,P|402:313|405:364,1,89.9999976158142,0|0,0:0|0:0,0:0:0:0:
279,304,1724,2,0,P|286:259|283:208,1,89.9999976158142,2|0,0:0|0:0,0:0:0:0:
85,296,2068,2,0,P|133:318|198:224,1,179.999995231628,0|2,1:0|0:0,0:0:0:0:
183,144,2586,1,0,0:0:0:0:
143,63,2758,6,0,P|101:62|51:77,1,89.9999976158142
263,104,3103,2,0,P|305:105|355:90,1,89.9999976158142,2|0,0:0|0:0,0:0:0:0:
491,212,3448,2,0,P|422:192|318:229,1,179.999995231628,0|2,1:0|0:0,0:0:0:0:
195,336,3965,1,0,0:0:0:0:
116,291,4137,2,0,L|74:196,1,89.9999976158143
236,258,4482,2,0,P|270:291|282:334,1,89.9999976158143,2|0,0:0|0:0,0:0:0:0:
173,193,4827,2,0,P|150:130|145:15,1,179.999995231629,0|2,1:0|0:0,0:0:0:0:
144,18,5344,1,0,0:0:0:0:
367,18,5517,69,0,0:0:0:0:
463,279,5862,1,2,0:0:0:0:
408,350,6034,1,0,0:0:0:0:
330,308,6206,2,0,P|251:301|149:350,1,179.999995231629,0|2,1:0|0:0,0:0:0:0:
160,340,6724,1,0,0:0:0:0:
31,318,6896,2,0,P|70:300|107:267,1,89.9999976158143
276,201,7241,2,0,P|235:215|186:218,1,89.9999976158143,2|0,0:0|0:0,0:0:0:0:
18,27,7586,2,0,P|71:73|106:190,1,179.999995231629,0|2,1:0|0:0,0:0:0:0:
106,174,8103,1,0,0:0:0:0:
457,55,8275,6,0,B|411:49|411:49|383:116|297:101,1,179.999995231629,0|2,0:0|0:0,0:0:0:0:
333,22,8793,1,0,0:0:0:0:
223,239,8965,2,0,B|269:245|269:245|298:178|383:193,1,179.999995231629,0|2,1:0|0:0,0:0:0:0:
347,272,9483,1,0,0:0:0:0:
138,323,9655,2,0,P|91:327|45:344,1,89.9999976158143
66,187,9999,2,0,P|113:183|159:166,1,89.9999976158143,2|0,0:0|0:0,0:0:0:0:
385,108,10344,5,0,0:0:0:0:
347,272,10517,1,8,0:3:0:0:
341,293,10603,1,4,0:3:0:0:
335,314,10689,1,4,0:3:0:0:
403,27,10862,1,4,0:3:0:0:
368,192,11034,54,0,P|315:156|322:49,1,179.999995231629,4|2,0:0|0:0,0:0:0:0:
233,27,11551,1,0,0:0:0:0:
158,77,11724,2,2,B|168:120|168:120|149:163,1,89.9999976158143,8|0,1:0|0:0,0:1:0:0:
225,256,12068,2,2,B|215:213|215:213|234:170,1,89.9999976158143,2|0,0:0|0:0,0:1:0:0:
296,312,12413,2,0,P|223:346|138:283,1,179.999995231629,0|2,0:0|0:0,0:0:0:0:
138,207,12931,1,0,0:0:0:0:
349,243,13103,2,0,P|378:281|381:326,1,89.9999976158143,8|0,1:0|0:0,0:0:0:0:
418,194,13448,2,0,P|380:165|335:162,1,89.9999976158143,2|0,0:0|0:0,0:0:0:0:
145,95,13793,6,0,P|219:118|316:54,1,179.999995231629,0|2,0:0|0:0,0:0:0:0:
305,71,14310,1,0,0:0:0:0:
78,147,14482,2,0,B|49:187|49:187|47:236,1,89.9999976158143,8|0,1:0|0:0,0:0:0:0:
199,283,14827,2,0,B|178:237|133:213,1,89.9999976158143,2|0,0:0|0:0,0:0:0:0:
221,365,15172,2,0,P|272:326|281:257,1,134.999996423721
276,237,15517,2,0,P|268:196|274:140,1,89.9999976158143,2|0,0:0|0:0,0:0:0:0:
417,51,15862,2,0,P|430:102|411:206,1,134.999996423721,8|0,1:0|0:0,0:0:0:0:
411,203,16206,2,0,P|440:173|489:142,1,89.9999976158143,2|0,0:0|0:0,0:0:0:0:
214,348,16551,69,0,0:0:0:0:
169,270,16724,1,0,0:0:0:0:
246,225,16896,1,2,0:0:0:0:
291,303,17068,1,0,0:0:0:0:
214,348,17241,2,0,P|176:317|166:265,1,89.9999976158143,8|0,1:0|0:0,0:0:0:0:
144,56,17586,2,0,P|182:87|192:139,1,89.9999976158143,2|0,0:0|0:0,0:0:0:0:
109,133,17931,2,0,L|328:112,1,179.999995231629,0|2,0:0|0:0,0:0:0:0:
460,108,18448,1,0,0:0:0:0:
397,172,18620,2,0,P|374:81|436:20,1,179.999995231629,8|2,1:0|0:0,0:0:0:0:
460,108,19137,1,0,0:0:0:0:
460,319,19310,5,0,0:0:0:0:
52,319,19655,1,2,0:0:0:0:
256,48,19999,1,8,1:0:0:0:
352,104,20172,1,2,0:0:0:0:
256,160,20344,1,2,0:0:0:0:
160,104,20517,1,0,0:0:0:0:
415,51,20689,2,0,P|432:95|420:146,1,89.9999976158143,2|0,0:0|0:0,0:0:0:0:
86,136,21034,2,0,P|80:92|97:51,1,89.9999976158143,2|2,0:0|0:0,0:0:0:0:
332,196,21379,2,0,P|256:240|180:196,1,179.999995231629,10|0,0:0|0:0,0:0:0:0:
30,352,22068,38,0,B|69:324|116:336|116:336|163:348|203:321,1,179.999995231629,4|0,0:1|0:0,0:0:0:0:
288,296,22586,21,0,0:0:0:0:
362,346,22758,2,0,L|420:270,1,89.9999976158143,10|2,1:2|0:0,0:0:0:0:
399,143,23103,2,0,L|341:219,1,89.9999976158143,2|2,0:0|0:0,0:0:0:0:
366,62,23448,2,0,P|430:61|485:132,1,134.999996423721
482,130,23793,2,0,P|476:175|431:226,1,89.9999976158143
283,105,24137,2,0,P|219:106|164:35,1,134.999996423721,8|0,1:0|0:0,0:0:0:0:
158,39,24482,2,0,L|86:110,1,89.9999976158143
56,327,24827,70,0,P|85:265|190:258,1,179.999995231629,4|0,0:1|0:0,0:0:0:0:
186,256,25344,21,0,0:0:0:0:
406,231,25517,2,0,P|421:279|406:328,1,89.9999976158143,10|2,1:2|0:0,0:0:0:0:
326,130,25862,2,0,P|311:82|326:33,1,89.9999976158143,2|2,0:0|0:0,0:0:0:0:
232,170,26206,2,0,P|171:155|90:172,1,134.999996423721
80,177,26551,2,0,P|90:129|88:80,1,89.9999976158143
216,337,26896,2,0,P|252:283|338:285,1,134.999996423721,8|0,1:0|0:0,0:0:0:0:
338,284,27241,6,0,B|342:244|342:244|360:206|360:206|369:144,1,134.999996423721,4|0,0:1|0:0,0:0:0:0:
463,136,27586,54,0,P|409:146|363:131,1,89.9999976158143,4|0,0:1|0:0,0:0:0:0:
183,68,27931,2,0,P|237:58|283:73,1,89.9999976158143,0|0,0:1|0:0,0:0:0:0:
111,154,28275,2,0,L|81:70,1,89.9999976158143,10|2,1:2|0:0,0:0:0:0:
234,247,28620,2,0,L|245:153,1,89.9999976158143,2|2,0:0|0:0,0:0:0:0:
173,304,28965,2,0,P|221:281|311:302,1,134.999996423721
317,307,29310,2,0,P|361:319|411:308,1,89.9999976158143
482,93,29655,2,0,P|434:130|414:213,1,134.999996423721,8|0,1:0|0:0,0:0:0:0:
407,220,29999,2,0,P|387:176|343:141,1,89.9999976158143
256,40,30344,5,0,0:0:0:0:
71,253,30689,1,0,0:0:0:0:
394,345,31034,1,0,0:0:0:0:
406,255,31206,1,2,0:0:0:0:
419,166,31378,1,2,0:0:0:0:
433,77,31551,1,0,0:0:0:0:
375,10,31724,2,0,P|349:46|344:91,1,89.9999976158143,2|0,0:0|0:0,0:0:0:0:
463,323,32068,2,0,P|489:286|494:242,1,89.9999976158143,2|2,0:0|0:0,0:0:0:0:
406,255,32413,70,0,B|388:240|388:240|382:263|382:263|360:253|360:253|363:274|363:274|342:277|342:277|360:293|360:293|338:304|338:304|366:313|366:313|341:328|341:328|365:337|365:337|355:354|355:354|384:341|384:341|422:323|464:323,1,359.999990463257,2|4,0:0|0:1,0:0:0:0:
65,322,44137,5,0,0:0:0:0:
65,322,44482,1,0,0:0:0:0:
65,322,44827,1,0,0:0:0:0:
143,279,44999,1,0,0:0:0:0:
232,270,45171,1,0,0:0:0:0:
318,296,45344,1,0,0:0:0:0:
387,352,45516,69,0,0:0:0:0:
387,352,45862,1,0,0:0:0:0:
387,352,46206,1,0,0:0:0:0:
432,280,46378,1,0,0:0:0:0:
396,198,46550,1,0,0:0:0:0:
370,113,46723,1,0,0:0:0:0:
418,40,46895,5,0,0:0:0:0:
418,40,47241,1,0,0:0:0:0:
418,40,47586,1,0,0:0:0:0:
328,44,47758,1,0,0:0:0:0:
238,48,47930,1,0,0:0:0:0:
148,52,48103,1,0,0:0:0:0:
58,56,48275,69,0,0:0:0:0:
58,56,48620,1,0,0:0:0:0:
58,56,48965,1,0,0:0:0:0:
51,236,49137,1,0,0:0:0:0:
213,152,49310,1,0,0:0:0:0:
108,144,49482,1,0,0:0:0:0:
184,309,49655,5,0,0:0:0:0:
307,213,49827,1,8,0:3:0:0:
319,194,49913,1,4,0:3:0:0:
332,175,49999,1,4,0:3:0:0:
184,309,50172,1,0,0:0:0:0:
312,356,50344,2,0,B|352:338|352:338|372:296,1,89.9999976158143
496,179,50689,2,0,B|456:197|456:197|436:239,1,89.9999976158143
382,39,51034,69,0,0:0:0:0:
221,155,51206,1,8,0:3:0:0:
225,177,51293,1,4,0:3:0:0:
229,198,51379,1,4,0:3:0:0:
382,39,51551,1,0,0:0:0:0:
117,48,51724,2,0,L|15:58,1,89.9999976158143
333,138,52068,2,0,L|435:128,1,89.9999976158143
91,260,52413,5,8,0:3:0:0:
107,287,52499,1,4,0:3:0:0:
128,309,52585,1,4,0:3:0:0:
154,327,52671,1,4,0:3:0:0:
183,339,52757,1,8,0:3:0:0:
214,345,52844,1,4,0:3:0:0:
245,344,52930,1,4,0:3:0:0:
276,336,53016,1,4,0:3:0:0:
304,322,53103,54,0,L|349:282,1,44.9999988079071,8|0,0:0|0:0,0:0:0:0:
414,277,53275,2,0,L|400:217,1,44.9999988079071,8|0,0:0|0:0,0:0:0:0:
428,159,53448,2,0,L|370:140,1,44.9999988079071,8|0,0:0|0:0,0:0:0:0:
332,87,53620,2,0,L|287:127,1,44.9999988079071,8|0,0:0|0:0,0:0:0:0:
223,131,53793,1,0,0:0:0:0:
256,192,53879,12,8,54827,0:0:0:0:
467,58,55172,38,2,L|321:88,1,134.999996423721,2|0,0:0|2:0,0:0:0:0:
334,85,55862,6,0,P|328:135|351:177,1,99.0000003986359,10|2,0:0|0:0,0:0:0:0:
446,343,56206,2,0,P|452:293|429:251,1,99.0000003986359,10|2,0:0|0:0,0:0:0:0:
374,308,56551,2,0,P|319:301|229:340,1,148.500000597954,0|0,0:0|2:0,0:0:0:0:
167,292,56896,2,0,P|123:314|57:313,1,99.0000003986359,0|0,0:0|2:0,0:0:0:0:
61,39,57241,2,0,P|119:58|131:161,1,148.500000597954,8|0,0:0|2:0,0:0:0:0:
101,204,57586,2,0,P|65:163|66:110,1,99.0000003986359,0|0,0:0|2:0,0:0:0:0:
328,46,57931,70,2,L|471:61,1,134.999996423721,0|2,0:0|2:0,0:0:0:0:
462,60,58620,6,0,L|461:169,1,99.0000003986359,10|2,0:0|0:0,0:0:0:0:
359,352,58965,2,0,L|360:243,1,99.0000003986359,2|2,0:0|0:0,0:0:0:0:
50,280,59310,2,0,P|119:266|216:289,1,148.500000597954,0|0,0:0|2:0,0:0:0:0:
270,308,59655,2,0,L|271:199,1,99.0000003986359,0|0,0:0|2:0,0:0:0:0:
498,36,59999,2,0,P|444:74|352:50,1,148.500000597954,8|0,0:0|2:0,0:0:0:0:
301,16,60344,1,0,0:0:0:0:
203,65,60517,69,0,0:0:0:0:
203,263,60689,1,0,0:0:0:0:
375,163,60862,1,0,0:0:0:0:
264,165,61034,1,0,0:0:0:0:
435,263,61206,1,0,0:0:0:0:
433,64,61379,5,10,0:0:0:0:
433,64,61551,1,2,0:0:0:0:
73,139,61724,1,2,0:0:0:0:
73,139,61896,1,2,0:0:0:0:
439,271,62068,2,0,P|477:304|495:354,1,99.0000003986359,2|2,0:0|0:0,0:0:0:0:
305,271,62413,2,0,P|314:221|348:181,1,99.0000003986359,2|2,0:0|0:0,0:0:0:0:
493,29,62758,2,0,P|421:63|328:35,1,148.500000597954,8|0,0:0|2:0,0:0:0:0:
288,96,63103,2,0,P|215:86|150:119,1,148.500000597954,0|0,0:0|2:0,0:0:0:0:
76,86,63448,37,0,1:0:0:0:
106,284,63620,1,0,0:0:0:0:
109,306,63706,1,0,0:0:0:0:
113,328,63793,1,8,0:0:0:0:
337,190,63965,1,0,0:0:0:0:
340,168,64051,1,0,0:0:0:0:
344,146,64137,6,0,L|354:90,1,44.9999988079071,8|0,0:0|0:0,0:0:0:0:
449,224,64310,2,0,L|459:168,1,44.9999988079071,8|0,0:0|0:0,0:0:0:0:
330,324,64482,2,0,L|340:268,1,44.9999988079071,8|0,0:0|0:0,0:0:0:0:
225,246,64655,2,0,L|235:190,1,44.9999988079071,8|0,0:0|0:0,0:0:0:0:
248,120,64827,69,0,0:0:0:0:
73,218,64999,1,0,0:0:0:0:
51,225,65086,1,0,0:0:0:0:
30,233,65172,1,8,0:0:0:0:
349,331,65344,1,0,0:0:0:0:
371,338,65431,1,0,0:0:0:0:
392,346,65517,1,8,0:0:0:0:
472,192,65689,1,8,0:0:0:0:
361,41,65862,1,0,0:0:0:0:
151,41,66034,1,8,0:0:0:0:
80,321,66206,22,2,P|160:325|204:281,1,134.999996423721,2|2,0:0|2:0,0:0:0:0:
198,291,66896,6,0,P|228:250|277:213,1,99.0000003986359,10|2,0:0|0:0,0:0:0:0:
474,103,67241,2,2,P|423:98|366:74,1,99.0000003986359,2|0,0:0|0:0,0:0:0:0:
39,122,67586,2,0,P|115:136|181:93,1,148.500000597954,0|0,0:0|2:0,0:0:0:0:
233,47,67931,2,0,P|285:28|336:42,1,99.0000003986359,0|0,0:0|2:0,0:0:0:0:
487,331,68275,2,0,P|411:345|345:302,1,148.500000597954,8|0,0:0|2:0,0:0:0:0:
293,256,68620,2,0,P|241:237|190:251,1,99.0000003986359,0|0,0:0|2:0,0:0:0:0:
430,163,68965,70,2,P|433:110|477:35,1,134.999996423721,0|2,0:0|2:0,0:0:0:0:
472,39,69655,6,0,P|419:45|370:37,1,99.0000003986359,10|2,0:0|0:0,0:0:0:0:
142,122,69999,2,0,P|195:116|244:124,1,99.0000003986359,2|2,0:0|0:0,0:0:0:0:
388,346,70344,2,0,P|408:288|373:203,1,148.500000597954,0|0,0:0|2:0,0:0:0:0:
325,151,70689,2,0,L|335:49,1,99.0000003986359,0|0,0:0|2:0,0:0:0:0:
56,144,71034,2,0,P|95:197|192:195,1,148.500000597954,8|0,0:0|2:0,0:0:0:0:
229,150,71379,1,0,0:0:0:0:
431,86,71551,69,0,0:0:0:0:
250,167,71723,1,0,0:0:0:0:
331,348,71896,1,0,0:0:0:0:
455,104,72068,1,0,0:0:0:0:
274,185,72240,1,0,0:0:0:0:
355,366,72413,6,0,P|376:316|367:258,1,99.0000003986359,10|2,0:0|0:0,0:0:0:0:
336,19,72758,2,0,P|315:69|324:127,1,99.0000003986359,2|2,0:0|0:0,0:0:0:0:
61,318,73103,1,2,0:0:0:0:
263,265,73275,1,2,0:0:0:0:
103,223,73448,1,2,0:0:0:0:
305,170,73620,1,2,0:0:0:0:
96,139,73793,2,0,P|46:159|21:251,1,148.500000597954,0|0,0:0|2:0,0:0:0:0:
269,350,74137,2,0,P|319:330|344:238,1,148.500000597954,0|0,0:0|2:0,0:0:0:0:
305,170,74482,37,0,1:0:0:0:
221,49,74655,1,0,0:0:0:0:
198,47,74741,1,0,0:0:0:0:
175,45,74827,1,8,0:0:0:0:
388,290,74999,1,0,0:0:0:0:
411,292,75085,1,0,0:0:0:0:
434,294,75172,6,0,L|461:254,1,44.9999988079071,8|0,0:0|0:0,0:0:0:0:
367,161,75344,2,0,L|370:112,1,44.9999988079071,8|0,0:0|0:0,0:0:0:0:
242,78,75517,2,0,L|220:34,1,44.9999988079071,8|0,0:0|0:0,0:0:0:0:
93,70,75689,2,0,L|53:43,1,44.9999988079071,8|0,0:0|0:0,0:0:0:0:
163,125,75862,69,0,0:0:0:0:
260,341,76034,1,0,0:0:0:0:
264,318,76120,1,0,0:0:0:0:
257,296,76206,1,8,0:0:0:0:
395,100,76379,1,0,0:0:0:0:
391,123,76465,1,0,0:0:0:0:
398,145,76551,1,8,0:0:0:0:
256,192,76637,12,4,77241,1:0:0:0:
80,289,77586,54,0,P|163:305|220:228,1,179.999995231629,2|8,0:0|1:0,0:0:0:0:
217,101,78103,1,0,0:0:0:0:
166,26,78275,2,0,P|136:57|126:114,1,89.9999976158143,2|0,0:0|0:0,0:0:0:0:
379,219,78620,2,0,B|418:191|423:143|423:143|428:95|467:67,2,179.999995231629,2|2|10,0:0|0:0|0:0,0:0:0:0:
415,301,79482,1,0,0:0:0:0:
331,141,79655,1,0,0:0:0:0:
511,150,79827,1,0,0:0:0:0:
189,311,79999,6,0,P|126:309|87:202,1,179.999995231629,0|2,0:0|0:0,0:0:0:0:
134,41,80517,1,0,0:0:0:0:
154,128,80689,2,0,P|104:124|64:91,1,89.9999976158143,8|0,0:0|0:0,0:0:0:0:
217,68,81034,2,0,P|266:71|306:104,1,89.9999976158143,2|0,0:0|0:0,0:0:0:0:
418,286,81379,2,0,B|370:281|342:242|342:242|313:203|265:198,2,179.999995231629,2|2|10,0:0|0:0|0:0,0:0:0:0:
482,223,82241,1,0,0:0:0:0:
114,306,82413,37,4,0:0:0:0:
103,316,82758,22,0,P|57:256|112:147,1,179.999995231629,4|2,0:0|0:0,0:0:0:0:
236,61,83275,1,0,0:0:0:0:
321,32,83448,2,0,P|325:75|292:129,1,89.9999976158143,8|0,0:0|0:0,0:0:0:0:
341,349,83793,2,0,P|337:306|370:252,1,89.9999976158143,2|0,0:0|0:0,0:0:0:0:
422,44,84137,2,0,P|457:108|426:206,2,179.999995231629,2|2|10,0:0|0:0|0:0,0:0:0:0:
361,127,84999,1,0,0:0:0:0:
181,160,85172,1,0,0:0:0:0:
27,62,85344,1,0,0:0:0:0:
161,269,85517,5,0,0:0:0:0:
161,269,85862,2,0,P|230:288|325:229,1,179.999995231629,0|10,0:0|0:0,0:0:0:0:
375,165,86379,1,0,0:0:0:0:
430,235,86551,2,0,P|472:211|522:208,1,89.9999976158143,2|0,0:0|0:0,0:0:0:0:
213,62,86896,2,0,B|187:112|187:112|114:130|58:70,1,179.999995231629,2|0,0:0|0:0,0:0:0:0:
295,111,87413,1,0,0:0:0:0:
295,111,87586,2,0,B|321:61|321:61|394:43|450:103,1,179.999995231629,10|8,0:0|0:0,0:0:0:0:
385,358,88103,1,8,0:0:0:0:
464,170,88275,70,2,P|424:218|294:188,1,179.999995231629,0|0,0:0|0:0,0:0:0:0:
232,173,88793,1,0,0:0:0:0:
240,263,88965,2,2,P|155:245|90:304,1,179.999995231629,8|0,0:0|0:0,0:0:0:0:
180,337,89482,1,0,0:0:0:0:
401,263,89655,2,2,P|408:212|455:121,1,134.999996423721,0|0,0:0|2:0,0:0:0:0:
479,73,89999,2,2,P|449:44|357:52,1,134.999996423721,0|0,0:0|2:0,0:0:0:0:
308,103,90344,2,2,P|254:112|154:38,1,179.999995231629,8|0,0:0|0:0,0:0:0:0:
156,43,90862,1,0,0:0:0:0:
48,221,91034,6,2,L|234:204,1,179.999995231629,0|0,0:0|0:0,0:0:0:0:
317,196,91551,1,0,0:0:0:0:
370,268,91724,2,2,B|363:311|363:311|327:341,1,89.9999976158143,8|0,0:0|0:0,0:0:0:0:
263,125,92068,2,2,B|270:82|270:82|306:52,1,89.9999976158143,0|0,0:0|0:0,0:0:0:0:
171,343,92413,2,2,P|105:323|81:254,1,134.999996423721,0|0,0:0|2:0,0:0:0:0:
70,188,92758,2,2,P|136:208|160:277,1,134.999996423721,0|0,0:0|2:0,0:0:0:0:
80,266,93103,2,2,P|70:186|97:127,1,134.999996423721,8|0,0:0|2:0,0:0:0:0:
330,49,93448,37,4,0:0:0:0:
345,48,93793,22,2,P|393:68|398:188,1,179.999995231629,4|0,0:0|0:0,0:0:0:0:
336,317,94310,1,0,0:0:0:0:
248,338,94482,2,2,P|251:285|283:246,1,89.9999976158143,8|0,0:0|0:0,0:0:0:0:
190,205,94827,2,2,P|229:169|279:164,1,89.9999976158143,0|0,0:0|0:0,0:0:0:0:
496,57,95172,2,2,P|450:73|365:46,1,134.999996423721,0|0,0:0|2:0,0:0:0:0:
300,80,95517,2,2,P|237:56|173:72,1,134.999996423721,0|0,0:0|2:0,0:0:0:0:
114,24,95862,2,2,B|80:41|32:26|32:26|60:76|42:129,1,179.999995231629,8|0,0:0|0:0,0:0:0:0:
45,118,96379,1,0,0:0:0:0:
61,317,96551,21,8,0:0:0:0:
201,141,96724,1,0,0:0:0:0:
218,155,96810,1,0,0:0:0:0:
229,174,96896,1,8,0:0:0:0:
347,344,97068,1,0,0:0:0:0:
330,330,97154,1,0,0:0:0:0:
319,311,97241,6,0,P|311:283|311:262,1,44.9999988079071,8|0,0:0|0:0,0:0:0:0:
382,231,97413,2,0,P|380:208|373:187,1,44.9999988079071,8|0,0:0|0:0,0:0:0:0:
302,151,97586,2,0,P|294:123|294:102,1,44.9999988079071,8|0,0:0|0:0,0:0:0:0:
365,71,97758,2,0,P|363:48|356:27,1,44.9999988079071,8|0,0:0|0:0,0:0:0:0:
282,35,97931,1,8,0:0:0:0:
250,36,98017,1,0,0:0:0:0:
219,38,98103,1,0,0:0:0:0:
187,40,98189,1,0,0:0:0:0:
156,41,98275,1,8,0:0:0:0:
124,43,98362,1,0,0:0:0:0:
93,45,98448,1,0,0:0:0:0:
61,46,98534,1,0,0:0:0:0:
30,49,98620,1,0,1:0:0:0:
66,253,98793,1,8,0:0:0:0:
256,324,98965,1,8,0:0:0:0:
446,253,99137,1,8,0:0:0:0:
482,49,99310,6,2,L|336:67,1,134.999996423721,2|2,0:0|2:0,0:0:0:0:
348,65,99999,6,0,P|296:68|237:56,1,99.0000003986359,10|2,0:0|0:0,0:0:0:0:
78,196,100344,2,0,P|130:193|189:205,1,99.0000003986359,2|2,0:0|0:0,0:0:0:0:
462,170,100689,2,0,P|402:203|366:276,1,148.500000597954,0|0,0:0|2:0,0:0:0:0:
346,353,101034,2,0,P|299:333|247:325,1,99.0000003986359,0|0,0:0|2:0,0:0:0:0:
50,104,101379,2,0,P|105:125|186:90,1,148.500000597954,8|0,0:0|2:0,0:0:0:0:
231,26,101724,2,0,P|279:8|334:18,1,99.0000003986359,0|0,0:0|2:0,0:0:0:0:
354,303,102068,70,2,P|295:304|271:236,1,134.999996423721,0|2,0:0|2:0,0:0:0:0:
269,241,102758,6,0,P|278:194|316:149,1,99.0000003986359,10|2,0:0|0:0,0:0:0:0:
488,23,103103,2,0,P|479:70|441:115,1,99.0000003986359,2|2,0:0|0:0,0:0:0:0:
298,331,103448,2,0,P|235:326|142:345,1,148.500000597954,0|0,0:0|2:0,0:0:0:0:
71,335,103793,2,0,P|29:323|-30:329,1,99.0000003986359,0|0,0:0|2:0,0:0:0:0:
61,148,104137,2,0,P|81:99|171:33,1,148.500000597954,8|0,0:0|2:0,0:0:0:0:
231,23,104482,1,0,0:0:0:0:
381,116,104655,69,0,0:0:0:0:
478,44,104827,1,0,0:0:0:0:
363,244,104999,1,0,0:0:0:0:
253,196,105171,1,0,0:0:0:0:
483,232,105344,1,0,0:0:0:0:
497,351,105516,5,10,0:0:0:0:
497,351,105689,1,2,0:0:0:0:
62,290,105862,1,10,0:0:0:0:
62,290,106035,1,2,0:0:0:0:
381,116,106206,2,0,P|411:85|411:21,1,99.0000003986359,2|2,0:0|0:0,0:0:0:0:
437,213,106551,2,0,P|394:235|346:225,1,99.0000003986359,2|2,0:0|0:0,0:0:0:0:
63,33,106896,2,0,P|134:35|171:106,1,148.500000597954,8|0,0:0|2:0,0:0:0:0:
129,169,107241,2,0,P|58:167|21:96,1,148.500000597954,0|0,0:0|2:0,0:0:0:0:
96,101,107586,37,0,1:0:0:0:
362,77,107758,1,0,0:0:0:0:
383,71,107844,1,0,0:0:0:0:
405,66,107931,1,8,0:0:0:0:
188,307,108103,1,0,0:0:0:0:
167,301,108189,1,0,0:0:0:0:
145,296,108275,6,0,L|91:280,1,44.9999988079071,8|0,0:0|0:0,0:0:0:0:
185,225,108448,2,0,L|239:209,1,44.9999988079071,8|0,0:0|0:0,0:0:0:0:
102,205,108620,2,0,L|48:189,1,44.9999988079071,8|0,0:0|0:0,0:0:0:0:
142,134,108793,2,0,L|196:118,1,44.9999988079071,8|0,0:0|0:0,0:0:0:0:
47,110,108965,69,8,0:0:0:0:
271,55,109138,1,0,0:0:0:0:
293,52,109224,1,0,0:0:0:0:
312,40,109311,1,8,0:0:0:0:
459,154,109482,1,0,0:0:0:0:
450,174,109568,1,0,0:0:0:0:
451,197,109655,1,8,0:0:0:0:
388,327,109827,1,8,0:0:0:0:
327,144,109999,1,8,0:0:0:0:
211,354,110172,1,0,0:0:0:0:
152,71,110344,22,2,P|118:52|23:83,1,134.999996423721,2|2,0:0|2:0,0:0:0:0:
29,75,111034,6,0,L|6:184,1,99.0000003986359,10|2,0:0|0:0,0:0:0:0:
195,327,111379,2,0,L|171:218,1,99.0000003986359,2|2,0:0|0:0,0:0:0:0:
282,47,111724,2,0,P|299:97|391:134,1,148.500000597954,0|0,0:0|2:0,0:0:0:0:
430,70,112068,2,0,B|481:75|481:75|528:130,1,99.0000003986359,0|0,0:0|2:0,0:0:0:0:
385,296,112413,2,0,P|317:279|242:313,1,148.500000597954,8|0,0:0|2:0,0:0:0:0:
179,265,112758,2,0,P|131:281|78:270,1,99.0000003986359,0|0,0:0|2:0,0:0:0:0:
34,45,113103,70,2,L|168:66,1,134.999996423721,0|2,0:0|2:0,0:0:0:0:
167,65,113793,6,0,P|215:73|280:63,1,99.0000003986359,10|2,0:0|0:0,0:0:0:0:
379,247,114137,2,0,P|349:284|325:345,1,99.0000003986359,2|2,0:0|0:0,0:0:0:0:
268,179,114482,2,0,P|341:154|409:118,1,148.500000597954,0|0,0:0|2:0,0:0:0:0:
331,128,114827,2,0,P|334:84|351:28,1,99.0000003986359,0|0,0:0|2:0,0:0:0:0:
165,155,115172,2,0,P|81:149|59:88,1,148.500000597954,8|0,0:0|2:0,0:0:0:0:
93,158,115517,2,0,P|75:208|60:283,1,99.0000003986359,0|0,0:0|0:0,0:0:0:0:
300,342,115862,69,0,0:0:0:0:
449,288,116034,1,0,0:0:0:0:
291,86,116207,1,0,0:0:0:0:
203,218,116379,1,0,0:0:0:0:
443,130,116551,6,0,B|461:81|461:81|447:28,1,99.0000003986359,10|2,0:0|0:0,0:0:0:0:
90,169,116896,2,0,B|72:218|72:218|86:271,1,99.0000003986359,2|2,0:0|0:0,0:0:0:0:
376,337,117241,2,0,L|488:357,1,99.0000003986359,2|2,0:0|0:0,0:0:0:0:
227,37,117586,2,0,L|115:57,1,99.0000003986359,2|2,0:0|0:0,0:0:0:0:
343,213,117931,2,0,P|392:198|420:98,1,148.500000597954,8|0,0:0|2:0,0:0:0:0:
272,172,118275,2,0,P|260:221|333:296,1,148.500000597954,0|0,0:0|2:0,0:0:0:0:
340,129,118620,37,0,1:0:0:0:
167,42,118793,1,0,0:0:0:0:
144,40,118879,1,0,0:0:0:0:
121,38,118965,1,8,0:0:0:0:
49,269,119137,1,0,0:0:0:0:
72,267,119223,1,0,0:0:0:0:
95,265,119310,6,0,L|144:258,1,44.9999988079071,8|0,0:0|0:0,0:0:0:0:
203,316,119482,2,0,L|252:309,1,44.9999988079071,8|0,0:0|0:0,0:0:0:0:
292,235,119655,2,0,L|341:228,1,44.9999988079071,8|0,0:0|0:0,0:0:0:0:
400,286,119827,2,0,L|449:279,1,44.9999988079071,8|0,0:0|0:0,0:0:0:0:
500,214,119999,69,0,0:0:0:0:
378,48,120172,1,0,0:0:0:0:
356,40,120258,1,0,0:0:0:0:
333,40,120344,1,8,0:0:0:0:
62,167,120517,1,0,0:0:0:0:
84,175,120603,1,0,0:0:0:0:
107,175,120689,1,8,0:0:0:0:
256,192,120775,12,4,121379,1:0:0:0:
450,57,121724,70,0,P|437:111|325:99,1,179.999995231629,2|8,0:0|0:0,0:0:0:0:
246,78,122241,1,0,0:0:0:0:
204,157,122413,2,0,P|156:163|106:188,1,89.9999976158143,2|0,0:0|0:0,0:0:0:0:
333,264,122758,2,0,B|379:275|419:248|419:248|459:221|506:233,2,179.999995231629,2|2|10,0:0|0:0|0:0,0:0:0:0:
293,344,123620,1,0,0:0:0:0:
361,177,123793,1,0,0:0:0:0:
470,320,123965,1,0,0:0:0:0:
133,186,124137,70,0,P|77:148|101:37,1,179.999995231629,0|2,0:0|0:0,0:0:0:0:
89,46,124655,1,0,0:0:0:0:
217,228,124827,2,0,P|233:271|218:321,1,89.9999976158143,8|0,0:0|0:0,0:0:0:0:
295,160,125172,2,0,P|279:117|294:67,1,89.9999976158143,2|0,0:0|0:0,0:0:0:0:
466,322,125517,2,0,B|412:337|412:337|341:329|325:240,2,179.999995231629,2|2|10,0:0|0:0|0:0,0:0:0:0:
416,251,126379,1,0,0:0:0:0:
44,128,126551,53,4,0:0:0:0:
37,115,126896,38,0,P|70:77|204:78,1,179.999995231629,4|2,0:0|0:0,0:0:0:0:
374,173,127413,1,0,0:0:0:0:
308,235,127586,2,0,P|283:192|295:138,1,89.9999976158143,8|0,0:0|0:0,0:0:0:0:
440,111,127931,2,0,P|465:154|453:208,1,89.9999976158143,2|0,0:0|0:0,0:0:0:0:
227,299,128275,2,0,P|186:235|182:162,1,134.999996423721,2|0,0:0|0:0,0:0:0:0:
190,157,128620,2,0,B|200:128|200:128|190:55,1,89.9999976158143,2|0,0:0|0:0,0:0:0:0:
89,187,128965,1,10,0:0:0:0:
227,299,129137,1,0,0:0:0:0:
371,194,129310,1,0,0:0:0:0:
371,194,129655,70,0,P|310:194|225:284,1,179.999995231629,0|2,0:0|0:0,0:0:0:0:
228,272,130172,1,0,0:0:0:0:
443,246,130344,2,0,L|466:151,1,89.9999976158143,10|0,0:0|0:0,0:0:0:0:
286,43,130689,2,0,L|309:138,1,89.9999976158143,2|0,0:0|0:0,0:0:0:0:
212,108,131034,2,0,P|152:68|38:83,1,179.999995231629,2|0,0:0|0:0,0:0:0:0:
81,161,131551,1,0,0:0:0:0:
48,77,131724,2,0,L|117:258,1,179.999995231629,10|0,0:0|0:0,0:0:0:0:
411,313,132241,1,0,0:0:0:0:
496,339,132413,6,2,P|496:289|474:250,1,89.9999976158143,0|0,0:0|0:0,0:0:0:0:
340,89,132758,2,2,P|340:139|362:178,1,89.9999976158143,0|0,0:0|0:0,0:0:0:0:
425,115,133103,2,2,P|422:53|306:7,1,179.999995231629,8|0,0:0|0:0,0:0:0:0:
186,239,133620,1,0,0:0:0:0:
128,307,133793,2,2,P|100:263|122:176,1,134.999996423721,0|0,0:0|2:0,0:0:0:0:
173,116,134137,2,2,P|201:160|179:247,1,134.999996423721,0|0,0:0|2:0,0:0:0:0:
115,185,134482,2,2,P|87:141|145:29,1,179.999995231629,8|0,0:0|0:0,0:0:0:0:
380,61,134999,1,0,0:0:0:0:
457,107,135172,70,2,L|554:90,1,89.9999976158143,0|0,0:0|0:0,0:0:0:0:
360,200,135517,2,2,L|263:183,1,89.9999976158143,0|0,0:0|0:0,0:0:0:0:
436,348,135862,2,2,B|454:320|454:320|453:291|427:256,1,89.9999976158143,8|0,0:0|0:0,0:0:0:0:
300,19,136206,2,2,B|282:47|282:47|283:76|309:111,1,89.9999976158143,0|0,0:0|0:0,0:0:0:0:
311,328,136551,2,2,P|263:298|176:307,1,134.999996423721,0|0,0:0|2:0,0:0:0:0:
68,291,136896,2,2,P|117:264|153:184,1,134.999996423721,0|0,0:0|2:0,0:0:0:0:
221,99,137241,2,2,P|219:155|270:226,1,134.999996423721,8|0,0:0|2:0,0:0:0:0:
471,72,137586,53,4,0:0:0:0:
476,86,137931,38,2,L|461:196,1,89.9999976158143,4|0,0:0|0:0,0:0:0:0:
338,337,138275,2,2,P|287:335|254:300,1,89.9999976158143,0|0,0:0|0:0,0:0:0:0:
205,61,138620,2,2,P|251:54|301:18,1,89.9999976158143,8|0,0:0|0:0,0:0:0:0:
215,195,138965,2,2,P|177:172|133:166,1,89.9999976158143,0|0,0:0|0:0,0:0:0:0:
426,275,139310,2,2,P|451:229|419:147,1,134.999996423721,0|0,0:0|2:0,0:0:0:0:
360,0,139655,2,2,P|333:59|359:120,1,134.999996423721,0|0,0:0|2:0,0:0:0:0:
412,60,139999,2,2,B|333:61|333:61|267:69|256:140,1,179.999995231629,8|0,0:0|0:0,0:0:0:0:
260,121,140517,1,0,0:0:0:0:
359,341,140689,5,0,1:0:0:0:
172,290,140862,1,0,0:0:0:0:
158,272,140948,1,0,0:0:0:0:
144,254,141034,1,8,0:0:0:0:
455,206,141206,1,0,0:0:0:0:
441,188,141292,1,0,0:0:0:0:
427,170,141379,6,0,L|396:120,1,44.9999988079071,8|0,0:0|0:0,0:0:0:0:
328,161,141551,2,0,L|297:111,1,44.9999988079071,8|0,0:0|0:0,0:0:0:0:
272,236,141724,2,0,L|241:186,1,44.9999988079071,8|0,0:0|0:0,0:0:0:0:
175,234,141896,2,0,L|144:184,1,44.9999988079071,8|0,0:0|0:0,0:0:0:0:
118,305,142068,69,0,0:0:0:0:
359,341,142241,1,0,0:0:0:0:
381,342,142327,1,0,0:0:0:0:
403,340,142413,1,8,0:0:0:0:
257,123,142586,1,0,0:0:0:0:
246,103,142672,1,0,0:0:0:0:
234,86,142758,1,8,0:0:0:0:
256,192,142844,12,4,143448,1:0:0:0:
88,268,154482,85,4,0:0:0:0:
173,44,154999,1,0,0:0:0:0:
183,53,155172,2,0,P|223:97|219:139,1,89.9999976158143,2|0,0:0|0:0,0:0:0:0:
273,223,155689,2,0,P|291:166|329:148,1,89.9999976158143,2|0,0:0|0:0,0:0:0:0:
314,151,156206,1,0,0:0:0:0:
405,294,156551,2,0,L|386:343,1,44.9999988079071,2|2,0:0|0:0,0:0:0:0:
123,335,156896,2,0,L|107:294,1,44.9999988079071,2|0,0:0|0:0,0:0:0:0:
70,169,157241,5,0,0:0:0:0:
75,157,157413,2,0,P|120:138|174:152,1,89.9999976158143
299,191,157931,2,0,P|254:210|200:196,1,89.9999976158143,2|0,0:0|0:0,0:0:0:0:
247,128,158448,2,0,B|257:99|257:99|246:34,1,89.9999976158143,2|0,0:0|0:0,0:0:0:0:
418,158,158965,2,0,L|431:207,1,44.9999988079071,2|0,0:0|0:0,0:0:0:0:
380,300,159310,2,0,L|367:251,1,44.9999988079071,2|2,0:0|0:0,0:0:0:0:
456,335,159655,1,2,0:0:0:0:
111,59,159999,70,0,L|53:43,1,44.9999988079071
227,139,160344,2,0,L|285:123,1,44.9999988079071
73,189,160689,2,0,P|58:213|53:233,1,44.9999988079071,2|0,0:0|0:0,0:0:0:0:
160,297,161034,2,0,P|146:272|131:257,1,44.9999988079071,0|2,0:0|0:0,0:0:0:0:
210,367,161379,2,0,P|238:333|244:286,1,89.9999976158143,0|2,0:0|0:0,0:0:0:0:
243,135,161896,2,0,P|215:169|209:216,1,89.9999976158143,0|2,0:0|0:0,0:0:0:0:
326,93,162413,2,0,L|367:67,1,44.9999988079071,2|0,0:0|0:0,0:0:0:0:
248,43,162758,1,0,0:0:0:0:
74,318,165517,6,0,P|142:330|204:289,1,135.000001573563
195,152,166034,1,0,0:0:0:0:
195,152,166206,2,0,L|187:230,1,67.5000007867814
276,107,166551,2,0,L|284:29,1,67.5000007867814
70,58,166896,70,0,B|121:55|121:55|156:69|156:69|216:65,1,135.000001573563
107,138,167413,2,0,P|100:172|82:203,1,67.5000007867814
124,311,167758,2,0,P|131:277|149:246,1,67.5000007867814
206,305,168103,1,0,0:0:0:0:
275,347,168275,6,0,B|306:308|306:308|417:301,1,161.999990764618
447,154,168793,2,0,P|421:181|408:225,1,80.9999953823091
377,115,169137,2,0,P|404:89|448:76,1,80.9999953823091
338,178,169482,1,0,0:0:0:0:
316,53,169655,70,0,P|261:82|167:55,1,161.999990764618
62,190,170172,1,0,0:0:0:0:
105,123,170344,2,0,L|79:42,1,80.9999953823091
19,258,170689,2,0,L|45:339,1,80.9999953823091
338,328,171034,5,0,0:0:0:0:
424,200,171206,1,8,0:3:0:0:
425,177,171293,1,4,0:3:0:0:
426,154,171379,1,4,0:3:0:0:
338,328,171551,1,0,0:0:0:0:
428,63,171724,2,0,L|320:81,1,89.9999976158143
185,179,172068,2,0,L|293:161,1,89.9999976158143
147,46,172413,69,0,0:0:0:0:
101,261,172586,1,8,0:3:0:0:
107,282,172672,1,4,0:3:0:0:
114,303,172758,1,4,0:3:0:0:
147,46,172931,1,0,0:0:0:0:
314,184,173103,2,0,B|363:185|363:185|404:146,1,89.9999976158143
248,336,173448,2,0,B|199:335|199:335|158:374,1,89.9999976158143
480,189,173793,5,8,0:3:0:0:
478,158,173879,1,4,0:3:0:0:
470,128,173965,1,4,0:3:0:0:
455,100,174051,1,4,0:3:0:0:
434,77,174137,1,8,0:3:0:0:
408,59,174224,1,4,0:3:0:0:
379,48,174310,1,4,0:3:0:0:
347,43,174396,1,4,0:3:0:0:
316,46,174482,54,0,P|289:49|266:61,1,44.9999988079071,8|0,0:0|0:0,0:0:0:0:
215,151,174655,2,0,P|242:148|265:136,1,44.9999988079071,8|0,0:0|0:0,0:0:0:0:
164,86,174827,2,0,P|137:89|114:101,1,44.9999988079071,8|0,0:0|0:0,0:0:0:0:
63,191,175000,2,0,P|90:188|113:176,1,44.9999988079071,8|0,0:0|0:0,0:0:0:0:
6,135,175172,1,0,0:0:0:0:
256,192,175258,12,8,176206,0:0:0:0:
71,48,176551,38,2,L|219:64,1,134.999996423721,2|2,0:0|2:0,0:0:0:0:
205,62,177241,6,0,P|218:116|194:169,1,99.0000003986359,10|2,0:0|0:0,0:0:0:0:
96,358,177586,2,0,P|135:320|193:314,1,99.0000003986359,2|2,0:0|0:0,0:0:0:0:
409,338,177931,2,0,P|356:322|320:239,1,148.500000597954,0|0,0:0|2:0,0:0:0:0:
271,157,178275,2,0,P|286:205|264:274,1,99.0000003986359,0|0,0:0|2:0,0:0:0:0:
81,68,178620,2,0,B|139:58|139:58|186:68|186:68|256:59,1,148.500000597954,8|0,0:0|2:0,0:0:0:0:
306,78,178965,2,0,L|416:58,1,99.0000003986359,0|0,0:0|2:0,0:0:0:0:
229,310,179310,70,2,B|197:284|197:284|96:295,1,134.999996423721,0|2,0:0|2:0,0:0:0:0:
103,294,179999,6,0,P|118:242|101:183,1,99.0000003986359,10|2,0:0|0:0,0:0:0:0:
233,35,180344,2,0,P|247:87|230:146,1,99.0000003986359,2|2,0:0|0:0,0:0:0:0:
294,343,180689,2,0,P|329:292|421:282,1,148.500000597954,0|0,0:0|2:0,0:0:0:0:
459,343,181034,2,0,L|418:251,1,99.0000003986359,0|0,0:0|2:0,0:0:0:0:
458,40,181379,2,0,P|426:92|341:76,1,148.500000597954,8|0,0:0|2:0,0:0:0:0:
285,28,181724,1,0,0:0:0:0:
206,308,181896,69,0,0:0:0:0:
90,148,182068,1,0,0:0:0:0:
251,32,182241,1,0,0:0:0:0:
176,312,182413,1,0,0:0:0:0:
60,151,182585,1,0,0:0:0:0:
221,35,182758,6,0,B|225:84|225:84|198:128,1,99.0000003986359,10|2,0:0|0:0,0:0:0:0:
368,334,183103,2,0,B|364:285|364:285|391:241,1,99.0000003986359,2|2,0:0|0:0,0:0:0:0:
485,96,183448,1,2,0:0:0:0:
295,154,183620,1,2,0:0:0:0:
489,84,183793,1,2,0:0:0:0:
295,154,183965,1,2,0:0:0:0:
493,72,184137,2,0,B|489:123|489:123|466:163|488:246,1,148.500000597954,8|0,0:0|2:0,0:0:0:0:
275,293,184482,2,0,B|279:242|279:242|302:202|280:119,1,148.500000597954,0|0,0:0|2:0,0:0:0:0:
242,75,184827,37,0,1:0:0:0:
86,153,184999,1,0,0:0:0:0:
66,165,185086,1,0,0:0:0:0:
50,181,185172,1,8,0:0:0:0:
189,281,185344,1,0,3:0:0:0:
189,304,185431,1,0,3:0:0:0:
195,326,185517,6,0,P|202:344|214:370,1,44.9999988079071,8|0,0:0|0:0,0:0:0:0:
278,306,185689,2,0,P|297:308|325:311,1,44.9999988079071,8|0,0:0|0:0,0:0:0:0:
301,223,185862,2,0,P|313:207|329:184,1,44.9999988079071,8|0,0:0|0:0,0:0:0:0:
242,161,186034,2,0,P|235:142|223:117,1,44.9999988079071,8|0,0:0|0:0,0:0:0:0:
159,182,186206,69,0,0:0:0:0:
388,89,186379,1,0,0:0:0:0:
409,83,186465,1,0,0:0:0:0:
430,77,186551,1,8,0:0:0:0:
124,58,186724,1,0,0:0:0:0:
103,52,186810,1,0,0:0:0:0:
82,46,186896,1,8,0:0:0:0:
45,268,187068,1,8,0:0:0:0:
256,216,187241,1,0,0:0:0:0:
467,268,187413,1,8,0:0:0:0:
430,46,187586,22,2,P|376:44|292:72,1,134.999996423721,2|2,0:0|2:0,0:0:0:0:
299,67,188275,6,0,P|252:81|198:80,1,99.0000003986359,10|2,0:0|0:0,0:0:0:0:
351,292,188620,2,0,P|363:244|389:202,1,99.0000003986359,10|2,0:0|0:0,0:0:0:0:
265,340,188965,2,0,P|245:283|154:251,1,148.500000597954,0|0,0:0|2:0,0:0:0:0:
100,290,189310,2,0,P|150:259|173:224,1,99.0000003986359,0|0,0:0|2:0,0:0:0:0:
401,74,189655,2,0,L|242:44,1,148.500000597954,8|0,0:0|2:0,0:0:0:0:
163,112,189999,2,0,B|211:91|211:91|230:48,1,99.0000003986359,0|0,0:0|2:0,0:0:0:0:
38,201,190344,70,2,L|19:350,1,134.999996423721,0|2,0:0|2:0,0:0:0:0:
20,334,191034,6,0,P|65:320|133:326,1,99.0000003986359,10|2,0:0|0:0,0:0:0:0:
461,261,191379,2,0,P|416:275|348:269,1,99.0000003986359,2|2,0:0|0:0,0:0:0:0:
268,41,191724,2,0,P|287:92|245:192,1,148.500000597954,0|0,0:0|2:0,0:0:0:0:
179,327,192068,2,0,P|180:278|203:235,1,99.0000003986359,0|0,0:0|2:0,0:0:0:0:
44,77,192413,2,0,L|222:112,1,148.500000597954,8|0,0:0|2:0,0:0:0:0:
269,122,192758,1,0,0:0:0:0:
433,155,192931,69,0,0:0:0:0:
509,60,193103,1,0,0:0:0:0:
246,232,193275,1,0,0:0:0:0:
170,137,193447,1,0,0:0:0:0:
386,375,193620,1,0,0:0:0:0:
462,280,193793,6,0,B|477:232|477:232|455:175,1,99.0000003986359,10|2,0:0|0:0,0:0:0:0:
153,30,194137,2,0,B|138:78|138:78|160:135,1,99.0000003986359,2|2,0:0|0:0,0:0:0:0:
351,84,194482,1,2,0:0:0:0:
132,251,194655,1,2,0:0:0:0:
309,87,194827,1,2,0:0:0:0:
177,254,195000,1,2,0:0:0:0:
368,333,195172,2,0,B|416:308|416:308|434:254|396:207,1,148.500000597954,8|0,0:0|2:0,0:0:0:0:
330,156,195517,2,0,B|309:105|309:105|330:53|376:44,1,148.500000597954,0|0,0:0|2:0,0:0:0:0:
453,68,195862,37,0,1:0:0:0:
134,176,196034,1,0,0:0:0:0:
111,175,196120,1,0,0:0:0:0:
88,174,196206,1,8,0:0:0:0:
197,335,196379,1,0,0:0:0:0:
215,321,196465,1,0,0:0:0:0:
234,307,196551,6,0,L|273:275,1,44.9999988079071,8|0,0:0|0:0,0:0:0:0:
370,262,196724,2,0,L|338:223,1,44.9999988079071,8|0,0:0|0:0,0:0:0:0:
321,128,196896,2,0,L|282:160,1,44.9999988079071,8|0,0:0|0:0,0:0:0:0:
185,173,197069,2,0,L|217:212,1,44.9999988079071,8|0,0:0|0:0,0:0:0:0:
144,263,197241,69,0,0:0:0:0:
163,82,197413,1,0,0:0:0:0:
170,60,197499,1,0,0:0:0:0:
168,37,197586,1,8,0:0:0:0:
302,220,197758,1,0,0:0:0:0:
295,242,197844,1,0,0:0:0:0:
297,265,197931,1,8,0:0:0:0:
256,192,198017,12,4,198620,1:0:0:0:
46,288,198965,70,0,P|137:313|202:245,1,179.999995231629,2|8,0:0|0:0,0:0:0:0:
228,96,199482,1,0,0:0:0:0:
140,117,199654,2,0,P|163:160|211:184,1,89.9999976158143,2|0,0:0|0:0,0:0:0:0:
446,101,199999,2,0,P|378:103|291:178,2,179.999995231629,2|2|10,0:0|0:0|0:0,0:0:0:0:
476,186,200862,1,0,0:0:0:0:
326,29,201034,1,0,0:0:0:0:
143,204,201206,1,0,0:0:0:0:
128,114,201379,70,0,P|192:126|221:252,1,179.999995231629,0|2,0:0|0:0,0:0:0:0:
379,297,201896,1,0,0:0:0:0:
315,348,202068,2,0,P|296:305|306:261,1,89.9999976158143
410,64,202413,2,0,P|429:107|419:151,1,89.9999976158143,2|0,0:0|0:0,0:0:0:0:
346,114,202758,2,0,B|302:133|258:114|258:114|214:94|171:113,2,179.999995231629,2|2|10,0:0|0:0|0:0,0:0:0:0:
302,38,203620,1,0,0:0:0:0:
52,343,203793,53,4,0:0:0:0:
56,330,204137,38,0,P|105:302|235:312,1,179.999995231629,0|2,0:0|0:0,0:0:0:0:
293,247,204655,1,0,0:0:0:0:
354,312,204827,2,0,P|380:267|379:224,1,89.9999976158143,8|0,0:0|0:0,0:0:0:0:
352,63,205172,2,0,L|262:73,1,89.9999976158143,2|0,0:0|0:0,0:0:0:0:
192,127,205517,2,0,B|221:167|271:162|271:162|384:149,2,179.999995231629,2|2|10,0:0|0:0|0:0,0:0:0:0:
181,37,206379,1,0,0:0:0:0:
80,268,206551,1,0,0:0:0:0:
143,332,206724,1,0,0:0:0:0:
166,245,206896,70,0,B|195:214|195:214|269:191|339:257,1,179.999995231629,0|2,0:0|0:0,0:0:0:0:
476,317,207413,1,0,0:0:0:0:
404,362,207586,2,0,P|390:317|408:268,1,89.9999976158143,10|0,0:0|0:0,0:0:0:0:
384,53,207931,2,8,P|429:63|463:103,1,89.9999976158143,2|0,0:0|0:0,0:0:0:0:
307,85,208275,2,0,B|283:104|238:104|238:104|183:71|116:106,1,179.999995231629,2|0,0:0|0:0,0:0:0:0:
182,174,208793,1,0,0:0:0:0:
57,264,208965,2,0,B|81:245|126:245|126:245|181:278|248:243,1,179.999995231629,10|8,0:0|0:0,0:0:0:0:
460,112,209482,1,8,0:0:0:0:
494,28,209655,6,2,P|447:23|405:42,1,89.9999976158143,0|0,0:0|0:0,0:0:0:0:
283,129,209999,2,2,P|330:134|372:115,1,89.9999976158143,0|0,0:0|0:0,0:0:0:0:
224,59,210344,2,2,P|155:51|46:110,1,179.999995231629,8|0,0:0|0:0,0:0:0:0:
57,97,210862,1,0,0:0:0:0:
112,328,211034,2,2,P|160:318|201:239,1,134.999996423721,0|0,0:0|2:0,0:0:0:0:
303,171,211379,2,2,B|276:153|257:123|257:123|234:153|211:172,1,134.999996423721,0|0,0:0|2:0,0:0:0:0:
310,247,211724,2,2,P|337:307|447:304,1,179.999995231629,8|0,0:0|2:0,0:0:0:0:
440,309,212241,1,0,0:0:0:0:
460,52,212413,70,2,L|266:82,1,179.999995231629,0|0,0:0|0:0,0:0:0:0:
148,226,212931,1,0,0:0:0:0:
197,300,213103,2,2,B|230:266|230:266|235:205,1,89.9999976158143,8|0,0:0|0:0,0:0:0:0:
99,151,213448,2,2,B|65:184|65:184|60:245,1,89.9999976158143,0|0,0:0|0:0,0:0:0:0:
189,141,213793,2,2,P|243:151|345:127,1,134.999996423721,0|0,0:0|2:0,0:0:0:0:
390,110,214137,2,2,B|424:175|424:175|381:243,1,134.999996423721,0|0,0:0|2:0,0:0:0:0:
392,303,214482,2,2,B|434:303|458:266|458:266|491:214,1,134.999996423721,8|0,0:0|2:0,0:0:0:0:
292,48,214827,53,4,0:0:0:0:
279,41,215172,38,2,L|99:69,1,179.999995231629,4|0,0:0|0:0,0:0:0:0:
152,142,215689,1,0,0:0:0:0:
241,130,215862,2,2,L|351:111,1,89.9999976158143,8|0,0:0|0:0,0:0:0:0:
94,215,216206,2,2,L|-16:234,1,89.9999976158143,0|0,0:0|0:0,0:0:0:0:
350,368,216551,2,2,P|415:364|455:312,1,134.999996423721,0|0,0:0|2:0,0:0:0:0:
459,239,216896,2,2,P|422:184|358:177,1,134.999996423721,0|0,0:0|2:0,0:0:0:0:
293,209,217241,2,2,P|264:267|290:328,1,134.999996423721,8|0,0:0|2:0,0:0:0:0:
368,273,217586,1,0,0:0:0:0:
291,62,217758,1,0,0:0:0:0:
74,124,217931,5,0,1:0:0:0:
180,302,218103,1,0,0:0:0:0:
184,324,218189,1,0,0:0:0:0:
188,345,218275,1,8,0:0:0:0:
264,120,218448,1,0,0:0:0:0:
268,98,218534,1,0,0:0:0:0:
272,77,218620,6,0,L|281:28,1,44.9999988079071
378,155,218793,2,0,L|388:99,1,44.9999988079071,8|0,0:0|0:0,0:0:0:0:
259,255,218965,2,0,L|269:199,1,44.9999988079071,8|0,0:0|0:0,0:0:0:0:
154,177,219138,2,0,L|164:121,1,44.9999988079071,8|0,0:0|0:0,0:0:0:0:
177,51,219310,69,8,0:0:0:0:
147,61,219396,1,0,0:0:0:0:
116,63,219482,1,0,0:0:0:0:
85,56,219568,1,0,0:0:0:0:
58,41,219655,1,8,0:0:0:0:
74,68,219741,1,0,0:0:0:0:
83,98,219827,1,0,0:0:0:0:
84,129,219913,1,0,0:0:0:0:
76,160,219999,1,8,0:0:0:0:
65,340,220172,1,8,0:0:0:0:
213,181,220344,1,8,0:0:0:0:
399,353,220517,1,8,0:0:0:0:
471,77,220689,22,2,L|337:50,1,134.999996423721,2|2,0:0|2:0,0:0:0:0:
338,50,221379,6,0,P|296:68|217:59,1,99.0000003986359,10|2,0:0|0:0,0:0:0:0:
91,261,221724,2,0,L|109:154,1,99.0000003986359,2|2,0:0|0:0,0:0:0:0:
193,348,222068,2,0,P|229:300|332:285,1,148.500000597954,0|0,0:0|2:0,0:0:0:0:
382,317,222413,2,0,L|437:210,1,99.0000003986359,0|0,0:0|2:0,0:0:0:0:
404,34,222758,2,0,P|355:45|321:147,1,148.500000597954,8|0,0:0|2:0,0:0:0:0:
264,189,223103,2,0,L|200:94,1,99.0000003986359,0|0,0:0|2:0,0:0:0:0:
70,252,223448,70,2,L|102:119,1,134.999996423721,0|2,0:0|2:0,0:0:0:0:
101,120,224137,6,0,L|-4:140,1,99.0000003986359,10|2,0:0|0:0,0:0:0:0:
180,336,224482,2,0,L|285:316,1,99.0000003986359,2|2,0:0|0:0,0:0:0:0:
434,81,224827,2,0,P|376:100|364:203,1,148.500000597954,8|0,0:0|2:0,0:0:0:0:
394,246,225172,2,0,P|430:205|429:152,1,99.0000003986359,0|0,0:0|2:0,0:0:0:0:
253,42,225517,2,0,L|76:64,1,148.500000597954,8|0,0:0|0:0,0:0:0:0:
25,73,225862,1,0,0:0:0:0:
109,267,226034,69,0,0:0:0:0:
162,137,226206,1,0,0:0:0:0:
249,250,226379,1,0,0:0:0:0:
484,69,226551,1,0,0:0:0:0:
397,182,226724,1,0,0:0:0:0:
344,52,226896,5,10,0:0:0:0:
344,52,227068,1,2,0:0:0:0:
168,332,227241,1,2,0:0:0:0:
168,332,227413,1,2,0:0:0:0:
467,224,227586,2,0,P|479:171|461:130,1,99.0000003986359,2|2,0:0|0:0,0:0:0:0:
174,51,227931,2,0,P|162:104|180:145,1,99.0000003986359,2|2,0:0|0:0,0:0:0:0:
244,93,228275,2,0,L|86:99,1,148.500000597954,8|0,0:0|2:0,0:0:0:0:
206,227,228620,2,0,L|364:221,1,148.500000597954,0|0,0:0|2:0,0:0:0:0:
405,157,228965,37,0,1:0:0:0:
155,40,229137,1,0,0:0:0:0:
132,35,229224,1,0,0:0:0:0:
110,40,229310,1,8,0:0:0:0:
388,235,229482,1,0,0:0:0:0:
411,240,229569,1,0,0:0:0:0:
433,235,229655,6,0,P|455:223|470:210,1,44.9999988079071,8|0,0:0|0:0,0:0:0:0:
355,191,229827,2,0,P|333:203|318:216,1,44.9999988079071,8|0,0:0|0:0,0:0:0:0:
314,325,229999,2,0,P|336:313|351:300,1,44.9999988079071,8|0,0:0|0:0,0:0:0:0:
236,281,230171,2,0,P|214:293|199:306,1,44.9999988079071,8|0,0:0|0:0,0:0:0:0:
245,371,230344,69,0,0:0:0:0:
265,168,230517,1,0,0:0:0:0:
267,145,230603,1,0,0:0:0:0:
269,122,230689,1,8,0:0:0:0:
60,42,230862,1,0,0:0:0:0:
62,65,230948,1,0,0:0:0:0:
64,88,231034,1,8,0:0:0:0:
95,267,231206,1,8,0:0:0:0:
256,348,231379,1,0,0:0:0:0:
417,267,231551,1,8,0:0:0:0:
480,50,231724,22,2,P|420:32|344:30,1,134.999996423721,2|2,0:0|2:0,0:0:0:0:
332,46,232413,6,0,P|271:53|214:31,1,107.999993843079,10|2,0:0|0:0,0:0:0:0:
378,254,232758,2,0,P|439:261|496:239,1,107.999993843079,2|2,0:0|0:0,0:0:0:0:
69,338,233103,2,0,P|42:274|91:183,1,161.999990764618,0|0,0:0|2:0,0:0:0:0:
136,129,233448,2,0,L|262:165,1,107.999993843079,0|0,0:0|2:0,0:0:0:0:
488,97,233793,2,0,B|521:141|521:141|513:199|447:232,1,161.999990764618,8|0,0:0|2:0,0:0:0:0:
430,304,234137,2,0,P|386:275|376:214,1,107.999993843079,0|0,0:0|2:0,0:0:0:0:
357,33,234482,70,2,P|312:51|227:31,1,134.999996423721,0|2,0:0|2:0,0:0:0:0:
212,46,235172,6,0,P|154:33|104:36,1,107.999993843079,10|2,0:0|0:0,0:0:0:0:
103,292,235517,2,0,L|122:166,1,107.999993843079,2|2,0:0|0:0,0:0:0:0:
334,209,235862,2,0,P|252:236|222:324,1,161.999990764618,0|0,0:0|2:0,0:0:0:0:
253,369,236206,2,0,P|256:315|203:247,1,107.999993843079,0|0,0:0|2:0,0:0:0:0:
40,40,236551,2,0,B|73:86|73:86|150:108|202:47,1,161.999990764618,0|0,0:0|2:0,0:0:0:0:
246,25,236896,1,0,0:0:0:0:
437,232,237068,69,0,0:0:0:0:
185,300,237241,1,0,0:0:0:0:
252,47,237413,1,0,0:0:0:0:
331,339,237586,1,0,0:0:0:0:
145,153,237759,1,0,0:0:0:0:
398,86,237931,6,0,B|450:87|450:87|499:120,1,107.999993843079,10|2,0:0|0:0,0:0:0:0:
164,317,238275,2,0,B|112:316|112:316|63:283,1,107.999993843079,2|2,0:0|0:0,0:0:0:0:
266,67,238620,1,2,0:0:0:0:
441,261,238793,1,2,0:0:0:0:
165,64,238965,1,2,0:0:0:0:
340,258,239138,1,2,0:0:0:0:
67,210,239310,2,0,P|106:169|223:173,1,161.999990764618,8|0,0:0|2:0,0:0:0:0:
293,136,239655,2,0,P|371:140|432:89,1,161.999990764618,0|0,0:0|2:0,0:0:0:0:
341,50,239999,37,0,1:0:0:0:
264,288,240172,1,0,0:0:0:0:
259,310,240258,1,0,0:0:0:0:
255,332,240344,1,8,0:0:0:0:
99,117,240517,1,0,0:0:0:0:
94,95,240603,1,0,0:0:0:0:
90,73,240689,6,0,L|80:22,1,44.9999988079071,8|0,0:0|0:0,0:0:0:0:
180,115,240862,2,0,L|190:166,1,44.9999988079071,8|0,0:0|0:0,0:0:0:0:
249,44,241034,2,0,L|239:-7,1,44.9999988079071,8|0,0:0|0:0,0:0:0:0:
333,93,241207,2,0,L|343:144,1,44.9999988079071,8|0,0:0|0:0,0:0:0:0:
412,29,241379,69,0,0:0:0:0:
392,260,241551,1,0,0:0:0:0:
394,282,241637,1,0,0:0:0:0:
402,303,241724,1,8,0:0:0:0:
110,303,241896,1,0,0:0:0:0:
118,282,241983,1,0,0:0:0:0:
120,260,242069,1,8,0:0:0:0:
256,192,242155,12,4,242758,1:0:0:0:
455,38,243103,70,0,P|416:108|311:67,1,179.999995231629,2|8,0:0|0:0,0:0:0:0:
151,76,243620,1,0,0:0:0:0:
81,133,243793,2,0,P|120:164|171:164,1,89.9999976158143,2|0,0:0|0:0,0:0:0:0:
435,263,244137,2,0,B|388:274|348:247|348:247|308:220|261:232,2,179.999995231629,2|2|10,0:0|0:0|0:0,0:0:0:0:
474,343,244999,1,0,0:0:0:0:
297,319,245172,1,0,0:0:0:0:
406,176,245344,1,0,0:0:0:0:
284,39,245517,70,0,P|232:42|212:152,1,179.999995231629,0|2,0:0|0:0,0:0:0:0:
78,285,246034,1,0,0:0:0:0:
140,349,246206,2,0,P|165:304|163:263,1,89.9999976158143,8|0,0:0|0:0,0:0:0:0:
262,264,246551,2,0,P|247:214|217:186,1,89.9999976158143,2|0,0:0|0:0,0:0:0:0:
288,21,246896,2,0,B|284:68|317:103|317:103|351:138|347:186,2,179.999995231629,2|2|10,0:0|0:0|0:0,0:0:0:0:
376,38,247758,1,0,0:0:0:0:
63,332,247931,53,4,0:0:0:0:
70,319,248275,38,0,B|99:279|99:279|163:254|229:301,1,179.999995231629,4|2,0:0|0:0,0:0:0:0:
299,187,248793,1,0,0:0:0:0:
330,353,248965,2,0,L|354:251,1,89.9999976158143
225,67,249310,2,0,B|200:63|200:63|161:73|148:115,1,89.9999976158143,2|0,0:0|0:0,0:0:0:0:
333,90,249655,2,0,P|378:95|466:53,1,134.999996423721,2|0,0:0|0:0,0:0:0:0:
476,46,249999,2,0,L|451:155,1,89.9999976158143,2|0,0:0|0:0,0:0:0:0:
437,298,250344,1,10,0:0:0:0:
261,192,250517,1,0,0:0:0:0:
60,238,250689,1,0,0:0:0:0:
60,238,251034,70,0,P|102:185|39:81,1,179.999995231629,0|2,0:0|0:0,0:0:0:0:
20,164,251551,1,0,0:0:0:0:
320,99,251724,2,0,P|369:95|431:75,1,89.9999976158143,10|0,0:0|0:0,0:0:0:0:
280,228,252068,2,0,P|236:216|191:213,1,89.9999976158143,2|0,0:0|0:0,0:0:0:0:
387,335,252413,2,0,B|402:306|402:306|481:261|446:159,1,179.999995231629,2|0,0:0|0:0,0:0:0:0:
430,60,252931,1,0,0:0:0:0:
430,60,253103,2,0,B|415:89|415:89|336:134|371:236,1,179.999995231629,2|8,0:0|0:0,0:0:0:0:
72,315,253620,1,8,0:0:0:0:
157,348,253793,6,2,P|164:306|132:245,1,99.0000003986359,0|0,0:0|0:0,0:0:0:0:
45,65,254137,2,2,P|77:92|146:94,1,99.0000003986359,0|0,0:0|0:0,3:0:0:0:
429,237,254482,2,2,P|385:178|256:190,1,198.000000797272,8|0,0:0|0:0,0:0:0:0:
269,179,254999,1,0,0:0:0:0:
332,382,255172,2,2,P|362:339|312:246,1,148.500000597954,0|0,0:0|2:0,0:0:0:0:
147,206,255517,2,2,P|117:249|167:342,1,148.500000597954,0|0,0:0|2:0,0:0:0:0:
227,269,255862,2,2,B|223:232|237:196|237:196|267:172|267:172|285:133|279:78,1,198.000000797272,8|0,0:0|0:0,0:0:0:0:
279,88,256379,1,0,0:0:0:0:
138,125,256551,70,2,P|91:141|43:136,1,99.0000003986359,0|0,0:0|0:0,0:0:0:0:
177,364,256896,2,2,P|186:315|214:276,1,99.0000003986359,0|0,0:0|0:0,3:0:0:0:
219,27,257241,2,2,P|256:59|276:103,1,99.0000003986359,8|0,0:0|0:0,0:0:0:0:
489,243,257586,2,2,P|442:259|394:254,1,99.0000003986359,0|0,0:0|0:0,3:0:0:0:
58,330,257931,2,10,P|46:258|94:204,1,148.500000597954,0|0,0:0|2:0,0:0:0:0:
166,158,258275,2,10,P|180:208|122:286,1,148.500000597954,0|0,0:0|2:0,0:0:0:0:
95,205,258620,2,2,P|80:154|138:76,1,148.500000597954,8|0,0:0|2:0,0:0:0:0:
429,43,258965,53,4,0:0:0:0:
439,55,259310,38,2,L|424:171,1,99.0000003986359,4|0,0:0|0:0,0:0:0:0:
332,349,259655,2,2,P|292:330|271:277,1,99.0000003986359,0|0,0:0|0:0,0:0:0:0:
223,75,259999,2,2,P|272:72|317:52,1,99.0000003986359,8|0,0:0|0:0,0:0:0:0:
165,210,260344,2,2,P|115:212|71:233,1,99.0000003986359,0|0,0:0|0:0,0:0:0:0:
406,276,260689,2,2,P|422:222|356:158,1,148.500000597954,0|0,0:0|2:0,0:0:0:0:
189,80,261034,2,2,P|227:120|316:95,1,148.500000597954,0|0,0:0|2:0,0:0:0:0:
256,54,261379,1,10,0:0:0:0:
61,309,261551,1,0,0:0:0:0:
256,356,261724,1,2,0:0:0:0:
424,251,261896,1,0,0:0:0:0:
203,24,262068,5,4,0:0:0:0:
256,192,262155,12,4,264827,0:0:0:0:
