osu file format v14

[General]
AudioFilename: 598568_Going-To-the-Store.mp3
AudioLeadIn: 0
PreviewTime: -1
Countdown: 1
SampleSet: None
StackLeniency: 0.7
Mode: 0
LetterboxInBreaks: 1
EpilepsyWarning: 1
WidescreenStoryboard: 1

[Editor]
DistanceSpacing: 1.1
BeatDivisor: 4
GridSize: 4
TimelineZoom: 1

[Metadata]
Title:Going To The Store
TitleUnicode:Going To The Store
Artist:Kmax
ArtistUnicode:Kmax
Creator:Sacorma
Version:Sunshine
Source:
Tags:
BeatmapID:670419
BeatmapSetID:298750

[Difficulty]
HPDrainRate:7
CircleSize:3
OverallDifficulty:7
ApproachRate:7
SliderMultiplier:1.4
SliderTickRate:1

[Events]
//Background and Video events
0,0,"Paradise bg.jpg",0,0
//Break Periods
//Storyboard Layer 0 (Background)
//Storyboard Layer 1 (Fail)
//Storyboard Layer 2 (Pass)
//Storyboard Layer 3 (Foreground)
//Storyboard Sound Samples

[TimingPoints]
1968,497.380462895417,4,1,0,100,1,0
9677,-133.333333333333,4,1,0,100,0,0
13814,-66.6666666666667,4,3,0,100,0,0
15968,-66.6666666666667,4,2,0,100,0,0
29766,-100,4,2,0,100,0,0
31718,-100,4,2,0,100,0,0
32071,-62.5,4,2,0,100,0,1
45516,-100,4,2,0,100,0,0
48141,-111.111111111111,4,2,0,100,0,0

[Colours]
Combo1 : 255,28,33
Combo2 : 136,255,28
Combo3 : 79,255,28
Combo4 : 99,75,207
Combo5 : 123,119,164

[HitObjects]
256,192,4330,12,0,9553,0:0:0:0:
148,244,13905,6,0,P|192:168|360:64,1,262.500010013581
92,128,15024,2,0,P|56:172|64:336,1,210.000008010865
192,308,15894,2,0,P|248:312|456:208,1,262.500010013581
156,140,17386,5,0,0:0:0:0:
156,140,17511,1,0,0:0:0:0:
156,140,17759,6,0,P|156:208|84:288,2,157.500006008148
156,140,18878,5,0,0:0:0:0:
304,184,19127,1,0,0:0:0:0:
156,140,19376,1,0,0:0:0:0:
216,96,19749,5,0,0:0:0:0:
312,60,20122,1,0,0:0:0:0:
388,112,20495,6,0,B|336:208|336:208|384:196|416:188|424:288|332:320,1,288.750011014939
76,172,21490,6,0,B|152:104|152:104|168:24,1,157.500006008148
200,268,22360,5,0,0:0:0:0:
200,268,22609,1,0,0:0:0:0:
44,40,22982,6,0,B|80:164|80:164|160:172,1,210.000008010865
128,144,23852,5,0,0:0:0:0:
152,120,23977,1,0,0:0:0:0:
176,96,24101,1,0,0:0:0:0:
324,172,24474,6,0,P|356:104|388:68,2,105.000004005432
136,276,25344,5,0,0:0:0:0:
216,136,25842,1,0,0:0:0:0:
84,104,26090,6,0,P|152:88|216:40,1,105.000004005432
204,296,26712,6,0,P|260:248|272:176,1,105.000004005432
356,88,27707,5,0,0:0:0:0:
356,88,27831,1,0,0:0:0:0:
176,72,28204,6,0,B|204:188|204:188|232:132|248:96|300:136|300:208|288:296,1,367.500014019013
144,264,29572,6,0,L|84:184,1,52.5000020027161
180,176,29945,2,0,L|220:100,1,70
288,144,30443,2,0,L|352:96,1,70
412,216,30940,2,0,L|456:220,1,35
280,284,31313,5,0,0:0:0:0:
280,284,31562,1,0,0:0:0:0:
280,284,31810,1,0,0:0:0:0:
164,184,32183,5,0,0:0:0:0:
204,112,32308,1,0,0:0:0:0:
264,48,32432,1,0,0:0:0:0:
384,84,32556,6,0,P|408:156|400:236,1,112
64,204,32805,5,0,0:0:0:0:
76,272,33054,1,0,0:0:0:0:
156,304,33302,1,0,0:0:0:0:
272,172,33676,6,0,P|332:96|332:28,1,168
64,92,34297,5,0,0:0:0:0:
116,60,34422,1,0,0:0:0:0:
192,52,34546,1,0,0:0:0:0:
160,168,34795,6,0,P|132:244|100:292,1,112
56,176,35292,6,0,B|116:320|116:320|152:256,1,224
272,180,36038,5,0,0:0:0:0:
272,180,36162,1,0,0:0:0:0:
272,180,36287,1,0,0:0:0:0:
272,180,36411,6,0,P|272:120|316:36,1,112
368,128,37033,6,0,P|436:108|512:112,1,112
256,264,37655,2,0,P|256:320|204:348,1,112
204,164,38401,6,0,P|136:120|104:76,3,112
272,48,39520,5,0,0:0:0:0:
272,48,39644,1,0,0:0:0:0:
272,48,39768,1,0,0:0:0:0:
412,108,40017,6,0,B|340:224|340:224|264:256,1,168
256,160,40763,5,0,0:0:0:0:
140,228,41012,1,0,0:0:0:0:
44,320,41261,1,0,0:0:0:0:
224,272,41758,6,0,B|288:312|372:200|372:196|408:252,1,168
464,220,42504,5,0,0:0:0:0:
464,220,42628,1,0,0:0:0:0:
336,144,42877,6,0,L|260:136,3,56
208,116,43623,6,0,P|132:152|104:272,1,168
256,216,44369,6,0,L|340:268,1,56
28,192,44742,5,0,0:0:0:0:
80,144,44991,1,0,0:0:0:0:
144,108,45115,1,0,0:0:0:0:
216,88,45240,1,0,0:0:0:0:
292,80,45364,1,0,0:0:0:0:
256,192,45737,12,0,47602,0:0:0:0:
136,128,48348,5,0,0:0:0:0:
136,128,48473,1,0,0:0:0:0:
192,224,48721,1,0,0:0:0:0:
192,224,48846,1,0,0:0:0:0:
280,308,49094,1,0,0:0:0:0:
280,308,49219,1,0,0:0:0:0:
404,336,49467,1,0,0:0:0:0:
404,336,49592,1,0,0:0:0:0:
384,68,50089,5,0,0:0:0:0:
292,124,50338,1,0,0:0:0:0:
204,200,50586,1,0,0:0:0:0:
100,104,50835,6,0,P|48:164|32:252,1,157.499995193482
316,68,52452,6,0,P|344:120|464:160,1,188.999994232178
156,128,54068,6,0,P|144:192|156:288,1,157.499995193482
288,156,55187,5,0,0:0:0:0:
288,156,55312,1,0,0:0:0:0:
376,96,55685,1,0,0:0:0:0:
376,96,55809,1,0,0:0:0:0:
456,224,56182,6,0,L|436:280,7,31.4999990386963
