osu file format v14

[General]
AudioFilename: 598568_Going-To-the-Store.mp3
AudioLeadIn: 0
PreviewTime: -1
Countdown: 1
SampleSet: None
StackLeniency: 0.7
Mode: 0
LetterboxInBreaks: 1
EpilepsyWarning: 1
WidescreenStoryboard: 0

[Editor]
DistanceSpacing: 1.1
BeatDivisor: 4
GridSize: 4
TimelineZoom: 1

[Metadata]
Title:Going To The Store
TitleUnicode:Going To The Store
Artist:Kmax
ArtistUnicode:Kmax
Creator:Sacorma
Version:Pro
Source:
Tags:
BeatmapID:670418
BeatmapSetID:298750

[Difficulty]
HPDrainRate:8
CircleSize:4
OverallDifficulty:9
ApproachRate:8
SliderMultiplier:1.4
SliderTickRate:1

[Events]
//Background and Video events
0,0,"Paradise bg.jpg",0,0
//Break Periods
//Storyboard Layer 0 (Background)
//Storyboard Layer 1 (Fail)
//Storyboard Layer 2 (Pass)
//Storyboard Layer 3 (Foreground)
//Storyboard Sound Samples

[TimingPoints]
1968,269.233358013058,4,1,0,100,1,0
13814,-66.6666666666667,4,3,0,100,0,0
15968,-100,4,2,0,100,0,0
29766,-66.6666666666667,4,2,0,100,0,0
31718,-100,4,2,0,100,0,0
32071,-90.9090909090909,4,2,0,100,0,1
45516,-66.6666666666667,4,2,0,100,0,0
48141,-111.111111111111,4,2,0,100,0,0

[Colours]
Combo1 : 255,28,33
Combo2 : 136,255,28
Combo3 : 79,255,28
Combo4 : 99,75,207
Combo5 : 123,119,164

[HitObjects]
112,204,352,6,0,P|120:144|168:52,2,140
192,152,1025,1,0,0:0:0:0:
192,152,1092,1,0,0:0:0:0:
192,152,1160,6,0,P|196:208|128:308,1,175
133,304,1698,5,0,0:0:0:0:
196,256,1900,1,0,0:0:0:0:
196,348,2035,1,0,0:0:0:0:
92,304,2237,1,0,0:0:0:0:
208,224,2371,1,0,0:0:0:0:
208,368,2506,1,0,0:0:0:0:
212,364,2708,6,0,P|272:332|372:208,1,210
363,225,3246,5,0,0:0:0:0:
363,225,3448,6,0,P|352:160|364:124,1,105
444,172,3852,2,0,P|448:224|428:296,1,105
363,225,4189,2,0,P|348:164|364:104,1,105
444,172,4525,2,0,P|456:224|424:296,1,105
444,172,4929,5,0,0:0:0:0:
316,252,5131,1,0,0:0:0:0:
472,292,5333,1,0,0:0:0:0:
340,148,5535,1,0,0:0:0:0:
388,340,5737,1,0,0:0:0:0:
444,172,5939,1,0,0:0:0:0:
316,252,6141,1,0,0:0:0:0:
316,252,6343,6,0,P|240:260|112:244,2,175
220,196,7218,6,0,P|280:180|440:204,1,210
424,197,7823,5,0,0:0:0:0:
408,280,7958,1,0,0:0:0:0:
392,364,8160,1,0,0:0:0:0:
392,364,8429,6,0,P|336:328|188:280,1,210
256,152,9035,1,0,0:0:0:0:
160,216,9237,6,0,P|124:180|92:28,1,210
168,104,9843,6,0,P|208:164|228:292,2,175
168,104,10718,5,0,0:0:0:0:
156,120,10785,1,0,0:0:0:0:
144,136,10852,1,0,0:0:0:0:
132,152,10920,1,0,0:0:0:0:
120,168,10987,1,0,0:0:0:0:
108,180,11121,6,0,L|76:220,2,35
108,176,11458,2,0,P|132:136|272:248,1,280
282,222,12198,5,0,0:0:0:0:
264,240,12333,1,0,0:0:0:0:
300,240,12535,1,0,0:0:0:0:
284,192,12670,1,0,0:0:0:0:
244,260,12871,1,0,0:0:0:0:
328,264,13073,1,0,0:0:0:0:
328,264,13275,6,0,P|352:308|340:376,1,105
204,308,13679,5,0,0:0:0:0:
172,288,13746,1,0,0:0:0:0:
136,264,13814,1,0,0:0:0:0:
96,236,13881,1,0,0:0:0:0:
56,208,14016,1,0,0:0:0:0:
16,180,14083,1,0,0:0:0:0:
16,180,14218,6,0,L|24:112,23,52.5000020027161
104,160,16170,1,0,0:0:0:0:
104,160,16237,1,0,0:0:0:0:
104,160,16304,6,0,P|144:120|256:56,1,175
300,180,16775,5,0,0:0:0:0:
208,308,16910,1,0,0:0:0:0:
208,308,16977,1,0,0:0:0:0:
208,308,17045,1,0,0:0:0:0:
208,308,17112,1,0,0:0:0:0:
208,308,17179,6,0,P|140:320|56:316,2,140
128,168,17852,1,0,0:0:0:0:
128,164,18054,6,0,P|160:104|208:24,1,140
276,160,18458,5,0,0:0:0:0:
276,160,18525,1,0,0:0:0:0:
276,160,18593,1,0,0:0:0:0:
104,272,18727,1,0,0:0:0:0:
276,160,18929,6,0,P|344:100|352:36,1,140
276,160,19333,6,0,P|256:196|264:216,4,35
276,160,19737,5,0,0:0:0:0:
296,168,19804,1,0,0:0:0:0:
320,180,19872,1,0,0:0:0:0:
348,192,19939,1,0,0:0:0:0:
348,192,20073,6,0,P|400:216|460:272,1,140
276,268,20545,5,0,0:0:0:0:
276,268,20612,1,0,0:0:0:0:
276,268,20679,1,0,0:0:0:0:
276,268,20747,1,0,0:0:0:0:
276,268,20814,6,0,P|236:228|200:76,1,210
198,83,21420,5,0,0:0:0:0:
92,144,21622,1,0,0:0:0:0:
228,184,21756,1,0,0:0:0:0:
112,52,21958,1,0,0:0:0:0:
152,224,22160,1,0,0:0:0:0:
198,83,22362,1,0,0:0:0:0:
198,83,22564,6,0,P|264:64|352:52,1,140
335,53,22968,5,0,0:0:0:0:
340,64,23035,1,0,0:0:0:0:
344,76,23102,1,0,0:0:0:0:
348,96,23237,6,0,P|340:136|328:160,2,35
256,244,23506,5,0,0:0:0:0:
456,136,23708,1,0,0:0:0:0:
456,136,23775,1,0,0:0:0:0:
456,136,23910,1,0,0:0:0:0:
456,136,23977,1,0,0:0:0:0:
456,136,24179,6,0,P|264:136|96:156,1,350
107,154,25054,5,0,0:0:0:0:
132,260,25256,1,0,0:0:0:0:
107,154,25458,1,0,0:0:0:0:
132,260,25660,1,0,0:0:0:0:
128,256,25862,6,0,B|136:200|148:172|188:136|188:136|208:176,1,175
268,72,26400,5,0,0:0:0:0:
360,156,26535,6,0,B|360:208|328:284|312:304|336:336|336:336|372:288,1,245
420,224,27141,5,0,0:0:0:0:
420,224,27208,1,0,0:0:0:0:
420,224,27275,1,0,0:0:0:0:
372,228,27477,6,0,P|288:216|132:200,1,210
80,176,28083,5,0,0:0:0:0:
80,284,28218,1,0,0:0:0:0:
172,216,28352,1,0,0:0:0:0:
172,216,28554,6,0,P|188:176|216:28,1,175
300,200,29160,5,0,0:0:0:0:
300,200,29227,1,0,0:0:0:0:
300,200,29429,6,0,P|328:264|328:280,1,70
172,216,29766,5,0,0:0:0:0:
164,236,29833,1,0,0:0:0:0:
156,260,29900,1,0,0:0:0:0:
148,280,29968,1,0,0:0:0:0:
140,300,30102,1,0,0:0:0:0:
132,320,30237,1,0,0:0:0:0:
132,324,30372,6,0,L|108:376,17,52.5000020027161
76,116,31718,5,0,0:0:0:0:
144,104,31852,1,0,0:0:0:0:
178,100,31919,1,0,0:0:0:0:
213,97,31987,1,0,0:0:0:0:
213,97,32122,6,0,P|288:92|464:92,1,231.000007049561
352,152,32660,6,0,L|364:196,1,38.5000011749268
284,200,32862,2,0,L|296:240,1,38.5000011749268
204,248,33064,2,0,L|220:292,3,38.5000011749268
232,154,33400,1,0,0:0:0:0:
300,190,33670,1,0,0:0:0:0:
235,231,33939,1,0,0:0:0:0:
232,154,34208,1,0,0:0:0:0:
300,190,34545,1,0,0:0:0:0:
235,231,34881,1,0,0:0:0:0:
236,236,35151,6,0,P|184:248|80:248,2,154.000004699707
264,148,35958,5,0,0:0:0:0:
264,148,36026,1,0,0:0:0:0:
288,68,36160,1,0,0:0:0:0:
288,68,36227,1,0,0:0:0:0:
288,68,36564,6,0,P|328:40|360:44,1,77.0000023498536
264,148,36968,2,0,P|208:168|160:168,1,77.0000023498536
288,68,37372,2,0,P|332:44|372:48,1,77.0000023498536
288,68,37776,5,0,0:0:0:0:
300,93,37843,1,0,0:0:0:0:
312,119,37910,1,0,0:0:0:0:
324,145,37977,1,0,0:0:0:0:
336,170,38045,1,0,0:0:0:0:
348,196,38112,1,0,0:0:0:0:
232,248,38449,1,0,0:0:0:0:
232,205,38516,1,0,0:0:0:0:
268,226,38583,1,0,0:0:0:0:
268,226,38852,6,0,P|344:264|464:336,1,192.500005874634
268,226,39526,5,0,0:0:0:0:
296,144,39727,1,0,0:0:0:0:
324,60,39929,1,0,0:0:0:0:
324,60,40131,6,0,L|384:52,1,38.5000011749268
324,60,40468,5,0,0:0:0:0:
144,120,40602,1,0,0:0:0:0:
324,196,40804,1,0,0:0:0:0:
204,28,41006,1,0,0:0:0:0:
224,236,41141,1,0,0:0:0:0:
324,60,41343,1,0,0:0:0:0:
324,60,41612,6,0,L|388:24,4,38.5000011749268
224,116,42151,5,0,0:0:0:0:
324,60,42353,1,0,0:0:0:0:
224,116,42554,1,0,0:0:0:0:
224,116,42756,6,0,P|176:136|76:204,1,154.000004699707
320,136,43228,5,0,0:0:0:0:
319,174,43295,1,0,0:0:0:0:
299,206,43362,1,0,0:0:0:0:
283,240,43429,1,0,0:0:0:0:
266,274,43497,1,0,0:0:0:0:
266,274,43699,6,0,B|212:248|152:256|116:304|116:304|100:260|124:148,1,308.000009399414
120,160,44506,1,0,0:0:0:0:
133,84,44574,1,0,0:0:0:0:
209,71,44641,1,0,0:0:0:0:
244,140,44708,1,0,0:0:0:0:
189,195,44776,1,0,0:0:0:0:
189,195,45045,6,0,B|144:280|144:280|208:280|208:280|168:360,2,231.000007049561
360,208,46122,6,0,L|424:236,6,52.5000020027161
360,208,46728,5,0,0:0:0:0:
331,199,46772,1,0,0:0:0:0:
302,190,46817,1,0,0:0:0:0:
273,182,46862,1,0,0:0:0:0:
244,173,46907,1,0,0:0:0:0:
215,165,46952,1,0,0:0:0:0:
186,156,46997,1,0,0:0:0:0:
159,148,47042,1,0,0:0:0:0:
159,148,47333,6,0,L|104:132,9,52.5000020027161
84,220,48343,6,0,P|104:116|168:16,1,220.499993270874
288,160,49083,2,0,P|368:116|476:88,1,188.999994232178
172,104,49756,2,0,P|196:200|152:292,1,188.999994232178
320,116,50631,6,0,P|320:188|296:288,1,157.499995193482
188,84,51439,2,0,P|120:68|0:88,1,188.999994232178
196,208,52449,2,0,P|112:264|88:336,1,157.499995193482
356,108,53391,6,0,P|460:88|508:104,1,157.499995193482
304,212,54199,2,0,P|264:232|80:264,1,220.499993270874
340,152,54939,5,0,0:0:0:0:
188,48,55141,2,0,P|200:124|172:272,1,220.499993270874
256,96,55814,5,0,0:0:0:0:
96,96,56083,2,0,P|124:152|260:160,1,188.999994232178
