osu file format v14

[General]
AudioFilename: 598568_Going-To-the-Store.mp3
AudioLeadIn: 0
PreviewTime: -1
Countdown: 1
SampleSet: None
StackLeniency: 0.7
Mode: 0
LetterboxInBreaks: 1
EpilepsyWarning: 1
WidescreenStoryboard: 1

[Editor]
DistanceSpacing: 1.1
BeatDivisor: 4
GridSize: 4
TimelineZoom: 1

[Metadata]
Title:Going To The Store
TitleUnicode:Going To The Store
Artist:Kmax
ArtistUnicode:Kmax
Creator:Sacorma
Version:Paradise
Source:
Tags:
BeatmapID:670417
BeatmapSetID:298750

[Difficulty]
HPDrainRate:5
CircleSize:3
OverallDifficulty:5
ApproachRate:4
SliderMultiplier:1.4
SliderTickRate:1

[Events]
//Background and Video events
0,0,"Paradise bg.jpg",0,0
//Break Periods
//Storyboard Layer 0 (Background)
//Storyboard Layer 1 (Fail)
//Storyboard Layer 2 (Pass)
//Storyboard Layer 3 (Foreground)
//Storyboard Sound Samples

[TimingPoints]
1968,497.380462895417,4,1,0,100,1,0
13814,-66.6666666666667,4,3,0,100,0,0
15968,-133.333333333333,4,2,0,100,0,0
29766,-100,4,2,0,100,0,0
31718,-100,4,2,0,100,0,0
32071,-125,4,2,0,100,0,1
45516,-100,4,2,0,100,0,0
48141,-111.111111111111,4,2,0,100,0,0

[Colours]
Combo1 : 255,28,33
Combo2 : 136,255,28
Combo3 : 79,255,28
Combo4 : 99,75,207
Combo5 : 123,119,164

[HitObjects]
116,220,351,6,0,P|96:264|84:336,2,105
116,220,1470,5,0,0:0:0:0:
168,120,2092,1,0,0:0:0:0:
264,72,2465,1,0,0:0:0:0:
372,44,2962,1,0,0:0:0:0:
372,44,3460,6,0,P|312:16|220:4,2,140
372,44,4827,5,0,0:0:0:0:
456,84,5200,1,0,0:0:0:0:
492,168,5574,1,0,0:0:0:0:
492,168,5947,6,0,P|472:236|400:336,1,175
416,324,6941,5,0,0:0:0:0:
320,292,7314,1,0,0:0:0:0:
232,252,7687,1,0,0:0:0:0:
232,252,8060,6,0,L|172:136,2,105
232,252,9180,5,0,0:0:0:0:
332,240,9553,1,0,0:0:0:0:
416,200,9926,1,0,0:0:0:0:
468,120,10299,1,0,0:0:0:0:
468,120,10796,6,0,P|460:48|412:-8,1,140
396,120,11791,6,0,P|396:168|464:256,1,140
396,120,12661,5,0,0:0:0:0:
396,120,12786,1,0,0:0:0:0:
396,120,13034,6,0,P|324:72|248:56,1,140
256,192,14029,12,0,15770,0:0:0:0:
96,208,16143,6,0,P|104:144|132:96,1,105.000004005432
248,72,17013,5,0,0:0:0:0:
356,64,17386,1,0,0:0:0:0:
460,52,17759,1,0,0:0:0:0:
460,52,18132,6,0,P|468:112|444:208,1,157.500006008148
280,152,19376,5,0,0:0:0:0:
280,152,19500,1,0,0:0:0:0:
280,152,19749,6,0,P|208:144|96:168,2,183.750007009506
208,236,22111,6,0,P|164:188|152:128,1,105.000004005432
208,236,23106,5,0,0:0:0:0:
288,304,23604,1,0,0:0:0:0:
388,344,23977,1,0,0:0:0:0:
388,344,24350,6,0,B|452:272|448:176|408:128|408:128|436:80,1,288.750011014939
400,72,26215,5,0,0:0:0:0:
300,120,26588,1,0,0:0:0:0:
184,140,26961,1,0,0:0:0:0:
136,44,27334,6,0,P|88:88|72:240,1,210.000008010865
200,160,28826,6,0,P|232:124|312:112,1,131.25000500679
256,192,29945,12,0,31562,0:0:0:0:
180,152,31810,6,0,L|140:224,2,70
248,80,32805,5,0,0:0:0:0:
248,80,33054,1,0,0:0:0:0:
248,80,33427,6,0,P|328:64|484:92,1,224
248,80,34795,5,0,0:0:0:0:
216,172,35168,1,0,0:0:0:0:
180,268,35541,1,0,0:0:0:0:
216,172,35914,1,0,0:0:0:0:
216,172,36287,6,0,P|288:208|424:228,1,196
400,228,37530,5,0,0:0:0:0:
368,136,37903,1,0,0:0:0:0:
304,68,38276,1,0,0:0:0:0:
224,36,38774,1,0,0:0:0:0:
304,68,39271,1,0,0:0:0:0:
304,68,39768,6,0,P|252:116|160:224,2,196
304,64,42131,5,0,0:0:0:0:
400,96,42504,1,0,0:0:0:0:
488,160,43001,1,0,0:0:0:0:
400,96,43499,1,0,0:0:0:0:
400,96,44120,6,0,P|436:36|464:20,1,84
288,140,44991,6,0,P|256:196|208:316,1,168
256,192,46110,12,0,47851,0:0:0:0:
132,252,48473,6,0,B|188:200|204:176|168:116|168:116|224:64,1,220.499993270874
256,72,49965,5,0,0:0:0:0:
368,64,50338,1,0,0:0:0:0:
472,44,50835,1,0,0:0:0:0:
472,44,51208,6,0,P|480:96|456:176,1,125.999996154785
248,224,52327,6,0,P|208:216|160:196,2,62.9999980773926
320,164,53322,5,0,0:0:0:0:
368,88,53819,1,0,0:0:0:0:
376,8,54192,1,0,0:0:0:0:
