osu file format v12

[General]
AudioFilename: Klaypex - Lights.mp3
AudioLeadIn: 0
PreviewTime: 55584
Countdown: 1
SampleSet: Normal
StackLeniency: 0.7
Mode: 0
LetterboxInBreaks: 1
WidescreenStoryboard: 0

[Editor]
DistanceSpacing: 1.2
BeatDivisor: 4
GridSize: 16
TimelineZoom: 3.099999

[Metadata]
Title:Lights
TitleUnicode:Lights
Artist:Klaypex ft. Sarah Kay
ArtistUnicode:Klaypex ft. Sarah Kay
Creator:d777b
Version:Insane
Source:
Tags:Dubstep Electronic
BeatmapID:205409
BeatmapSetID:71741

[Difficulty]
HPDrainRate:7
CircleSize:4
OverallDifficulty:8
ApproachRate:9
SliderMultiplier:2.5
SliderTickRate:1

[Events]
//Background and Video events
0,0,"klaypex.jpg",0,0
//Break Periods
2,109570,115391
//Storyboard Layer 0 (Background)
//Storyboard Layer 1 (Fail)
//Storyboard Layer 2 (Pass)
//Storyboard Layer 3 (Foreground)
//Storyboard Sound Samples
//Background Colour Transformations
3,100,0,0,0

[TimingPoints]
957,413.793103448276,4,1,1,50,1,0

[Colours]
Combo1 : 48,125,254
Combo2 : 0,64,128
Combo3 : 192,192,192
Combo4 : 170,0,0

[HitObjects]
240,64,26612,21,0,0:0:0:0:
336,256,26819,1,0,0:0:0:0:
240,144,27025,2,0,L|368:80,1,125
320,184,27439,2,0,L|192:248,1,125
136,208,27853,37,0,0:0:0:0:
280,304,28061,1,0,0:0:0:0:
152,352,28267,2,0,P|72:280|40:112,1,250
32,48,28888,1,0,0:0:0:0:
160,152,29095,1,0,0:0:0:0:
248,24,29302,1,0,0:0:0:0:
416,48,29508,2,0,P|379:103|328:136,1,125
240,240,29922,1,0,0:0:0:0:
140,148,30543,5,0,0:0:0:0:
260,240,30750,1,0,0:0:0:0:
212,100,30957,1,0,0:0:0:0:
164,240,31163,1,0,0:0:0:0:
292,148,31370,1,0,0:0:0:0:
62,234,31577,1,0,0:0:0:0:
62,251,31681,1,0,0:0:0:0:
64,268,31784,1,0,0:0:0:0:
72,284,31888,1,0,0:0:0:0:
80,296,31991,6,0,L|196:366,1,125
296,336,32405,2,0,L|179:265,1,125
296,248,32819,2,0,L|412:318,1,125
406,219,33232,1,0,0:0:0:0:
48,40,34060,6,0,P|32:104|64:184,1,125
96,256,34474,1,0,0:0:0:0:
176,336,34681,2,0,P|236:358|319:334,1,125
400,288,35094,1,0,0:0:0:0:
456,176,35301,1,0,0:0:0:0:
448,48,35508,2,0,P|385:61|327:125,1,125
304,224,35922,1,0,0:0:0:0:
216,312,36129,2,0,L|152:344,3,41.6666666666667
104,224,36543,21,0,0:0:0:0:
84,92,36750,2,0,P|136:51|203:33,1,125
272,56,37163,2,0,P|219:96|153:115,1,125
61,171,37577,1,0,0:0:0:0:
237,307,37784,1,0,0:0:0:0:
122,269,37991,1,0,0:0:0:0:
346,257,38198,1,0,0:0:0:0:
280,108,38405,1,0,0:0:0:0:
455,45,38612,2,0,P|395:60|330:63,1,125
128,64,39025,5,0,0:0:0:0:
128,96,39129,1,0,0:0:0:0:
128,128,39232,1,0,0:0:0:0:
128,160,39336,1,0,0:0:0:0:
128,192,39439,1,0,0:0:0:0:
128,224,39543,1,0,0:0:0:0:
128,256,39646,1,0,0:0:0:0:
128,288,39750,1,0,0:0:0:0:
128,324,39853,6,0,L|256:343,1,125
215,221,40267,2,0,L|343:240,1,125
391,363,40681,1,0,0:0:0:0:
275,272,40888,1,0,0:0:0:0:
413,208,41094,1,0,0:0:0:0:
280,284,41301,2,0,P|219:303|159:337,1,125
161,147,41715,5,0,0:0:0:0:
180,175,41819,1,0,0:0:0:0:
192,209,41922,2,0,P|208:280|235:328,1,125
399,263,42336,1,0,0:0:0:0:
417,230,42439,1,0,0:0:0:0:
428,194,42543,1,0,0:0:0:0:
430,156,42646,1,0,0:0:0:0:
419,120,42750,2,0,B|358:104|358:104|302:43,1,125
339,133,43163,2,0,B|284:164|284:164|201:161,1,125
122,114,43577,5,0,0:0:0:0:
108,148,43681,1,0,0:0:0:0:
108,185,43784,1,0,0:0:0:0:
124,218,43888,1,0,0:0:0:0:
146,244,43991,2,0,L|276:202,1,125
286,329,44405,2,0,L|416:287,1,125
409,165,44819,1,0,0:0:0:0:
406,133,44922,1,0,0:0:0:0:
389,106,45025,1,0,0:0:0:0:
366,84,45129,1,0,0:0:0:0:
338,68,45232,1,0,0:0:0:0:
308,56,45336,1,0,0:0:0:0:
277,51,45439,1,0,0:0:0:0:
246,57,45543,1,0,0:0:0:0:
220,75,45646,2,0,L|246:108,3,41.6666666666667
192,209,46060,2,0,L|155:237,3,41.6666666666667
101,88,46474,5,0,0:0:0:0:
90,100,46577,1,0,0:0:0:0:
80,112,46681,2,0,P|70:173|96:247,1,125
224,336,47094,1,0,0:0:0:0:
216,336,47198,1,0,0:0:0:0:
208,336,47301,1,0,0:0:0:0:
80,328,47508,1,0,0:0:0:0:
184,208,47715,1,0,0:0:0:0:
88,320,47922,1,0,0:0:0:0:
48,168,48129,2,0,P|114:56|246:37,1,250
402,18,48750,21,0,0:0:0:0:
473,89,48957,1,0,0:0:0:0:
379,115,49163,1,0,0:0:0:0:
450,186,49370,1,0,0:0:0:0:
352,209,49577,1,0,0:0:0:0:
416,280,49784,2,0,P|359:335|264:336,1,125
184,288,50198,1,0,0:0:0:0:
120,88,50405,5,0,0:0:0:0:
128,80,50508,1,0,0:0:0:0:
136,72,50612,1,0,0:0:0:0:
144,64,50715,1,0,0:0:0:0:
152,56,50819,1,0,0:0:0:0:
160,48,50922,1,0,0:0:0:0:
168,40,51025,2,0,L|272:128,1,125
264,192,51439,2,0,L|368:280,1,125
360,344,51853,1,0,0:0:0:0:
299,281,52060,2,0,B|289:301|289:301|304:306|304:306|290:311|290:311|305:317|305:317|290:322|290:322|305:327|305:327|291:364,1,125
256,192,52681,12,4,55577,0:0:0:0:
256,192,56405,5,0,0:0:0:0:
416,144,56612,1,0,0:0:0:0:
416,136,56715,1,0,0:0:0:0:
416,128,56819,1,0,0:0:0:0:
182,34,57025,1,0,0:0:0:0:
327,34,57232,1,0,0:0:0:0:
256,192,57439,1,0,0:0:0:0:
96,208,57646,1,0,0:0:0:0:
89,202,57750,1,0,0:0:0:0:
83,197,57853,1,0,0:0:0:0:
336,160,58060,21,0,0:0:0:0:
453,50,58267,1,0,0:0:0:0:
341,154,58474,1,0,0:0:0:0:
447,56,58681,1,0,0:0:0:0:
344,64,58888,6,0,L|232:64,2,83.3333333333333
307,148,59301,6,0,L|195:148,2,83.3333333333333
392,144,59715,22,0,L|480:240,1,125
448,344,60129,2,0,L|360:248,1,125
344,148,60543,21,0,0:0:0:0:
336,120,60646,1,0,0:0:0:0:
320,96,60750,1,0,0:0:0:0:
300,76,60853,1,0,0:0:0:0:
280,60,60957,1,0,0:0:0:0:
252,48,61060,1,0,0:0:0:0:
228,40,61163,1,0,0:0:0:0:
200,36,61267,1,0,0:0:0:0:
176,40,61370,38,0,P|120:72|64:192,1,187.5
80,248,61784,2,0,P|136:216|191:96,1,187.5
264,88,62198,2,0,P|320:120|376:240,1,187.5
360,296,62612,2,0,P|304:264|248:144,1,187.5
200,112,63025,5,0,0:0:0:0:
416,144,63232,1,0,0:0:0:0:
416,136,63336,1,0,0:0:0:0:
415,129,63439,2,0,P|379:86|295:42,1,125
203,94,63853,1,0,0:0:0:0:
445,52,64060,1,0,0:0:0:0:
247,140,64267,1,0,0:0:0:0:
240,134,64370,1,0,0:0:0:0:
234,129,64474,1,0,0:0:0:0:
368,192,64681,2,0,L|426:79,1,125
304,144,65094,2,0,L|246:257,1,125
303,212,65508,6,0,L|335:324,2,83.3333333333333
369,124,65922,6,0,L|337:12,2,83.3333333333333
241,209,66336,6,0,L|132:270,1,125
138,160,66750,2,0,L|246:98,1,125
344,148,67163,21,0,0:0:0:0:
336,120,67267,1,0,0:0:0:0:
320,96,67370,1,0,0:0:0:0:
300,76,67474,1,0,0:0:0:0:
280,60,67577,1,0,0:0:0:0:
252,48,67681,1,0,0:0:0:0:
228,40,67784,1,0,0:0:0:0:
200,36,67888,1,0,0:0:0:0:
176,40,67991,38,0,P|153:134|60:182,1,208.333333333333
59,183,68405,2,0,P|149:227|175:325,1,208.333333333333
178,324,68819,2,0,P|201:230|294:182,1,208.333333333333
295,182,69232,2,0,P|204:137|178:39,1,208.333333333333
208,45,69646,5,0,0:0:0:0:
106,202,69853,2,0,L|42:170,2,62.5
296,200,70267,2,0,P|248:128|192:80,1,125
216,192,70681,2,0,P|264:264|320:312,1,125
328,352,71094,1,0,0:0:0:0:
312,352,71198,1,0,0:0:0:0:
296,351,71301,2,0,B|184:352|184:352|64:280,1,250
72,136,71922,1,0,0:0:0:0:
184,56,72129,6,0,L|184:144,1,83.3333333333333
248,80,72405,6,0,L|248:168,1,83.3333333333333
312,112,72681,6,0,L|312:200,1,83.3333333333333
480,292,72957,2,0,P|388:268|268:316,1,187.5
388,328,73370,2,0,P|296:352|176:304,1,187.5
300,292,73784,2,0,P|208:268|88:316,1,187.5
212,328,74198,2,0,P|120:352|0:304,1,187.5
48,252,74612,1,0,0:0:0:0:
336,88,75025,5,0,0:0:0:0:
262,284,75439,6,0,P|240:225|171:180,1,125
183,213,75715,6,0,P|205:272|274:317,1,125
280,308,75991,6,0,P|360:300|452:240,1,166.666666666667
280,144,76474,1,0,0:0:0:0:
448,72,76681,1,0,0:0:0:0:
280,32,76888,1,0,0:0:0:0:
96,80,77094,2,0,P|55:211|103:330,1,250
176,352,77715,1,0,0:0:0:0:
192,352,77819,1,0,0:0:0:0:
208,352,77922,2,0,P|328:288|400:168,1,250
432,56,78543,1,0,0:0:0:0:
284,60,78750,6,0,L|364:97,1,83.3333333333333
263,162,79025,6,0,L|183:125,1,83.3333333333333
196,243,79301,6,0,L|276:280,1,83.3333333333333
440,320,79577,5,0,0:0:0:0:
176,312,79785,1,0,0:0:0:0:
304,352,79991,1,0,0:0:0:0:
104,224,80199,1,0,0:0:0:0:
160,136,80405,2,0,P|296:286|432:136,1,250
432,336,81025,1,0,0:0:0:0:
256,192,81232,1,0,0:0:0:0:
432,192,81439,1,0,0:0:0:0:
256,336,81646,2,0,P|200:351|128:336,1,125
32,228,82060,2,0,P|50:133|168:34,1,250
296,72,82681,1,0,0:0:0:0:
128,168,82888,5,0,0:0:0:0:
296,264,83094,1,0,0:0:0:0:
304,272,83198,1,0,0:0:0:0:
312,280,83301,1,0,0:0:0:0:
472,336,83508,1,0,0:0:0:0:
216,344,83715,2,0,P|112:288|56:168,1,250
97,58,84336,1,0,0:0:0:0:
109,45,84439,1,0,0:0:0:0:
120,32,84543,2,0,P|248:32|380:84,1,250
256,176,85370,6,0,P|272:224|240:272,1,83.3333333333333
168,248,85646,6,0,P|152:200|183:152,1,83.3333333333333
360,176,85922,6,0,P|376:224|344:272,1,83.3333333333333
272,344,86198,1,0,0:0:0:0:
96,344,86405,1,0,0:0:0:0:
288,344,86612,2,0,P|352:320|392:240,1,125
464,184,87025,5,0,0:0:0:0:
456,168,87129,1,0,0:0:0:0:
448,152,87232,1,0,0:0:0:0:
440,136,87336,1,0,0:0:0:0:
432,120,87439,1,0,0:0:0:0:
424,104,87543,1,0,0:0:0:0:
416,88,87646,1,0,0:0:0:0:
408,72,87750,1,0,0:0:0:0:
403,64,87853,6,0,L|312:-1,1,83.3333333333333
242,55,88129,6,0,L|319:111,1,83.3333333333333
299,204,88405,6,0,L|221:147,1,83.3333333333333
120,48,88681,1,0,0:0:0:0:
120,264,88991,1,0,0:0:0:0:
120,56,89301,1,0,0:0:0:0:
224,152,89508,5,0,0:0:0:0:
360,120,89715,1,0,0:0:0:0:
368,112,89819,1,0,0:0:0:0:
376,104,89922,1,0,0:0:0:0:
472,192,90129,1,0,0:0:0:0:
344,160,90336,2,0,P|216:152|112:216,1,250
176,352,90957,1,0,0:0:0:0:
192,352,91060,1,0,0:0:0:0:
208,352,91163,2,0,P|315:265|342:139,1,250
344,56,91784,1,0,0:0:0:0:
257,106,91991,6,0,L|186:158,1,83.3333333333333
106,115,92267,6,0,L|175:60,1,83.3333333333333
186,160,92543,6,0,L|115:212,1,83.3333333333333
96,304,92819,5,0,0:0:0:0:
320,320,93026,1,0,0:0:0:0:
208,352,93232,1,0,0:0:0:0:
400,232,93439,1,0,0:0:0:0:
352,136,93646,2,0,P|216:286|80:136,1,250
48,336,94267,1,0,0:0:0:0:
256,192,94474,1,0,0:0:0:0:
88,192,94681,1,0,0:0:0:0:
256,336,94888,2,0,P|312:351|384:336,1,125
480,228,95301,2,0,P|462:133|344:34,1,250
82,234,96129,5,0,0:0:0:0:
237,270,96336,2,0,L|270:206,2,62.5
102,101,96750,1,0,0:0:0:0:
120,312,96957,2,0,P|257:354|392:272,1,250
448,216,97577,1,0,0:0:0:0:
448,200,97681,1,0,0:0:0:0:
448,184,97784,2,0,B|418:149|418:149|409:167|409:167|409:146|409:146|403:163|403:163|400:143|400:143|394:160|394:160|395:142|395:142|386:152|386:152|376:142|376:142|286:100,1,250
132,36,98612,6,0,L|52:73,1,83.3333333333333
123,126,98888,22,0,L|51:176,1,83.3333333333333
137,218,99163,6,0,L|75:280,1,83.3333333333333
190,295,99439,6,0,B|302:359|302:359|430:279,1,250
432,200,100267,5,0,0:0:0:0:
432,184,100370,1,0,0:0:0:0:
432,168,100474,1,0,0:0:0:0:
432,152,100577,1,0,0:0:0:0:
432,136,100681,1,0,0:0:0:0:
432,120,100784,1,0,0:0:0:0:
432,104,100888,1,0,0:0:0:0:
432,88,100991,1,0,0:0:0:0:
432,72,101094,6,0,P|319:25|152:72,1,250
80,144,101715,1,0,0:0:0:0:
72,296,101922,2,0,P|185:343|351:296,1,250
416,224,102543,1,0,0:0:0:0:
456,72,102750,1,0,0:0:0:0:
312,40,102957,2,0,P|302:124|208:128,1,125
184,200,103370,2,0,P|194:284|288:288,1,125
352,304,103784,21,0,0:0:0:0:
96,336,103991,1,0,0:0:0:0:
114,194,104198,1,0,0:0:0:0:
105,181,104301,1,0,0:0:0:0:
96,168,104405,2,0,P|105:94|165:48,1,125
296,48,104819,1,0,0:0:0:0:
400,168,105025,1,0,0:0:0:0:
272,296,105232,2,0,L|368:296,2,83.3333333333333
240,240,105646,22,0,L|144:240,2,83.3333333333333
296,240,106060,1,0,0:0:0:0:
424,104,106267,1,0,0:0:0:0:
304,232,106474,1,0,0:0:0:0:
432,96,106681,1,0,0:0:0:0:
288,240,106888,5,0,0:0:0:0:
275,240,106991,1,0,0:0:0:0:
263,240,107094,1,0,0:0:0:0:
251,240,107198,1,0,0:0:0:0:
239,240,107301,1,0,0:0:0:0:
227,240,107405,1,0,0:0:0:0:
214,240,107508,1,0,0:0:0:0:
202,240,107612,1,0,0:0:0:0:
192,240,107715,6,0,L|88:136,1,125
208,136,108129,2,0,L|312:32,1,125
320,144,108543,2,0,L|424:248,1,125
304,248,108957,2,0,L|200:352,1,125
256,192,109370,5,0,0:0:0:0:
75,257,115991,5,0,0:0:0:0:
308,211,116198,1,0,0:0:0:0:
203,172,116405,1,0,0:0:0:0:
436,126,116612,1,0,0:0:0:0:
288,48,116819,2,0,P|200:56|128:104,1,125
152,80,117129,1,0,0:0:0:0:
136,88,117232,1,0,0:0:0:0:
96,176,117439,2,0,L|32:176,2,62.5
280,176,117853,37,0,0:0:0:0:
152,328,118060,1,0,0:0:0:0:
336,328,118267,2,0,L|400:328,2,62.5
192,192,118681,1,0,0:0:0:0:
61,70,118888,1,0,0:0:0:0:
76,63,118991,1,0,0:0:0:0:
89,55,119094,1,0,0:0:0:0:
104,48,119198,1,0,0:0:0:0:
120,40,119301,2,0,B|176:16|176:16|272:72,1,125
400,96,119715,6,0,P|416:160|384:240,1,125
160,304,120129,2,0,P|160:280|208:272,1,62.5,0|0,0:0|0:0,0:0:0:0:
160,304,120336,2,0,P|100:275|59:199,1,125
48,32,120750,6,0,P|58:67|16:80,1,62.5
48,32,120957,2,0,P|174:15|304:40,1,250
481,35,121577,1,0,0:0:0:0:
343,96,121784,1,0,0:0:0:0:
171,342,122198,1,0,0:0:0:0:
470,327,122612,5,0,0:0:0:0:
434,181,122819,1,0,0:0:0:0:
480,32,123025,2,0,P|407:71|328:32,1,125
256,112,123439,2,0,P|328:151|408:112,1,125
480,200,123853,2,0,P|407:239|328:200,1,125
128,200,124267,21,0,0:0:0:0:
112,192,124370,1,0,0:0:0:0:
96,184,124474,1,0,0:0:0:0:
80,176,124577,1,0,0:0:0:0:
64,168,124681,2,0,P|32:236|88:280,1,125
208,352,125094,1,0,0:0:0:0:
245,185,125301,1,0,0:0:0:0:
373,302,125508,1,0,0:0:0:0:
413,133,125715,1,0,0:0:0:0:
288,24,125922,38,0,P|224:40|72:144,1,250
96,296,126543,1,0,0:0:0:0:
288,328,126750,1,0,0:0:0:0:
96,304,126957,1,0,0:0:0:0:
288,320,127163,2,0,P|368:288|408:216,1,125
464,64,127577,1,0,0:0:0:0:
328,224,127784,1,0,0:0:0:0:
464,64,127991,2,0,L|320:80,1,125
280,104,128405,2,0,P|241:171|184:200,1,125
192,72,128819,2,0,L|144:24,3,41.6666666666667
72,88,129232,5,0,0:0:0:0:
58,100,129336,1,0,0:0:0:0:
48,112,129439,2,0,P|38:173|64:247,1,125
224,336,129853,1,0,0:0:0:0:
216,336,129957,1,0,0:0:0:0:
208,336,130060,1,0,0:0:0:0:
80,328,130267,1,0,0:0:0:0:
184,208,130474,1,0,0:0:0:0:
88,320,130681,1,0,0:0:0:0:
48,168,130888,2,0,P|114:56|246:37,1,250
343,23,131508,21,0,0:0:0:0:
473,89,131715,1,0,0:0:0:0:
320,120,131922,1,0,0:0:0:0:
450,186,132129,1,0,0:0:0:0:
293,214,132336,1,0,0:0:0:0:
416,280,132543,2,0,P|359:335|264:336,1,125
144,288,132957,1,0,0:0:0:0:
112,112,133163,21,0,0:0:0:0:
121,99,133267,1,0,0:0:0:0:
131,87,133370,1,0,0:0:0:0:
140,74,133474,1,0,0:0:0:0:
149,61,133577,1,0,0:0:0:0:
159,48,133681,1,0,0:0:0:0:
166,38,133784,2,0,P|190:97|270:126,1,125
328,56,134198,2,0,P|386:77|432:144,1,125
376,248,134612,1,0,0:0:0:0:
256,192,135439,12,4,138336,0:0:0:0:
136,232,139163,5,0,0:0:0:0:
270,338,139370,1,0,0:0:0:0:
276,333,139474,1,0,0:0:0:0:
283,328,139577,1,0,0:0:0:0:
226,83,139784,1,0,0:0:0:0:
304,200,139991,1,0,0:0:0:0:
139,234,140198,1,0,0:0:0:0:
34,112,140405,1,0,0:0:0:0:
35,103,140508,1,0,0:0:0:0:
36,95,140612,1,0,0:0:0:0:
152,344,140819,5,0,0:0:0:0:
344,344,141025,1,0,0:0:0:0:
160,344,141232,1,0,0:0:0:0:
336,344,141439,1,0,0:0:0:0:
256,256,141646,6,0,L|160:192,2,83.3333333333333
256,256,142060,6,0,L|344:192,2,83.3333333333333
256,328,142474,6,0,L|256:199,1,125
256,32,142888,2,0,L|256:159,1,125
360,224,143301,5,0,0:0:0:0:
360,240,143405,1,0,0:0:0:0:
360,256,143508,1,0,0:0:0:0:
360,272,143612,1,0,0:0:0:0:
360,288,143715,1,0,0:0:0:0:
360,304,143819,1,0,0:0:0:0:
360,319,143922,1,0,0:0:0:0:
360,336,144025,1,0,0:0:0:0:
360,352,144129,2,0,P|304:319|248:200,1,187.5
304,176,144543,2,0,P|264:72|160:32,1,187.5
136,24,144957,2,0,P|61:75|19:171,1,187.5
24,224,145370,2,0,P|48:284|160:354,1,187.5
212,336,145784,21,0,0:0:0:0:
348,173,145991,1,0,0:0:0:0:
148,223,146198,1,0,0:0:0:0:
352,312,146405,1,0,0:0:0:0:
232,124,146612,2,0,P|164:40|84:128,1,250
76,268,147232,1,0,0:0:0:0:
100,288,147336,1,0,0:0:0:0:
132,296,147439,2,0,P|192:289|260:296,1,125
340,352,147853,2,0,P|277:362|192:352,1,125
344,152,148267,6,0,P|360:192|328:240,1,83.3333333333333
246,288,148543,6,0,P|204:282|178:230,1,83.3333333333333
177,135,148819,6,0,P|204:101|261:105,1,83.3333333333333
386,192,149094,1,0,0:0:0:0:
326,27,149301,1,0,0:0:0:0:
392,208,149508,2,0,P|368:272|400:320,1,125
448,176,149922,5,0,0:0:0:0:
440,160,150025,1,0,0:0:0:0:
432,144,150129,1,0,0:0:0:0:
424,128,150232,1,0,0:0:0:0:
416,112,150336,1,0,0:0:0:0:
408,96,150439,1,0,0:0:0:0:
400,80,150543,1,0,0:0:0:0:
392,64,150646,1,0,0:0:0:0:
384,52,150750,2,0,P|320:48|260:104,1,125
328,188,151163,2,0,P|275:225|195:209,1,125
184,216,151474,1,0,0:0:0:0:
152,208,151577,1,0,0:0:0:0:
72,144,151784,2,0,L|144:144,1,62.5
184,80,151991,2,0,L|248:48,1,62.5
312,96,152198,2,0,L|384:120,1,62.5
440,56,152405,5,0,0:0:0:0:
288,176,152612,1,0,0:0:0:0:
280,184,152715,1,0,0:0:0:0:
272,192,152819,1,0,0:0:0:0:
424,40,153025,1,0,0:0:0:0:
344,160,153232,2,0,P|216:152|112:216,1,250
176,352,153853,1,0,0:0:0:0:
192,352,153957,1,0,0:0:0:0:
208,352,154060,2,0,P|315:265|342:139,1,250
344,56,154681,1,0,0:0:0:0:
228,60,154888,6,0,L|148:97,1,83.3333333333333
256,192,155163,6,0,L|336:155,1,83.3333333333333
436,252,155439,6,0,L|356:289,1,83.3333333333333
172,256,155715,1,0,0:0:0:0:
48,304,155923,1,0,0:0:0:0:
280,304,156129,1,0,0:0:0:0:
168,112,156336,1,0,0:0:0:0:
402,97,156543,2,0,L|431:154,1,62.5
364,218,156750,2,0,L|300:214,1,62.5
287,121,156957,2,0,L|321:67,1,62.5
402,97,157163,2,0,L|431:154,1,62.5
452,244,157370,6,0,L|361:308,1,83.3333333333333
439,277,157646,6,0,L|339:324,1,83.3333333333333
422,307,157922,6,0,L|314:336,1,83.3333333333333
168,352,158198,5,0,0:0:0:0:
56,64,158508,1,0,0:0:0:0:
152,352,158819,1,0,0:0:0:0:
240,64,159025,1,0,0:0:0:0:
352,64,159233,37,0,0:0:0:0:
384,64,159336,1,0,0:0:0:0:
416,64,159439,2,0,L|416:216,1,125
416,312,159853,2,0,L|312:312,2,62.5
248,208,160267,1,0,0:0:0:0:
120,264,160474,1,0,0:0:0:0:
80,232,160577,1,0,0:0:0:0:
64,192,160681,1,0,0:0:0:0:
48,32,160888,1,0,0:0:0:0:
144,188,161094,1,0,0:0:0:0:
48,352,161301,1,0,0:0:0:0:
136,192,161508,6,0,L|228:216,1,83.3333333333333
256,272,161784,6,0,L|348:247,1,83.3333333333333
384,304,162060,6,0,L|476:328,1,83.3333333333333
360,216,162336,1,0,0:0:0:0:
481,254,162543,1,0,0:0:0:0:
323,102,162750,1,0,0:0:0:0:
445,142,162957,1,0,0:0:0:0:
397,60,163163,5,0,0:0:0:0:
378,64,163267,1,0,0:0:0:0:
361,71,163370,1,0,0:0:0:0:
345,81,163474,1,0,0:0:0:0:
329,92,163577,1,0,0:0:0:0:
315,104,163681,1,0,0:0:0:0:
303,118,163784,1,0,0:0:0:0:
293,134,163888,1,0,0:0:0:0:
288,152,163991,6,0,L|336:152,5,41.6666666666667
296,232,164405,1,0,0:0:0:0:
48,232,164612,1,0,0:0:0:0:
160,32,164819,38,0,L|160:88,5,41.6666666666667
248,32,165232,1,0,0:0:0:0:
248,272,165439,1,0,0:0:0:0:
96,96,165646,5,0,0:0:0:0:
352,160,165853,1,0,0:0:0:0:
384,200,165957,1,0,0:0:0:0:
416,240,166060,1,0,0:0:0:0:
280,216,166267,1,0,0:0:0:0:
336,344,166474,1,0,0:0:0:0:
288,328,166577,1,0,0:0:0:0:
240,312,166681,1,0,0:0:0:0:
40,224,166888,1,0,0:0:0:0:
176,360,167094,1,0,0:0:0:0:
104,184,167301,2,0,B|160:72|160:72|320:40,1,250
216,144,167922,1,0,0:0:0:0:
368,72,168129,6,0,P|359:121|308:149,1,83.3333333333333
256,94,168405,38,0,P|264:44|314:16,1,83.3333333333333
459,120,168681,22,0,P|450:169|399:197,1,83.3333333333333
318,228,168957,37,0,0:0:0:0:
151,97,169164,1,0,0:0:0:0:
208,296,169370,1,0,0:0:0:0:
289,89,169577,1,0,0:0:0:0:
106,215,169784,2,0,B|4:292|4:292|120:376,1,250
368,288,170405,1,0,0:0:0:0:
256,128,170612,6,0,L|304:24,1,83.3333333333333
256,200,170888,22,0,L|208:96,1,83.3333333333333
256,272,171163,6,0,L|304:168,1,83.3333333333333
256,344,171439,5,0,0:0:0:0:
40,224,171750,1,0,0:0:0:0:
472,224,172060,1,0,0:0:0:0:
136,264,172267,1,0,0:0:0:0:
368,264,172474,1,0,0:0:0:0:
256,72,172681,2,0,L|256:336,1,250
376,120,173301,1,0,0:0:0:0:
144,120,173508,1,0,0:0:0:0:
272,352,173715,21,0,0:0:0:0:
288,360,173819,1,0,0:0:0:0:
304,368,173922,2,0,P|456:280|488:184,1,250
328,40,174543,1,0,0:0:0:0:
480,176,174750,6,0,L|480:264,1,83.3333333333333
408,304,175025,38,0,L|331:260,1,83.3333333333333
332,180,175301,38,0,L|408:135,1,83.3333333333333
368,215,175577,5,0,0:0:0:0:
149,215,175784,1,0,0:0:0:0:
356,216,175991,1,0,0:0:0:0:
160,216,176198,1,0,0:0:0:0:
136,48,176405,37,0,0:0:0:0:
160,48,176508,1,0,0:0:0:0:
184,48,176612,1,0,0:0:0:0:
208,48,176715,1,0,0:0:0:0:
232,48,176819,1,0,0:0:0:0:
256,48,176922,1,0,0:0:0:0:
280,48,177025,1,0,0:0:0:0:
304,48,177129,1,0,0:0:0:0:
328,48,177232,5,0,0:0:0:0:
256,224,177543,5,0,0:0:0:0:
448,200,177853,5,0,0:0:0:0:
247,222,178060,5,0,0:0:0:0:
196,232,178163,1,0,0:0:0:0:
144,228,178267,1,0,0:0:0:0:
92,212,178370,1,0,0:0:0:0:
56,176,178474,1,0,0:0:0:0:
164,64,178681,1,0,0:0:0:0:
96,280,178888,5,0,0:0:0:0:
184,72,179094,1,0,0:0:0:0:
212,92,179198,1,0,0:0:0:0:
232,121,179301,1,0,0:0:0:0:
76,280,179508,1,0,0:0:0:0:
48,72,179715,2,0,P|165:31|288:80,1,250
336,320,180336,1,0,0:0:0:0:
320,320,180439,1,0,0:0:0:0:
304,320,180543,2,0,P|172:295|72:200,1,250
184,64,181163,1,0,0:0:0:0:
403,64,181370,6,0,L|312:-1,1,83.3333333333333
258,115,181646,38,0,L|335:171,1,83.3333333333333
247,262,181922,38,0,L|169:205,1,83.3333333333333
110,80,182198,1,0,0:0:0:0:
254,211,182405,1,0,0:0:0:0:
64,174,182612,1,0,0:0:0:0:
208,304,182819,1,0,0:0:0:0:
256,88,183025,5,0,0:0:0:0:
256,120,183129,1,0,0:0:0:0:
256,152,183232,1,0,0:0:0:0:
256,184,183336,1,0,0:0:0:0:
256,216,183439,1,0,0:0:0:0:
256,248,183543,1,0,0:0:0:0:
256,280,183646,1,0,0:0:0:0:
256,312,183750,1,0,0:0:0:0:
256,344,183853,2,0,P|215:152|275:195,1,500
184,256,184991,5,4,0:0:0:0:
328,256,185301,5,4,0:0:0:0:
271,93,185508,5,0,0:0:0:0:
112,64,185715,1,0,0:0:0:0:
72,96,185819,1,0,0:0:0:0:
80,144,185922,1,0,0:0:0:0:
216,192,186129,1,0,0:0:0:0:
256,160,186232,1,0,0:0:0:0:
248,112,186336,1,0,0:0:0:0:
200,40,186543,5,0,0:0:0:0:
136,208,186750,1,0,0:0:0:0:
195,50,186957,1,0,0:0:0:0:
128,216,187163,2,0,B|248:272|248:272|376:200,1,250
240,168,187784,1,0,0:0:0:0:
424,304,187991,6,0,L|423:215,1,83.3333333333333
365,93,188267,38,0,L|365:181,1,83.3333333333333
309,305,188543,38,0,L|308:216,1,83.3333333333333
460,172,188819,1,0,0:0:0:0:
392,32,189025,1,0,0:0:0:0:
264,80,189232,1,0,0:0:0:0:
236,104,189336,1,0,0:0:0:0:
216,136,189439,1,0,0:0:0:0:
204,168,189543,1,0,0:0:0:0:
196,204,189646,1,0,0:0:0:0:
392,280,189853,1,0,0:0:0:0:
168,280,190060,1,0,0:0:0:0:
360,360,190267,1,0,0:0:0:0:
192,240,190474,6,0,P|160:176|88:136,1,125
208,128,190888,22,0,P|272:96|312:24,1,125
320,144,191301,38,0,P|352:208|424:248,1,125
304,256,191715,22,0,P|240:288|199:360,1,125
256,192,192129,5,0,0:0:0:0:
