osu file format v12

[General]
AudioFilename: Klaypex_-_Too_Late.mp3
AudioLeadIn: 0
PreviewTime: -1
Countdown: 1
SampleSet: None
StackLeniency: 0.7
Mode: 0
LetterboxInBreaks: 1

[Editor]
DistanceSpacing: 0.8
BeatDivisor: 12
GridSize: 32

[Metadata]
Title:Too Late
TitleUnicode:Too Late
Artist:Klaypex
ArtistUnicode:Klaypex
Creator:ButterCake
Version:Easy
Source:
Tags:
BeatmapID:246113
BeatmapSetID:90791

[Difficulty]
HPDrainRate:5
CircleSize:5
OverallDifficulty:5
ApproachRate:5
SliderMultiplier:0.70000000596046
SliderTickRate:1

[Events]
//Background and Video events
0,0,"klaypex.jpg",1,1
//Break Periods
2,20216,25297
//Storyboard Layer 0 (Background)
//Storyboard Layer 1 (Fail)
//Storyboard Layer 2 (Pass)
//Storyboard Layer 3 (Foreground)
//Storyboard Sound Samples
//Background Colour Transformations

[TimingPoints]
5248.41958041958,424.980419580421,4,1,0,100,1,0

[HitObjects]
128,128,5062,1,0,0:0:0:0:
224,128,6842,1,0,0:0:0:0:
128,128,11800,2,0,B|416:128|416:128|416:128|416:128,1,285.833335767188
224,128,18104,5,0,2:2:0:0:
320,128,20016,1,4,0:0:0:0:
192,192,26497,5,0,0:0:0:0:
224,192,27524,2,0,L|448:192|448:192,2,221.666668554146,0|0|0,0:0|0:0|0:0,2:2:0:0:
224,96,31455,1,0,2:2:0:0:
224,96,33120,1,0,0:0:0:0:
128,192,34147,6,0,B|352:192|352:192|352:192|352:192,1,221.666668554146
352,192,36484,2,0,B|352:352|288:320|224:256,1,233.333335320153
192,192,38928,5,0,0:0:0:0:
224,96,39884,1,0,2:2:0:0:
320,96,40769,5,0,2:2:0:0:
384,96,41371,1,0,2:2:0:0:
384,96,42115,1,0,2:2:0:0:
384,96,42965,1,0,2:2:0:0:
160,192,44700,5,0,0:0:0:0:
160,192,46577,1,0,0:0:0:0:
128,64,47711,2,0,B|416:64|384:352|128:320,1,536.666671236353
128,192,51500,1,0,2:2:0:0:
160,96,56493,5,0,0:0:0:0:
256,96,57096,1,0,0:0:0:0:
256,96,57308,1,0,0:0:0:0:
256,96,57485,1,0,0:0:0:0:
256,96,57662,1,0,0:0:0:0:
256,160,57981,2,0,L|416:160,1,157.500001341103
448,256,59327,1,0,0:0:0:0:
352,256,59752,1,0,0:0:0:0:
256,256,60460,1,0,0:0:0:0:
256,256,60672,1,0,0:0:0:0:
256,256,60920,1,0,0:0:0:0:
256,256,61133,1,0,0:0:0:0:
192,256,61310,1,0,0:0:0:0:
192,192,62089,2,0,L|192:96,1,128.333334426084
96,96,63789,1,0,0:0:0:0:
128,96,64001,1,0,0:0:0:0:
160,96,64249,1,0,0:0:0:0:
192,96,64461,1,0,0:0:0:0:
224,96,64709,1,0,0:0:0:0:
288,96,65241,2,0,L|448:96,1,157.500001341103
160,160,67295,1,0,0:0:0:0:
256,128,67968,1,0,0:0:0:0:
320,192,69278,1,0,0:0:0:0:
320,192,69419,1,0,0:0:0:0:
224,192,69703,5,0,0:0:0:0:
224,96,70518,1,0,0:0:0:0:
256,96,70695,1,0,0:0:0:0:
288,96,70907,1,0,0:0:0:0:
320,96,71120,1,0,0:0:0:0:
416,96,71864,2,0,L|416:288,1,192.500001639126
160,96,74201,1,0,0:0:0:0:
288,96,75228,1,0,0:0:0:0:
288,192,75724,1,0,0:0:0:0:
224,192,76397,2,0,L|96:192,1,128.333334426084
96,192,77353,1,0,0:0:0:0:
96,192,77530,1,0,0:0:0:0:
96,192,77742,1,0,0:0:0:0:
96,128,78026,2,0,L|256:128,1,157.500001341103
256,192,81284,12,0,82984,0:0:0:0:
