osu file format v7

[General]
AudioFilename: 03. Golden Skans.mp3
AudioLeadIn: 0
PreviewTime: -1
Countdown: 1
SampleSet: Soft
StackLeniency: 0.7
Mode: 0
LetterboxInBreaks: 1

[Editor]
Bookmarks: 74518,77898,81279,94800,95856,96067,96279,96490,98180,102617,121842
DistanceSpacing: 0.800000011920929
BeatDivisor: 4
GridSize: 32

[Metadata]
Title:Golden Skans
Artist:Klaxons
Creator:psychedelic_
Version:may be hard
Source:
Tags:klaxons, golden skans, skans, zxz

[Difficulty]
HPDrainRate:6
CircleSize:4
OverallDifficulty:7
SliderMultiplier:2.3
SliderTickRate:1

[Events]
//Background and Video events
0,0,"Untitled-1.jpg"
//Break Periods
2,27394,33055
2,67112,73618
2,85493,87139
//Storyboard Layer 0 (Background)
//Storyboard Layer 1 (Fail)
//Storyboard Layer 2 (Pass)
//Storyboard Layer 3 (Foreground)
//Storyboard Sound Samples
//Background Colour Transformations
3,100,255,255,255

[TimingPoints]
1842.39112423571,422.535211267606,4,2,1,79,1,0
13673,-100,4,2,1,79,0,1
27194,-100,4,2,1,79,0,0
50856,-200,4,2,1,79,0,0
52546,-50,4,2,1,79,0,0
54236,-100,4,2,1,79,0,1
67757,-100,4,2,1,79,0,0
108321,-100,4,2,1,79,0,1
115081,-100,4,2,1,79,0,0
121842,-100,4,2,1,79,0,1
135363,-100,4,2,1,79,0,0

[Colours]
Combo1 : 255,255,255
Combo2 : 255,17,136
Combo3 : 255,6,255
Combo4 : 240,5,5

[HitObjects]
224,96,6912,1,0
320,96,7124,1,0
256,192,7335,2,0,B|320:256|384:160,2,115,4|0|0
224,96,7969,1,2
320,96,8180,1,0
416,96,8391,1,0
320,96,8602,1,0
224,96,8814,2,0,B|160:160|256:224,2,115,0|4|0
320,96,9448,1,0
320,96,9553,1,0
320,96,9659,1,0
416,96,9870,2,0,B|448:192|352:256|256:224,1,230,2|0
192,288,10504,5,0
128,192,10715,2,0,B|192:128|256:224,2,115,4|0|0
96,288,11349,1,0
192,288,11560,1,0
288,288,11771,1,0
192,288,11982,1,0
96,288,12194,2,0,B|32:224|128:160,2,115,0|4|0
192,288,12828,1,0
192,288,12933,1,0
192,288,13039,1,0
288,288,13250,2,0,B|244:151|349:103|412:113,1,230,0|0
128,64,14095,5,4
224,64,14306,1,0
320,64,14518,1,0
224,64,14729,1,4
128,64,14940,2,0,B|128:208,1,115,0|0
128,184,15363,5,0
224,184,15574,1,0
320,184,15786,1,4
224,184,15997,2,0,B|224:320,1,115
320,296,16419,5,4
320,296,16525,1,0
320,296,16631,1,0
416,288,16842,1,0
416,192,17053,1,0
384,96,17264,2,0,B|384:32,2,57.5,0|0|4
288,96,17687,1,0
256,192,17898,12,4,19166
256,192,19166,12,0,20433
192,128,20856,5,4
256,192,21067,1,0
320,256,21279,1,0
384,192,21490,2,0,B|384:64,2,115,4|0|0
320,256,22124,1,0
256,192,22335,1,0
192,128,22546,1,4
128,192,22757,2,0,B|128:320,3,115,0|0|4|0
208,304,23602,5,0
192,272,23708,1,0
208,240,23814,1,0
192,208,23919,1,0
208,176,24025,1,0
224,144,24131,1,0
224,112,24236,1,4
256,96,24342,1,0
288,112,24448,1,0
384,224,24870,6,0,B|320:256|256:224,1,115,4|0
224,224,25292,6,0,B|160:192|96:224,1,115
160,256,25715,6,0,B|224:288|288:256,1,115,0|4
320,256,26137,6,0,B|384:224|480:288,1,115
256,288,26771,1,4
256,128,27194,5,0
64,64,33955,5,0
64,160,34166,1,0
64,256,34377,1,4
64,64,34800,2,0,B|64:320,1,230,0|0
128,288,35433,5,0
128,288,35645,1,0
224,288,35857,1,0
320,288,36068,1,4
128,288,36491,2,0,B|384:288,1,230
416,288,37124,5,0
416,288,37335,1,0
416,192,37546,1,0
416,96,37757,1,4
352,96,37969,2,0,B|288:96|256:160,1,115
288,224,38391,2,0,B|352:224|384:160,1,115,4|0
256,96,38814,5,0
256,96,39025,1,0
256,160,39236,1,0
256,160,39448,1,4
256,224,39659,1,0
256,224,39870,1,0
256,288,40081,1,0
256,288,40187,1,0
256,288,40293,1,4
256,288,40398,1,0
256,288,40504,1,0
256,288,40609,1,0
256,288,40715,1,0
160,288,40926,6,0,B|64:192,1,115,0|4
128,160,41349,2,0,B|192:32,1,115
256,192,41771,1,4
256,192,41877,1,0
256,192,41983,1,0
352,288,42194,6,0,B|448:192,1,115
384,160,42617,2,0,B|320:32,1,115,0|4
256,192,43039,1,0
256,192,43250,1,0
96,192,44095,6,0,B|192:64,1,115
224,96,44518,2,0,B|128:224,1,115,4|0
128,256,44940,1,0
192,320,45152,1,4
224,224,45363,1,0
128,256,45574,1,0
320,288,45786,6,0,B|416:160,1,115
448,192,46208,2,0,B|352:320,1,115,4|0
416,128,46631,1,0
352,64,46843,1,4
320,160,47054,1,0
416,128,47265,1,0
384,224,47476,6,0,C|338:269|293:223,1,115
316,201,47898,2,0,C|270:155|225:201,1,115,4|0
248,224,48321,2,0,C|202:269|157:224,1,115,0|4
192,192,48743,2,0,C|144:160|104:200,1,115
160,288,49166,6,0,C|224:288,6,38.3333333333333,0|0|0|0|0|0|4
288,288,49800,1,0
416,288,50011,2,0,C|352:288,6,38.3333333333333,0|0|0|4|0|0|0
352,192,50856,2,0,C|352:160|384:192|352:224|320:192,1,172.5,0|0
352,192,51701,2,0,C|320:192|352:224|384:192|352:160,1,172.5,4|0
128,64,52546,6,0,C|128:352,1,230
160,160,52969,2,0,B|224:32|288:32|288:128|288:160|256:160|192:192|160:192|128:160|128:128|288:320,1,460,4|0
384,192,54236,6,0,B|384:288|288:288,2,115,0|0|4
288,192,54870,1,0
192,96,55081,1,0
192,192,55293,1,4
192,288,55504,1,0
384,192,55715,6,0,B|384:96|288:96,3,115,0|0|0|4
288,192,56560,1,0
192,192,56771,1,0
288,288,56983,1,4
384,192,57194,1,0
288,192,57405,6,0,B|288:96|384:96,1,115
384,192,57828,1,0
288,288,58039,1,4
192,192,58250,1,0
256,192,58462,12,0,58884
160,160,59095,5,0
224,96,59307,1,0
256,192,59518,1,0
256,192,59624,1,0
256,192,59729,1,4
192,256,59940,1,0
320,128,60152,1,0
160,192,60997,5,0
256,192,61208,1,0
352,192,61419,1,4
256,192,61631,1,0
160,192,61842,1,0
256,192,62053,2,0,B|256:64,1,115,4|0
256,192,62476,2,0,B|256:320,1,115
256,192,62898,6,0,B|416:192,1,115,0|4
256,192,63321,2,0,B|128:192,1,115
256,192,63743,6,0,B|192:128,2,57.5,4|0|0
256,192,64166,2,0,B|320:256,2,57.5
256,192,64588,6,0,B|320:128,2,57.5,0|0|4
256,192,65011,2,0,B|192:256,2,57.5
160,96,65433,5,4
256,96,65645,1,0
352,96,65856,1,0
256,192,66067,1,0
256,192,66279,1,0
160,288,66490,1,4
256,288,66701,1,0
352,288,66912,1,0
160,192,74518,5,0
160,192,74729,1,0
224,192,74940,2,0,B|224:128,3,38.3333333333333,4|0|0|0
288,192,75363,1,0
288,192,75469,1,0
288,192,75574,1,4
288,192,75680,1,0
288,192,75786,1,0
352,192,75997,1,0
352,192,76208,1,0
224,288,76631,2,0,B|96:224,1,115,4|0
288,192,77053,2,0,B|416:128,1,115
352,192,77898,5,0
352,192,78004,1,0
352,192,78109,1,0
288,192,78321,1,4
288,192,78532,1,0
224,192,78743,1,0
224,192,78955,1,4
160,192,79166,2,0,B|160:256,4,57.5
160,96,79800,6,0,B|288:96,1,115,0|4
352,160,80222,6,0,B|192:160,1,115
160,224,80645,6,0,B|320:224,1,115,0|4
352,288,81067,6,0,B|192:288,1,115
64,192,81701,5,4
128,96,81912,1,0
192,192,82124,1,0
256,96,82335,1,4
320,192,82546,1,0
384,96,82757,1,0
448,192,82969,1,0
384,96,83180,6,0,B|384:192|288:192,1,115,0|4
256,96,83602,1,0
192,192,83814,2,0,B|128:192|128:96,1,115
64,192,84236,1,4
192,192,84448,6,0,B|320:192,2,115
307,192,85081,1,4
307,192,85293,1,0
384,128,88039,6,0,B|416:192|384:256,1,115
288,192,88462,2,0,B|256:128|320:64,1,115,4|0
384,256,88884,1,0
384,256,89096,1,4
320,96,89307,1,0
320,96,89412,1,0
320,96,89518,1,0
192,64,89729,5,0
416,224,90152,1,4
192,320,90574,1,0
64,64,90997,1,4
128,128,91419,6,0,B|96:192|128:256,1,115
224,192,91842,2,0,B|256:128|192:64,1,115,4|0
128,256,92264,1,0
128,256,92476,1,4
192,96,92687,1,0
192,96,92792,1,0
192,96,92898,1,0
288,96,93109,6,0,B|448:128,1,115
448,224,93532,2,0,B|320:256,1,115,4|0
224,256,93955,6,0,B|160:128,1,115,0|4
160,32,94377,1,4
160,32,94588,1,0
288,128,94800,6,0,B|336:96|352:160|288:224|256:224|192:160|224:96|240:64|288:64|288:64|320:64|368:64|416:96|416:224|352:224|320:240|272:256,1,575,0|4
224,288,96067,1,0
160,224,96279,1,0
96,320,96490,1,0
384,288,97124,2,0,B|384:224,2,57.5,4|0|0
216,256,98180,6,0,B|176:256|168:224|224:160|256:160|320:224|288:288|272:312|224:320|224:320|192:320|144:320|96:288|96:160|160:160|192:144|240:120,1,575,0|4
288,96,99447,1,0
352,160,99659,1,0
416,64,99870,1,0
128,96,100504,2,0,B|128:160,2,57.5,4|0|0
224,128,100926,5,4
320,96,101138,1,0
416,160,101349,1,0
416,288,101560,2,0,L|320:352|384:256|288:320|352:224|256:288|320:192,1,690,0|4
240,272,103039,1,0
304,176,103250,1,0
128,96,103884,1,4
136,96,103990,1,0
144,96,104095,1,0
376,96,104307,5,4
384,96,104412,1,0
392,96,104518,1,0
400,96,104624,1,0
408,96,104729,1,0
416,96,104835,1,0
416,96,104940,2,0,L|320:32|384:128|288:64|352:160|256:96|320:192,1,690,0|4
240,112,106419,1,0
304,208,106630,1,0
128,256,107264,2,0,B|128:192,10,57.5,0|0|0|0|0|0|0|0|0|0|4
224,224,108532,5,0
352,192,108743,1,4
288,288,108955,1,0
416,256,109166,1,0
384,320,109377,2,0,B|216:136,1,230,4|0
288,160,110011,5,0
160,192,110222,1,0
224,96,110434,1,4
96,128,110645,1,0
128,64,110856,2,0,B|224:192,3,115,0|4|0|0
352,96,111701,5,0
352,96,111912,1,0
448,160,112124,1,4
448,160,112335,1,0
320,192,112546,1,0
320,192,112757,1,4
448,256,112969,1,0
448,256,113180,1,0
352,320,113391,6,0,B|224:256,1,115
160,192,113814,2,0,B|320:128,1,115,4|0
416,128,114236,2,0,B|288:64,1,115,0|4
160,96,114659,2,0,B|32:32,1,115
256,160,115081,5,0
256,160,115187,1,0
256,160,115293,1,0
384,192,115504,1,4
384,192,115715,1,0
256,288,115926,1,0
256,288,116138,1,2
416,288,116349,1,0
416,288,116455,1,0
416,288,116560,1,0
416,288,116666,1,0
416,288,116771,1,0
256,192,116983,6,0,B|416:128,1,115,0|4
320,64,117405,2,0,B|192:96,1,115
320,192,117828,2,0,B|480:192,2,115,4|0|0
256,192,118462,1,0
192,192,118673,2,0,B|32:192,2,115,0|4|0
320,256,119518,6,0,B|256:288|192:256,1,115,4|0
160,256,119940,6,0,B|96:224|32:256,1,115
96,288,120363,6,0,B|160:320|224:288,1,115,0|4
256,288,120785,6,0,B|320:256|416:320,1,115
384,192,121208,5,0
352,160,121314,1,0
320,160,121419,1,4
192,64,121631,1,0
96,224,121842,1,0
128,64,122264,5,4
224,64,122475,1,0
320,64,122687,1,0
224,64,122898,1,4
128,64,123109,2,0,B|128:208,1,115
128,184,123532,5,0
224,184,123743,1,0
320,184,123955,1,4
224,184,124166,2,0,B|224:320,1,115
320,296,124588,5,4
320,296,124694,1,0
320,296,124800,1,0
416,288,125011,1,0
416,192,125222,1,0
384,96,125433,2,0,B|384:32,2,57.5,0|0|4
288,96,125856,1,0
256,192,126067,12,4,127335
256,192,127335,12,0,128602
192,128,129025,5,4
256,192,129236,1,0
320,256,129448,1,0
384,192,129659,2,0,B|384:64,2,115,4|0|0
320,256,130293,1,0
256,192,130504,1,0
192,128,130715,1,4
128,192,130926,2,0,B|128:320,3,115,0|0|4|0
208,304,131771,5,4
224,272,131877,1,0
224,240,131983,1,0
208,208,132088,1,0
192,176,132194,1,0
208,144,132300,1,0
224,128,132405,1,4
256,128,132511,1,0
288,144,132617,1,0
80,256,133039,6,0,B|48:192|80:128,1,115,4|0
128,192,133461,6,0,B|160:128|128:64,1,115
224,128,133884,6,0,B|192:192|224:256,1,115,0|4
272,192,134306,6,0,B|304:256|240:352,1,115
416,272,134940,1,4
160,192,135363,5,0
160,192,135574,1,0
224,192,135785,2,0,B|224:128,3,38.3333333333333,4|0|0|0
288,192,136208,1,0
288,192,136314,1,0
288,192,136419,1,4
288,192,136525,1,0
288,192,136631,1,0
352,192,136842,1,0
352,192,137053,1,0
224,288,137476,2,0,B|96:224,1,115,4|0
288,192,137898,2,0,B|416:128,1,115,0|4
352,192,138743,5,0
352,192,138849,1,0
352,192,138954,1,0
288,192,139166,1,4
288,192,139377,1,0
224,192,139588,1,0
224,192,139800,1,4
160,192,140011,2,0,B|160:256,4,57.5
160,96,140645,6,0,B|288:96,1,115,0|4
352,160,141067,6,0,B|192:160,1,115
160,224,141490,6,0,B|320:224,1,115,4|0
352,288,141912,6,0,B|192:288,1,115
128,272,142335,1,0
128,240,142440,1,0
128,208,142546,1,4
128,96,142757,1,0
128,96,142969,1,0
384,64,144025,5,4
384,96,144130,1,0
384,128,144236,1,4
384,256,144447,1,0
384,256,144659,1,0
192,64,145715,5,0
192,96,145820,1,0
192,128,145926,1,4
192,256,146137,1,0
192,256,146349,1,0
320,64,147405,5,0
320,96,147510,1,0
320,128,147616,1,4
320,256,147827,1,0
320,256,148039,1,0
256,288,148250,5,4
256,256,148356,1,0
256,224,148462,1,0
256,192,148567,1,0
256,160,148673,1,4
256,128,148779,1,0
256,96,148884,1,0
256,192,149095,12,4,154588
