osu file format v7

[General]
AudioFilename: 03. Golden Skans.mp3
AudioLeadIn: 0
PreviewTime: -1
Countdown: 1
SampleSet: Soft
StackLeniency: 0.7
Mode: 0
LetterboxInBreaks: 1

[Editor]
Bookmarks: 74518,77898,81279,94800,95856,96067,96279,96490,98180,102617,121842
DistanceSpacing: 0.800000011920929
BeatDivisor: 4
GridSize: 32

[Metadata]
Title:Golden Skans
Artist:Klaxons
Creator:psychedelic_
Version:is normal
Source:
Tags:klaxons, golden skans, skans, zxz

[Difficulty]
HPDrainRate:4
CircleSize:3
OverallDifficulty:5
SliderMultiplier:1.4
SliderTickRate:2

[Events]
//Background and Video events
0,0,"Untitled-1.jpg"
//Break Periods
2,27394,32755
//Storyboard Layer 0 (Background)
//Storyboard Layer 1 (Fail)
//Storyboard Layer 2 (Pass)
//Storyboard Layer 3 (Foreground)
//Storyboard Sound Samples
//Background Colour Transformations
3,100,255,255,255

[TimingPoints]
1842.39112423571,422.535211267606,4,2,1,79,1,0
13673,-100,4,2,1,79,0,1
27194,-100,4,2,1,79,0,0
54236,-100,4,2,1,79,0,1
67757,-100,4,2,1,79,0,0
108321,-100,4,2,1,79,0,1
115081,-100,4,2,1,79,0,0
121842,-100,4,2,1,79,0,1
135363,-100,4,2,1,79,0,0

[Colours]
Combo1 : 255,255,255
Combo2 : 255,17,136
Combo3 : 255,6,255
Combo4 : 240,5,5

[HitObjects]
96,128,13673,5,0
192,128,14095,2,0,B|352:128,1,140,4|0
416,128,14729,1,4
416,128,14941,1,0
416,224,15363,5,0
320,224,15785,2,0,B|160:224,1,140,4|0
96,224,16419,1,4
96,224,16631,1,0
192,320,17053,6,0,B|96:320,2,70,0|0|4
256,320,17687,1,0
320,320,17898,2,0,B|416:320,2,70,0|4|0
320,192,18743,6,0,B|320:96|192:96|192:192,2,210,0|0|4
352,288,20433,5,0
288,288,20645,1,0
224,288,20856,1,4
160,288,21067,2,0,B|64:288,3,70,0|0|4|0
96,192,22124,5,0
160,192,22336,1,0
224,192,22547,1,4
288,192,22758,2,0,B|384:192,2,70,0|0|4
288,192,23391,1,0
288,128,23602,2,0,B|288:64,8,35,0|0|0|0|0|0|4|0|0
256,192,24659,12,4,26771
256,192,27194,5,0
128,192,33955,6,0,B|224:192|224:96,1,140,0|4
384,192,34800,2,0,B|288:192|288:96,1,140,0|0
256,32,35645,1,0
256,96,35856,1,0
256,160,36067,1,4
256,224,36279,2,0,B|256:288,6,35,0|0|0|0|4|0|0
192,288,37335,6,0,B|192:128,1,140,0|4
320,160,38180,2,0,B|320:256,2,70,0|4|0
192,288,39025,6,0,B|192:128,1,140,0|4
320,160,39870,1,0
320,224,40081,1,4
320,288,40293,1,4
64,192,40715,6,0,C|64:96|96:192|96:96,1,280
160,64,41771,1,4
192,128,41983,1,0
256,96,42194,1,0
288,160,42405,1,0
384,96,42828,2,0,C|384:256,1,140,4|0
448,192,44095,6,0,C|448:288|416:192|416:288,1,280
352,320,45151,1,4
320,256,45363,1,0
256,288,45574,1,0
224,224,45785,1,0
128,160,46208,2,0,C|128:64,2,70,0|4|0
384,128,47476,6,0,B|384:0|448:0|448:128|448:192|384:192|384:224|192:192,1,420,0|4
96,128,49166,2,0,B|96:64,4,35,0|0|0|0|4
160,128,49800,1,0
224,128,50011,2,0,B|224:64,4,35,0|0|4|0|0
64,320,50856,2,0,B|160:320|160:256|32:256|32:192|224:224,1,280
256,224,51912,2,0,B|352:224,1,70
288,128,52546,2,0,B|288:64,4,35,0|0|0|0|4
352,128,53180,1,0
416,128,53391,2,0,B|416:64,4,35,0|0|4|0|0
