osu file format v12

[General]
AudioFilename: 08. Hanabi .mp3
AudioLeadIn: 1200
PreviewTime: 58397
Countdown: 0
SampleSet: Soft
StackLeniency: 0.8
Mode: 0
LetterboxInBreaks: 1
WidescreenStoryboard: 1

[Editor]
DistanceSpacing: 0.9
BeatDivisor: 2
GridSize: 8
TimelineZoom: 1

[Metadata]
Title:Hanabi
TitleUnicode:Hanabi
Artist:Kiyoura Natsumi
ArtistUnicode:Kiyoura Natsumi
Creator:Potla
Version:Normal
Source:Tamayura~Hitotose~
Tags:Tamayura ~hitotose~ Vocal Album - nanode.
BeatmapID:404400
BeatmapSetID:166361

[Difficulty]
HPDrainRate:4
CircleSize:3
OverallDifficulty:3
ApproachRate:4
SliderMultiplier:1.2
SliderTickRate:1

[Events]
//Background and Video events
0,0,"BG.jpg",0,0
//Break Periods
2,86241,90064
2,171716,182937
2,253496,259579
//Storyboard Layer 0 (Background)
//Storyboard Layer 1 (Fail)
//Storyboard Layer 2 (Pass)
//Storyboard Layer 3 (Foreground)
//Storyboard Sound Samples
//Background Colour Transformations
3,100,163,162,255

[TimingPoints]
574,410.958904109589,4,2,0,50,1,0
574,-100,4,2,0,50,0,0
34067,-100,4,1,0,50,0,0
34272,-100,4,2,0,50,0,0
35916,-100,4,1,0,50,0,0
36121,-100,4,2,0,50,0,0
44957,-100,4,1,0,50,0,0
45163,-100,4,2,0,50,0,0
53176,-100,4,1,0,50,0,0
53382,-100,4,2,0,50,0,0
59135,-100,4,3,0,50,0,0
59752,-100,4,2,0,50,0,1
64672,410.958904109589,4,2,0,50,1,1
65493,-100,4,1,0,50,0,1
65699,-100,4,2,0,50,0,1
66932,-100,4,2,0,50,0,1
68781,-100,4,1,0,50,0,0
68987,-100,4,2,0,50,0,0
70425,-100,4,1,0,50,0,0
70630,-100,4,2,0,50,0,0
78644,-100,4,1,0,50,0,0
78850,-100,4,2,0,50,0,0
81932,-100,4,1,0,50,0,0
82137,-100,4,2,0,50,0,0
83165,-100,4,3,0,50,0,0
84192,-100,4,2,0,50,0,0
84398,-100,4,1,0,50,0,0
84603,-100,4,2,0,50,0,0
103302,-100,4,1,0,50,0,0
103507,-100,4,2,0,50,0,0
127126,410.958904109589,4,2,0,50,1,0
133295,410.958904109589,4,2,0,50,1,0
134527,-100,4,1,0,50,0,0
134733,-100,4,2,0,50,0,0
144596,-100,4,3,0,50,0,0
145216,410.958904109589,4,2,0,50,1,1
150969,-100,4,1,0,50,0,1
151174,-100,4,2,0,50,0,1
152407,-100,4,2,0,50,0,0
154257,-100,4,1,0,50,0,0
154462,-100,4,2,0,50,0,0
164120,-100,4,1,0,50,0,0
164325,-100,4,2,0,50,0,0
167407,-100,4,1,0,50,0,0
167613,-100,4,2,0,50,0,0
168024,-133.333333333333,4,2,0,50,0,0
168640,-100,4,2,0,50,0,0
170900,-100,4,3,0,50,0,0
171517,-100,4,2,0,50,0,0
185489,-100,4,1,0,50,0,0
185695,-100,4,2,0,50,0,0
187133,-100,4,1,0,50,0,0
187339,-100,4,2,0,50,0,0
188777,-100,4,1,0,50,0,0
188983,-100,4,2,0,50,0,0
189599,-100,4,3,0,50,0,0
189805,-100,4,2,0,50,0,0
196585,-100,4,3,0,50,0,0
197613,-100,4,1,0,50,0,0
197818,-100,4,1,0,50,0,1
198024,-100,4,2,0,50,0,1
205216,-100,4,1,0,50,0,1
205421,-100,4,2,0,50,0,1
207065,-100,4,2,0,50,0,0
207887,-100,4,1,0,50,0,0
208092,-100,4,2,0,50,0,0
209287,410.958904109589,4,2,0,50,1,0
209903,-100,4,2,0,50,0,0
210930,-100,4,1,0,50,0,0
211135,-100,4,2,0,50,0,0
215040,-100,4,1,0,50,0,0
215245,-100,4,2,0,50,0,0
216067,-100,4,1,0,50,0,0
216272,-100,4,2,0,50,0,0
216716,410.958904109589,4,2,0,50,1,0
220003,-100,4,1,0,50,0,0
220209,-100,4,2,0,50,0,0
224490,410.958904109589,4,2,0,50,1,0
227781,410.958904109589,4,2,0,50,1,0
231927,410.958904109589,4,2,0,50,1,0
233159,-100,4,1,0,50,0,0
233364,-100,4,2,0,50,0,0
238912,-100,4,1,0,50,0,0
239118,-100,4,2,0,50,0,0
239940,-100,4,1,0,50,0,0
240145,-100,4,2,0,50,0,0
241379,-100,4,1,0,50,0,0
241584,-100,4,2,0,50,0,0
252474,-100,4,3,0,50,0,0
253296,-100,4,2,0,50,0,0

[HitObjects]
128,88,573,5,2,0:0:0:0:
128,88,984,2,0,P|56:176|128:264,1,240
224,288,2217,2,0,L|344:288,1,120
408,80,3450,5,2,0:0:0:0:
408,80,3861,2,0,P|480:160|416:256,1,240
312,288,5094,2,0,L|184:288,1,120
96,240,5916,1,0,0:0:0:0:
136,32,6738,5,0,0:0:0:0:
136,32,7149,2,2,P|176:8|248:40,1,120
320,96,7971,1,0,0:0:0:0:
400,168,8382,1,0,0:0:0:0:
352,256,8793,6,2,B|336:328|256:320|256:320,1,120
160,280,9615,1,0,0:0:0:0:
72,216,10026,1,0,0:0:0:0:
72,112,10437,2,2,B|104:48|104:48|160:32,1,120
256,32,11258,2,0,B|302:45|302:45|334:109,1,120
224,120,12080,5,2,0:0:0:0:
136,184,12491,1,0,0:0:0:0:
160,288,12902,1,0,0:0:0:0:
264,296,13313,6,2,P|312:256|312:200,1,120
240,120,14135,1,0,0:0:0:0:
152,56,14546,1,0,0:0:0:0:
80,136,14957,6,2,P|48:192|72:240,1,120
168,288,15779,1,0,0:0:0:0:
200,288,16190,1,2,0:0:0:0:
304,288,16601,6,0,L|424:224,1,120
408,120,17423,2,0,L|304:56,1,120
200,32,18245,1,0,0:0:0:0:
96,72,18656,5,0,0:0:0:0:
184,144,19478,2,0,P|192:200|248:224,1,120
352,224,20300,1,2,0:0:0:0:
456,200,20710,5,0,0:0:0:0:
416,304,21121,2,0,L|296:304,1,120
184,304,21943,1,2,0:0:0:0:
112,224,22354,1,0,0:0:0:0:
136,120,22765,6,0,P|168:56|232:48,1,120
280,128,23587,1,2,0:0:0:0:
352,48,23999,6,0,P|416:96|416:136,1,120
408,240,24820,2,2,P|407:286|343:326,1,120
264,296,25642,1,0,0:0:0:0:
160,264,26053,1,0,0:0:0:0:
168,160,26464,6,2,P|104:160|72:200,1,120
48,304,27286,1,0,0:0:0:0:
152,336,27697,2,0,L|272:336,1,120
384,328,28519,1,2,0:0:0:0:
472,264,28930,2,0,P|496:208|480:144,1,120
376,144,29752,5,0,0:0:0:0:
376,144,30163,2,0,P|353:83|299:63,1,120,0|0,0:0|0:0,2:0:0:0:
305,63,30779,2,0,P|216:48|144:96,1,180
136,200,31806,6,0,P|224:304|328:272,1,240
384,208,33039,1,2,0:0:0:0:
384,208,33450,2,0,P|400:136|320:72,1,180
216,80,34478,6,0,L|96:120,1,120
96,120,35094,2,0,P|72:184|168:320,1,240
264,320,36327,6,0,P|336:320|368:280,1,120
408,192,37149,2,0,P|416:128|376:88,1,120
272,112,37971,2,0,P|184:96|120:216,1,240
144,320,39204,2,0,P|184:360|240:336,1,120
320,272,40026,5,0,0:0:0:0:
392,176,40437,1,0,0:0:0:0:
312,104,40847,1,0,0:0:0:0:
312,104,41258,1,0,0:0:0:0:
312,104,41669,2,0,P|224:104|160:168,1,180
56,168,42697,6,0,P|72:248|160:272,1,180
312,120,44135,2,0,P|416:128|432:248,1,240
248,272,45779,1,0,0:0:0:0:
144,232,46190,6,0,P|96:192|96:136,1,120
144,40,47012,1,0,0:0:0:0:
144,40,47423,1,2,0:0:0:0:
224,104,47834,5,0,0:0:0:0:
304,32,48245,2,0,P|360:56|384:112,1,120
416,208,49067,1,2,0:0:0:0:
312,240,49478,5,0,0:0:0:0:
256,152,49889,2,0,P|216:192|216:264,1,120
304,328,50710,1,2,0:0:0:0:
304,328,51121,1,0,0:0:0:0:
408,328,51532,2,0,P|501:234|490:185,1,180
496,199,52354,2,0,P|448:96|320:88,1,240
224,88,53587,6,0,P|136:88|112:120,1,120
192,184,54409,1,0,0:0:0:0:
192,184,54820,1,2,0:0:0:0:
112,256,55231,2,0,P|208:312|296:240,1,240
256,192,56464,12,8,58108,0:0:0:0:
352,112,58519,5,8,0:0:0:0:
248,80,58930,1,0,0:0:0:0:
248,80,59341,1,0,0:0:0:0:
160,144,59752,2,0,P|128:240|184:296,1,180
174,292,60573,1,8,0:0:0:0:
304,192,61190,6,0,P|384:168|384:80,1,180
288,48,62217,1,8,0:0:0:0:
288,48,62628,2,0,P|232:24|176:48,1,120
128,144,63450,1,0,0:0:0:0:
176,240,63861,1,8,0:0:0:0:
240,152,64272,6,0,L|368:152,1,120
312,248,65082,2,0,L|432:248,1,120
392,352,65904,1,2,0:0:0:0:
392,352,66315,2,0,L|208:352,1,180
160,352,67137,1,8,0:0:0:0:
88,272,67548,6,0,P|64:224|96:152,1,120
152,80,68370,2,0,P|200:48|256:72,1,120
344,128,69192,1,2,0:0:0:0:
344,128,69603,2,0,P|408:208|336:320,1,240
224,320,70836,1,0,0:0:0:0:
224,320,71247,1,8,0:0:0:0:
128,264,71658,5,0,0:0:0:0:
128,160,72069,1,8,0:0:0:0:
128,160,72480,1,2,0:0:0:0:
208,88,72891,2,0,P|288:56|376:88,1,180
373,85,73713,1,8,0:0:0:0:
480,208,74329,6,0,P|472:312|408:344,1,180
376,240,75356,1,2,0:0:0:0:
376,240,75767,2,0,P|256:232|224:184,1,180
224,184,76589,1,0,0:0:0:0:
192,80,77000,1,8,0:0:0:0:
296,96,77411,1,0,0:0:0:0:
296,96,77822,1,0,0:0:0:0:
368,176,78233,6,0,L|296:280,1,120
240,192,79055,2,0,L|168:296,1,120
96,216,79877,1,0,0:0:0:0:
96,216,80288,2,0,P|96:112|168:72,1,180
152,74,81110,1,2,0:0:0:0:
208,168,81521,2,0,L|328:168,1,120
400,88,82343,2,0,P|464:136|392:248,1,240
288,280,83576,2,0,L|216:280,4,60
256,192,84808,12,2,86041,0:0:0:0:
136,96,91384,5,4,0:0:0:0:
136,96,91795,2,0,L|216:96,2,60
56,168,92617,6,0,P|72:224|136:240,1,120
232,256,93439,1,8,0:0:0:0:
312,176,93850,1,0,0:0:0:0:
368,264,94261,2,0,P|344:336|288:336,1,120
200,312,95082,1,8,0:0:0:0:
112,248,95493,5,2,0:0:0:0:
112,248,95904,2,0,P|80:192|120:144,1,120
200,88,96726,1,8,0:0:0:0:
200,88,97137,2,0,P|224:144|288:136,1,120
360,80,97959,1,0,0:0:0:0:
464,72,98370,1,8,0:0:0:0:
496,176,98781,5,2,0:0:0:0:
448,272,99192,2,0,P|384:328|336:320,1,120
248,328,100014,1,2,0:0:0:0:
144,296,100425,2,0,P|96:192|160:88,1,240
248,144,101658,1,8,0:0:0:0:
312,56,102069,5,0,0:0:0:0:
312,56,102480,1,2,0:0:0:0:
312,56,102891,2,0,P|376:96|384:144,1,120
408,240,103713,1,8,0:0:0:0:
408,240,104124,1,0,0:0:0:0:
304,208,104535,1,0,0:0:0:0:
264,304,104945,1,8,0:0:0:0:
168,248,105356,5,2,0:0:0:0:
168,248,105562,1,0,0:0:0:0:
168,248,105767,2,0,P|96:192|64:168,1,120
64,64,106589,1,8,0:0:0:0:
168,24,107000,1,0,0:0:0:0:
272,24,107411,2,0,P|325:28|374:85,1,120
320,168,108233,1,8,0:0:0:0:
408,232,108644,6,0,P|360:288|312:296,1,120
224,240,109466,1,0,0:0:0:0:
128,296,109877,2,0,P|48:256|72:120,1,240
152,56,111110,1,0,0:0:0:0:
200,152,111521,1,8,0:0:0:0:
200,152,111932,6,0,P|304:112|360:216,1,240
304,304,113165,1,8,0:0:0:0:
408,344,113576,2,0,P|512:296|480:184,1,240
424,104,114808,1,8,0:0:0:0:
352,184,115219,5,0,0:0:0:0:
352,184,115630,1,0,0:0:0:0:
352,184,116041,2,0,P|296:80|184:104,1,240
96,152,117274,1,2,0:0:0:0:
184,208,117685,1,2,0:0:0:0:
288,248,118096,5,2,0:0:0:0:
288,248,118302,1,0,0:0:0:0:
288,248,118507,2,0,P|352:264|408:216,1,120
400,120,119329,2,0,P|352:88|288:96,1,120
216,168,120151,5,2,0:0:0:0:
216,168,120562,2,0,L|144:168,2,60
320,208,121384,1,8,0:0:0:0:
400,136,121795,6,0,P|439:186|416:248,1,120
336,296,122617,1,2,0:0:0:0:
232,256,123028,2,0,L|104:256,1,120
32,184,123850,5,0,0:0:0:0:
32,184,124261,1,0,0:0:0:0:
96,96,124672,5,8,0:0:0:0:
96,96,125082,1,0,0:0:0:0:
192,152,125493,1,0,0:0:0:0:
376,272,126316,6,0,P|408:160|320:80,1,240
232,40,127536,2,0,P|120:32|56:144,1,240
128,216,128769,5,2,0:0:0:0:
320,312,129591,1,2,0:0:0:0:
408,112,130413,1,2,0:0:0:0:
408,112,130619,1,0,0:0:0:0:
320,48,131030,2,0,B|232:48|288:144|184:144,1,180
88,144,132057,6,0,P|88:224|120:256,1,120
208,296,132879,1,8,0:0:0:0:
312,328,133295,2,0,P|384:336|424:288,1,120
424,200,134116,2,0,L|424:132,2,60
320,216,134938,5,2,0:0:0:0:
256,136,135349,1,0,0:0:0:0:
152,128,135760,1,0,0:0:0:0:
80,208,136171,2,0,P|112:320|176:328,1,180
160,328,136993,2,0,P|240:320|280:224,1,180
281,237,137815,1,2,0:0:0:0:
384,200,138226,2,0,L|384:72,1,120
280,72,139048,5,2,0:0:0:0:
176,96,139459,1,8,0:0:0:0:
104,176,139870,2,0,P|120:264|160:288,1,120
240,320,140692,1,0,0:0:0:0:
344,296,141103,1,8,0:0:0:0:
256,192,141514,12,8,143158,0:0:0:0:
400,272,143979,5,2,0:0:0:0:
288,272,144390,2,0,L|208:272,2,60
344,176,145216,2,0,P|288:64|240:56,1,180
244,55,146037,1,8,0:0:0:0:
88,104,146654,6,0,P|32:176|72:256,1,180
160,296,147681,1,8,0:0:0:0:
160,296,148092,2,0,P|216:320|272:304,1,120
352,232,148914,1,0,0:0:0:0:
368,128,149325,1,8,0:0:0:0:
280,72,149736,6,0,P|184:48|152:64,1,120
232,144,150558,2,0,P|184:184|184:240,1,120
288,224,151380,1,2,0:0:0:0:
288,224,151791,2,0,P|320:320|392:320,1,180
386,322,152613,1,8,0:0:0:0:
456,240,153024,6,0,P|448:152|416:120,1,120
360,72,153846,2,0,P|304:40|240:48,1,120
152,80,154668,1,0,0:0:0:0:
152,80,155079,2,0,P|72:160|96:280,1,240
192,320,156311,1,0,0:0:0:0:
192,320,156722,1,8,0:0:0:0:
272,248,157133,5,0,0:0:0:0:
376,272,157544,1,2,0:0:0:0:
376,272,157955,1,2,0:0:0:0:
424,176,158366,2,0,P|384:72|320:48,1,180
320,48,159188,1,8,0:0:0:0:
168,64,159805,6,0,P|80:144|88:200,1,180
184,160,160832,1,8,0:0:0:0:
184,160,161243,2,0,P|296:216|344:192,1,180
336,197,162065,1,0,0:0:0:0:
416,120,162476,1,8,0:0:0:0:
320,64,162887,5,2,0:0:0:0:
320,64,163298,1,0,0:0:0:0:
264,160,163709,6,0,P|248:224|312:256,1,120
376,200,164531,2,0,P|416:248|400:304,1,120
304,344,165352,1,2,0:0:0:0:
304,344,165763,2,0,P|192:353|128:240,1,240
120,144,166996,6,0,P|145:67|190:53,1,120
288,48,167818,2,0,P|375:64|408:200,1,240
328,264,169051,2,0,L|328:336,2,60
256,184,169873,2,0,L|184:184,8,60
152,280,184257,6,0,P|104:192|192:104,1,240
256,16,185489,1,2,0:0:0:0:
320,104,185900,2,0,P|404:177|358:279,1,240
256,304,187133,6,0,L|256:168,1,120
256,72,187955,1,0,0:0:0:0:
256,72,188161,2,0,P|320:16|416:32,1,180
504,72,189188,1,2,0:0:0:0:
504,176,189599,5,0,0:0:0:0:
400,144,190010,1,0,0:0:0:0:
304,184,190421,1,0,0:0:0:0:
264,288,190832,1,0,0:0:0:0:
264,288,191243,1,0,0:0:0:0:
264,288,191654,6,0,B|247:279|247:279|240:287|240:287|231:280|231:280|224:288|224:288|215:281|215:281|207:289|207:289|200:281|200:281|192:289|192:289|183:281|183:281|168:288,2,120
296,184,192887,2,0,P|359:270|288:368,1,240
184,368,194120,2,0,P|136:352|120:288,1,120
80,80,195352,1,8,0:0:0:0:
120,112,196174,2,0,L|192:112,8,60
104,216,198229,6,0,P|184:304|240:296,1,180
336,256,199257,1,0,0:0:0:0:
392,168,199668,1,2,0:0:0:0:
392,168,199873,1,0,0:0:0:0:
352,64,200284,1,8,0:0:0:0:
272,136,200695,6,0,P|240:104|152:112,1,120
80,168,201517,2,0,L|80:296,1,120
184,328,202339,1,0,0:0:0:0:
240,240,202750,1,2,0:0:0:0:
240,240,203161,1,0,0:0:0:0:
320,312,203572,1,8,0:0:0:0:
392,232,203983,6,0,P|424:128|408:104,1,120
328,144,204805,2,0,P|264:120|208:144,1,120
120,96,205626,2,0,L|120:176,1,60
128,264,206243,1,2,0:0:0:0:
128,264,206448,1,0,0:0:0:0:
216,328,206859,1,8,0:0:0:0:
264,232,207270,6,0,P|280:144|360:128,1,180
360,128,208092,1,2,0:0:0:0:
424,216,208503,2,0,P|376:312|304:312,1,180
313,315,209287,2,0,P|240:312|208:208,1,180
272,144,210314,2,0,L|320:144,6,30
176,64,211341,6,0,P|120:128|152:208,1,180
240,144,212369,1,0,0:0:0:0:
344,168,212780,1,2,0:0:0:0:
344,168,212985,1,0,0:0:0:0:
376,272,213396,1,8,0:0:0:0:
376,272,213807,6,0,P|256:312|208:288,1,180
216,296,214629,2,0,P|163:252|155:196,1,120
144,96,215451,1,2,0:0:0:0:
224,24,215862,1,0,0:0:0:0:
296,104,216273,1,0,0:0:0:0:
216,176,216684,5,2,0:0:0:0:
216,176,217126,2,0,P|328:256|392:200,1,240
416,88,218359,1,8,0:0:0:0:
312,64,218770,5,2,0:0:0:0:
312,64,219181,2,0,P|208:128|224:240,1,240
256,192,220825,12,8,222880,0:0:0:0:
160,120,223702,5,2,0:0:0:0:
160,120,224113,1,8,0:0:0:0:
352,176,224900,1,2,0:0:0:0:
168,288,225722,1,2,0:0:0:0:
80,224,226133,5,0,0:0:0:0:
88,120,226544,1,2,0:0:0:0:
88,120,226955,1,0,0:0:0:0:
200,88,227366,2,0,B|272:104|256:192|336:200,1,180
336,200,228191,1,8,0:0:0:0:
480,120,228808,6,0,P|512:208|472:288,1,180
400,208,229835,1,8,0:0:0:0:
400,208,230246,2,0,P|336:200|304:248,1,120
272,344,231068,1,2,0:0:0:0:
192,272,231479,1,8,0:0:0:0:
168,168,231927,6,0,L|280:112,1,120
376,144,232748,2,0,L|264:200,1,120
296,304,233570,1,0,0:0:0:0:
296,304,233981,2,0,P|168:312|144:280,1,180
144,281,234803,1,8,0:0:0:0:
96,184,235214,2,0,P|104:112|144:72,1,120
240,56,236036,6,0,L|360:56,1,120
440,128,236858,1,2,0:0:0:0:
440,128,237269,2,0,P|480:216|432:296,1,180
445,285,238091,1,8,0:0:0:0:
344,320,238502,2,0,L|264:320,2,60
352,216,239324,5,0,0:0:0:0:
312,120,239735,1,8,0:0:0:0:
208,88,240146,1,0,0:0:0:0:
104,120,240557,2,0,P|40:208|112:296,1,240
368,336,241995,2,0,P|448:283|442:201,1,180
344,232,243022,1,8,0:0:0:0:
344,232,243433,2,0,P|320:128|200:128,1,240
136,208,244666,1,8,0:0:0:0:
112,104,245077,5,2,0:0:0:0:
112,104,245488,1,2,0:0:0:0:
40,184,245899,2,0,P|48:280|80:296,1,120
40,184,246721,2,0,P|120:224|152:208,1,120
224,288,247543,6,0,L|296:288,2,60
256,184,248365,2,0,L|328:184,2,60
304,88,249187,2,0,L|376:88,4,60
200,128,250420,1,0,0:0:0:0:
80,304,251242,5,8,0:0:0:0:
40,200,251653,1,2,0:0:0:0:
120,128,252063,1,0,0:0:0:0:
208,192,252474,1,0,0:0:0:0:
192,296,252885,1,8,0:0:0:0:
296,328,253296,1,2,0:0:0:0:
256,192,260899,12,8,264187,0:0:0:0:
