osu file format v12

[General]
AudioFilename: 08. Hanabi .mp3
AudioLeadIn: 1200
PreviewTime: 58397
Countdown: 0
SampleSet: Soft
StackLeniency: 0.9
Mode: 0
LetterboxInBreaks: 1
WidescreenStoryboard: 1

[Editor]
DistanceSpacing: 0.9
BeatDivisor: 4
GridSize: 8
TimelineZoom: 1

[Metadata]
Title:Hanabi
TitleUnicode:Hanabi
Artist:Kiyoura Natsumi
ArtistUnicode:Kiyoura Natsumi
Creator:Potla
Version:Hard
Source:Tamayura~Hitotose~
Tags:Tamayura ~hitotose~ Vocal Album - nanode.
BeatmapID:404398
BeatmapSetID:166361

[Difficulty]
HPDrainRate:5
CircleSize:4
OverallDifficulty:7
ApproachRate:8
SliderMultiplier:1.6
SliderTickRate:1

[Events]
//Background and Video events
0,0,"BG.jpg",0,0
//Break Periods
2,86241,90634
2,171717,183507
2,253907,259944
//Storyboard Layer 0 (Background)
//Storyboard Layer 1 (Fail)
//Storyboard Layer 2 (Pass)
//Storyboard Layer 3 (Foreground)
//Storyboard Sound Samples
//Background Colour Transformations
3,100,163,162,255

[TimingPoints]
574,410.958904109589,4,2,0,50,1,0
574,-100,4,2,0,50,0,0
59135,-100,4,3,0,50,0,0
59341,-100,4,2,0,50,0,0
59752,-100,4,2,0,50,0,1
64672,410.958904109589,4,2,0,50,1,1
66932,-100,4,2,0,50,0,0
83165,-100,4,3,0,50,0,0
84192,-100,4,2,0,50,0,0
127126,410.958904109589,4,2,0,50,1,0
133295,410.958904109589,4,2,0,50,1,0
144596,-100,4,3,0,50,0,0
144801,-100,4,2,0,50,0,1
145216,410.958904109589,4,3,0,50,1,1
145421,-100,4,2,0,50,0,1
152407,-100,4,2,0,50,0,0
152818,-100,4,2,0,50,0,0
168024,-133.333333333333,4,2,0,50,0,0
168640,-100,4,2,0,50,0,0
170900,-100,4,3,0,50,0,0
171517,-100,4,2,0,50,0,0
185489,-100,4,1,0,50,0,0
185695,-100,4,2,0,50,0,0
187132,-100,4,1,0,50,0,0
187339,-100,4,2,0,50,0,0
188777,-100,4,1,0,50,0,0
188983,-100,4,2,0,50,0,0
189599,-100,4,3,0,50,0,0
189805,-100,4,2,0,50,0,0
196585,-100,4,3,0,50,0,0
197613,-100,4,2,0,50,0,0
197818,-100,4,2,0,50,0,1
207065,-100,4,2,0,50,0,0
207887,-100,4,1,0,50,0,0
208092,-100,4,2,0,50,0,0
209287,410.958904109589,4,2,0,50,1,0
210725,-100,4,2,0,50,0,0
216273,-100,4,1,0,50,0,0
216479,-100,4,2,0,50,0,0
216716,410.958904109589,4,2,0,50,1,0
224490,410.958904109589,4,2,0,50,1,0
227161,-100,4,1,0,50,0,0
227366,-100,4,1,0,50,0,0
227781,410.958904109589,4,2,0,50,1,0
231927,410.958904109589,4,2,0,50,1,0
239940,-100,4,1,0,50,0,0
240145,-100,4,2,0,50,0,0
252474,-100,4,3,0,50,0,0
253296,-100,4,2,0,50,0,0

[HitObjects]
168,112,574,5,2,0:0:0:0:
288,64,984,1,0,0:0:0:0:
408,88,1395,2,0,P|456:144|424:216,1,160
296,288,2217,1,2,0:0:0:0:
296,288,2628,1,0,0:0:0:0:
176,280,3450,5,0,0:0:0:0:
128,144,3861,1,2,0:0:0:0:
248,72,4272,1,0,0:0:0:0:
376,136,4683,2,0,P|400:200|344:264,1,160
208,296,5505,1,2,0:0:0:0:
128,176,5916,1,0,0:0:0:0:
96,112,6738,6,0,P|104:64|136:40,1,80
192,16,7149,1,2,0:0:0:0:
336,64,7560,1,0,0:0:0:0:
160,80,7971,1,0,0:0:0:0:
336,152,8382,1,0,0:0:0:0:
272,16,8793,1,2,0:0:0:0:
232,152,9204,1,0,0:0:0:0:
232,152,9409,1,0,0:0:0:0:
232,152,9615,2,0,P|152:168|120:248,1,160
168,288,10231,1,0,0:0:0:0:
232,312,10437,6,2,L|320:312,1,80
384,312,10847,1,0,0:0:0:0:
424,248,11053,2,0,L|424:160,1,80
424,96,11464,1,2,0:0:0:0:
368,48,11669,2,0,L|192:48,1,160
104,152,12491,1,2,0:0:0:0:
104,152,12697,1,0,0:0:0:0:
104,152,12902,1,2,0:0:0:0:
144,304,13313,6,0,P|216:328|312:296,1,160
352,264,13930,1,2,0:0:0:0:
352,264,14135,2,0,P|400:200|392:112,1,160
288,32,14957,2,0,P|216:0|136:48,1,160
88,168,15779,1,2,0:0:0:0:
88,184,15984,1,0,0:0:0:0:
88,200,16190,2,0,P|120:248|232:272,1,160
408,176,17012,5,2,0:0:0:0:
264,120,17217,1,0,0:0:0:0:
384,32,17423,1,0,0:0:0:0:
408,176,17628,2,0,L|472:248|472:248,2,80
344,112,18245,1,0,0:0:0:0:
328,112,18656,1,0,0:0:0:0:
312,112,19478,1,2,0:0:0:0:
168,120,19889,6,0,P|96:144|80:224,1,160
152,360,20710,1,0,0:0:0:0:
266,341,20916,1,2,0:0:0:0:
376,320,21121,1,0,0:0:0:0:
240,232,21532,1,0,0:0:0:0:
239,232,21738,2,0,P|200:160|256:96,1,160
304,64,22354,1,0,0:0:0:0:
440,112,22765,1,2,0:0:0:0:
424,256,23176,5,2,0:0:0:0:
368,296,23382,1,0,0:0:0:0:
304,328,23587,2,0,P|224:344|144:296,1,160
96,232,24204,1,0,0:0:0:0:
192,104,24409,1,2,0:0:0:0:
368,120,24615,1,0,0:0:0:0:
368,120,24820,2,0,P|432:152|432:248,1,160
288,328,25642,1,0,0:0:0:0:
208,312,25847,1,0,0:0:0:0:
128,288,26053,1,2,0:0:0:0:
256,200,26464,5,0,0:0:0:0:
256,200,26875,2,0,P|352:240|400:192,1,160
432,160,27491,1,2,0:0:0:0:
456,88,27697,2,0,P|408:16|312:48,1,160
288,72,28313,2,0,P|248:136|160:104,1,160
120,72,28930,1,0,0:0:0:0:
112,280,29341,1,2,0:0:0:0:
344,336,29752,5,0,0:0:0:0:
344,336,29957,1,2,0:0:0:0:
344,336,30163,2,0,P|432:336|472:272,1,160
480,192,30779,2,0,L|480:104,3,80
360,40,31806,1,2,0:0:0:0:
216,64,32217,1,0,0:0:0:0:
152,104,32423,1,0,0:0:0:0:
152,104,32526,1,0,0:0:0:0:
152,104,32628,1,0,0:0:0:0:
152,176,32834,1,2,0:0:0:0:
184,240,33039,6,0,L|272:240,1,80
312,312,33450,2,0,L|120:312,1,160
88,280,34067,1,8,0:0:0:0:
112,120,34478,5,2,0:0:0:0:
168,72,34683,1,2,0:0:0:0:
216,128,34889,1,0,0:0:0:0:
216,128,34991,1,0,0:0:0:0:
216,128,35094,1,0,0:0:0:0:
216,128,35300,2,0,P|232:192|336:184,1,160
376,160,35916,1,8,0:0:0:0:
360,304,36327,5,0,0:0:0:0:
312,304,36738,1,0,0:0:0:0:
264,304,37149,1,2,0:0:0:0:
264,304,37354,2,0,P|200:336|112:304,1,160
64,240,37971,2,0,L|64:144,1,80
144,168,38382,2,0,L|144:72,1,80
224,72,38793,2,0,L|224:160,1,80
296,128,39204,2,0,L|296:224,1,80
344,280,39615,1,0,0:0:0:0:
112,320,40026,1,2,0:0:0:0:
184,88,40437,1,0,0:0:0:0:
352,296,40847,1,8,0:0:0:0:
424,256,41053,6,0,P|464:224|472:168,1,80
456,128,41464,1,0,0:0:0:0:
400,80,41669,2,0,P|296:32|176:88,1,240
128,120,42491,1,8,0:0:0:0:
104,184,42697,1,0,0:0:0:0:
128,248,42902,1,2,0:0:0:0:
176,304,43108,2,0,P|288:344|384:272,1,240
400,152,43930,5,2,0:0:0:0:
360,96,44135,2,0,P|336:64|288:64,1,80
224,72,44546,1,2,0:0:0:0:
128,176,44957,1,0,0:0:0:0:
128,176,45163,1,0,0:0:0:0:
128,176,45368,1,2,0:0:0:0:
216,288,45779,2,0,L|304:288,1,80
360,256,46190,6,0,L|384:176,1,80
400,112,46601,1,2,0:0:0:0:
272,40,47012,1,0,0:0:0:0:
272,40,47217,1,0,0:0:0:0:
272,40,47423,1,8,0:0:0:0:
160,128,47834,6,0,L|192:208,1,80
224,264,48245,1,2,0:0:0:0:
280,304,48450,1,0,0:0:0:0:
352,312,48656,1,0,0:0:0:0:
424,304,48861,1,0,0:0:0:0:
480,256,49067,1,8,0:0:0:0:
480,112,49478,5,0,0:0:0:0:
480,112,49683,2,0,L|408:56,1,80
376,120,50094,1,2,0:0:0:0:
376,120,50300,2,0,P|320:176|232:168,1,160
184,136,50916,1,2,0:0:0:0:
152,264,51121,1,8,0:0:0:0:
432,288,51532,2,0,B|344:208|496:152|392:64,1,240
336,40,52354,1,2,0:0:0:0:
152,80,52765,1,0,0:0:0:0:
152,80,52971,1,0,0:0:0:0:
152,80,53176,1,10,0:0:0:0:
136,224,53587,6,0,P|129:263|159:302,1,90
216,272,53998,2,0,P|248:296|296:288,1,90
264,232,54409,2,0,P|288:200|280:152,1,90
224,176,54820,1,8,0:0:0:0:
256,192,55231,12,8,58108,0:0:0:0:
392,96,58519,5,2,0:0:0:0:
264,32,58930,1,0,0:0:0:0:
192,56,59135,1,8,0:0:0:0:
152,120,59341,1,2,0:0:0:0:
152,192,59546,1,8,0:0:0:0:
200,248,59752,2,0,P|249:295|337:286,1,160
440,192,60573,6,0,P|456:104|400:48,1,160
352,8,61190,1,2,0:0:0:0:
280,8,61395,2,0,L|192:8,1,80
128,8,61806,2,0,P|56:48|40:128,1,160
48,192,62423,1,2,0:0:0:0:
48,192,62628,1,0,0:0:0:0:
368,280,63039,5,2,0:0:0:0:
248,16,63450,1,0,0:0:0:0:
104,256,63861,1,8,0:0:0:0:
104,256,64272,2,0,P|130:290|186:282,1,80
176,224,64672,2,0,P|248:184|320:208,1,160
368,256,65288,5,0,0:0:0:0:
376,264,65493,1,0,0:0:0:0:
384,272,65699,1,2,0:0:0:0:
392,280,65904,1,0,0:0:0:0:
400,288,66110,1,2,0:0:0:0:
408,296,66315,2,0,B|504:312|512:192|464:112,1,240
466,116,67137,1,8,0:0:0:0:
344,48,67548,6,2,L|256:48,1,80
192,48,67959,2,0,P|146:62|120:87,1,80
80,144,68370,2,0,P|80:240|136:288,1,160
264,296,69192,1,2,0:0:0:0:
400,336,69603,2,0,B|488:280|432:192|432:192,1,160
392,144,70219,1,2,0:0:0:0:
336,96,70425,2,0,L|256:96,2,80
480,96,71247,1,8,0:0:0:0:
448,240,71658,5,2,0:0:0:0:
224,328,72069,1,0,0:0:0:0:
88,136,72480,2,0,P|104:64|184:40,1,160
248,48,73096,1,0,0:0:0:0:
248,48,73302,1,0,0:0:0:0:
248,48,73507,1,2,0:0:0:0:
332,38,73713,2,0,P|405:61|424:136,1,160
392,200,74329,5,2,0:0:0:0:
368,264,74535,2,0,L|272:264,1,80
248,320,74945,2,0,L|152:320,1,80
112,280,75356,1,8,0:0:0:0:
80,216,75562,1,0,0:0:0:0:
80,144,75767,2,0,P|144:64|272:72,1,240
320,120,76589,1,0,0:0:0:0:
448,328,77000,1,8,0:0:0:0:
152,280,77411,1,0,0:0:0:0:
152,280,77617,1,2,0:0:0:0:
152,280,77822,2,0,P|56:256|40:192,1,160
24,136,78439,6,0,P|58:82|76:84,1,80
136,64,78850,1,2,0:0:0:0:
136,64,79055,1,0,0:0:0:0:
208,64,79261,2,0,P|272:40|360:80,1,160
400,128,79877,1,0,0:0:0:0:
264,312,80288,2,0,B|168:352|112:264|112:264,1,160
104,208,80904,1,2,0:0:0:0:
104,208,81110,1,8,0:0:0:0:
312,64,81521,5,2,0:0:0:0:
416,40,81726,1,0,0:0:0:0:
384,136,81932,1,8,0:0:0:0:
384,136,82137,2,0,L|400:224,1,80
398,214,82548,2,0,P|360:320|240:336,1,240
224,272,83370,2,0,P|176:232|136:240,1,80
224,272,83781,2,0,P|256:218|243:180,1,80
232,136,84192,1,2,0:0:0:0:
232,136,84398,1,8,0:0:0:0:
256,192,84808,12,0,86041,0:0:0:0:
144,104,91384,5,4,0:0:0:0:
144,104,91589,2,0,L|88:104,2,40
216,104,92000,2,0,L|304:104,1,80
368,112,92411,1,2,0:0:0:0:
440,120,92617,2,0,P|480:192|424:264,1,160
384,288,93233,1,0,0:0:0:0:
384,288,93439,1,8,0:0:0:0:
248,328,93850,2,0,P|158:336|100:288,1,160
64,240,94466,1,2,0:0:0:0:
32,176,94672,2,0,P|22:123|46:96,1,80
96,64,95082,1,8,0:0:0:0:
240,32,95493,6,0,L|328:32,1,80
392,40,95904,2,0,P|432:96|400:184,1,160
360,232,96521,1,2,0:0:0:0:
248,320,96932,2,0,P|208:336|168:312,1,80
112,232,97343,1,0,0:0:0:0:
56,136,97548,1,2,0:0:0:0:
328,32,97959,1,2,0:0:0:0:
296,320,98370,1,8,0:0:0:0:
416,240,98781,5,0,0:0:0:0:
416,240,98987,1,2,0:0:0:0:
416,240,99192,2,0,P|440:160|384:104,1,160
328,72,99808,1,2,0:0:0:0:
256,48,100014,2,0,P|168:40|104:104,1,160
80,144,100630,2,0,P|56:216|104:280,1,160
168,312,101247,1,0,0:0:0:0:
400,232,101658,1,8,0:0:0:0:
336,32,102069,5,0,0:0:0:0:
320,32,102274,1,0,0:0:0:0:
304,32,102480,1,2,0:0:0:0:
288,32,102685,1,0,0:0:0:0:
272,32,102891,1,2,0:0:0:0:
256,32,103096,2,0,P|168:40|112:88,1,160
114,84,103713,5,8,0:0:0:0:
248,136,104124,1,2,0:0:0:0:
64,224,104535,1,0,0:0:0:0:
288,256,104945,2,0,P|296:296|344:312,1,80
432,312,105356,1,2,0:0:0:0:
480,192,105562,1,8,0:0:0:0:
416,72,105767,2,0,P|360:32|264:48,1,160
208,80,106384,1,2,0:0:0:0:
56,176,106589,1,8,0:0:0:0:
400,248,107000,5,2,0:0:0:0:
304,144,107206,2,0,P|224:168|184:240,1,160
176,304,107822,1,0,0:0:0:0:
392,328,108233,1,8,0:0:0:0:
416,128,108644,2,0,P|416:80|376:56,1,80
320,48,109055,2,0,L|152:48,1,160
96,72,109672,1,2,0:0:0:0:
40,112,109877,2,0,P|16:184|64:264,1,160
120,288,110493,1,2,0:0:0:0:
192,304,110699,1,0,0:0:0:0:
208,304,111110,1,0,0:0:0:0:
224,304,111521,1,8,0:0:0:0:
368,280,111932,6,0,P|448:232|456:160,1,160
432,104,112548,1,0,0:0:0:0:
384,48,112754,2,0,P|312:16|232:48,1,160
360,248,113576,2,0,P|320:320|232:320,1,160
128,240,114398,1,0,0:0:0:0:
128,240,114603,1,0,0:0:0:0:
128,240,114808,1,8,0:0:0:0:
208,64,115219,6,0,L|296:64,3,80
360,64,116041,1,2,0:0:0:0:
416,104,116247,2,0,P|456:160|416:240,1,160
368,288,116863,2,0,L|200:288,1,160
160,240,117480,2,0,L|112:168,1,80
48,48,118096,5,2,0:0:0:0:
0,144,118302,1,8,0:0:0:0:
48,48,118507,2,0,P|128:0|208:16,1,160
256,48,119124,1,0,0:0:0:0:
312,96,119329,1,0,0:0:0:0:
312,96,119535,1,2,0:0:0:0:
312,96,119740,1,8,0:0:0:0:
424,216,120151,5,2,0:0:0:0:
424,216,120356,1,0,0:0:0:0:
424,216,120562,2,0,P|352:272|272:280,1,160
216,280,121178,2,8,L|136:280,1,80
96,88,121795,5,2,0:0:0:0:
232,24,122000,1,0,0:0:0:0:
216,152,122206,1,2,0:0:0:0:
216,152,122411,1,2,0:0:0:0:
216,152,122617,2,0,P|264:208|352:192,1,160
432,88,123439,6,0,L|432:0,1,80
432,88,123850,2,2,L|520:88,1,80
432,88,124261,2,2,L|432:176,1,80
432,88,124672,2,0,L|336:88,1,80
280,88,125082,1,4,0:0:0:0:
96,152,125493,1,2,0:0:0:0:
160,344,125904,1,0,0:0:0:0:
352,280,126315,5,8,0:0:0:0:
368,272,126521,1,0,0:0:0:0:
384,264,126726,1,2,0:0:0:0:
400,256,126932,1,0,0:0:0:0:
416,248,127126,2,0,P|476:179|448:104,1,160
416,64,127742,2,0,P|360:56|330:77,1,80
288,112,128153,1,2,0:0:0:0:
248,176,128358,2,0,P|168:232|88:216,1,160
56,184,128975,1,0,0:0:0:0:
56,184,129180,1,2,0:0:0:0:
104,32,129591,5,8,0:0:0:0:
104,32,129797,2,2,L|192:32,1,80
328,40,130413,1,8,0:0:0:0:
328,40,130619,2,0,P|424:80|432:136,1,160
424,200,131235,2,0,P|378:281|309:298,1,160
248,288,131852,1,2,0:0:0:0:
184,256,132057,2,0,P|135:192|174:123,1,160
224,80,132673,1,0,0:0:0:0:
224,80,132879,1,8,0:0:0:0:
224,80,133295,6,0,L|304:80,1,80
376,80,133705,2,0,L|464:80,2,80
320,128,134322,1,0,0:0:0:0:
320,128,134527,1,8,0:0:0:0:
416,240,134938,6,0,P|352:304|272:312,1,160
216,312,135555,1,0,0:0:0:0:
144,304,135760,2,0,P|72:248|72:168,1,160
88,112,136377,1,2,0:0:0:0:
120,48,136582,1,0,0:0:0:0:
344,0,136993,2,0,B|456:96|280:200|456:272,1,320
312,312,138226,1,2,0:0:0:0:
192,312,138431,1,0,0:0:0:0:
80,312,138637,1,12,0:0:0:0:
192,120,139048,6,0,L|256:64,1,80
192,120,139459,2,0,L|112:72,1,80
192,120,139870,2,0,P|208:208|280:224,1,160
408,248,140692,2,2,P|360:320|288:328,1,160
256,192,141514,12,8,143568,0:0:0:0:
368,88,143979,5,8,0:0:0:0:
344,232,144390,1,0,0:0:0:0:
344,232,144596,1,8,0:0:0:0:
344,232,144801,2,0,P|272:288|192:288,1,160
144,264,145421,1,2,0:0:0:0:
80,224,145626,2,0,P|40:160|72:88,1,160
136,48,146243,1,2,0:0:0:0:
208,32,146448,1,0,0:0:0:0:
280,48,146654,6,0,L|352:96,1,80
464,120,147065,1,2,0:0:0:0:
472,224,147270,2,0,L|400:264,1,80
384,272,147681,1,2,0:0:0:0:
368,280,147887,1,0,0:0:0:0:
352,288,148092,1,0,0:0:0:0:
104,176,148503,1,0,0:0:0:0:
272,32,148914,1,2,0:0:0:0:
400,192,149325,1,8,0:0:0:0:
200,272,149736,6,0,L|144:200,1,80
200,272,150147,2,0,L|200:352,1,80
200,272,150558,2,0,L|280:240,1,80
296,232,150969,1,8,0:0:0:0:
312,224,151174,1,0,0:0:0:0:
328,216,151380,1,0,0:0:0:0:
344,208,151585,1,2,0:0:0:0:
408,160,151791,2,0,P|440:80|320:16,1,240
256,32,152613,1,8,0:0:0:0:
80,128,153024,6,0,L|80:216,1,80
112,272,153435,1,2,0:0:0:0:
112,272,153640,1,0,0:0:0:0:
160,328,153846,2,0,L|336:328,1,160
376,280,154462,1,2,0:0:0:0:
376,280,154668,1,0,0:0:0:0:
320,48,155079,1,2,0:0:0:0:
128,192,155489,1,0,0:0:0:0:
320,312,155900,2,0,P|392:296|416:208,1,160
400,152,156517,1,0,0:0:0:0:
400,152,156722,1,8,0:0:0:0:
200,64,157133,6,0,L|104:64,1,80
200,136,157544,2,0,L|120:136,1,80
208,208,157955,2,2,L|296:208,1,80
208,280,158366,2,0,L|376:280,1,160
424,232,158983,1,2,0:0:0:0:
424,232,159188,2,0,P|464:152|432:88,1,160
384,40,159805,2,0,L|296:40,1,80
96,144,160421,1,2,0:0:0:0:
256,320,160832,5,8,0:0:0:0:
256,320,161037,1,0,0:0:0:0:
256,320,161243,2,0,P|376:320|416:216,1,240
417,221,162065,1,0,0:0:0:0:
320,40,162476,1,8,0:0:0:0:
144,152,162887,2,0,L|64:152,2,80
432,248,163709,6,0,P|504:272|504:288,1,80
432,248,164120,2,0,P|408:320|392:320,1,80
432,248,164531,2,0,P|368:240|328:160,1,160
400,136,165352,2,0,P|344:80|272:104,1,160
200,224,166174,2,0,L|144:280,2,80
424,272,166996,5,2,0:0:0:0:
424,240,167202,1,0,0:0:0:0:
424,200,167407,1,0,0:0:0:0:
424,168,167613,1,2,0:0:0:0:
424,136,167818,1,0,0:0:0:0:
424,104,168024,2,0,L|424:32,3,60.0000022888184
280,32,169051,2,0,L|192:32,1,80
136,56,169462,2,2,L|64:104,1,80
56,168,169873,2,0,L|56:256,1,80
96,312,170284,1,8,0:0:0:0:
128,312,170489,1,2,0:0:0:0:
160,312,170695,1,2,0:0:0:0:
192,312,170900,1,8,0:0:0:0:
224,312,171106,1,0,0:0:0:0:
256,312,171311,1,0,0:0:0:0:
288,312,171517,1,12,0:0:0:0:
392,280,184257,5,2,0:0:0:0:
392,280,184462,2,0,P|320:320|256:288,1,160
320,216,185284,2,0,P|272:144|240:136,1,80
224,104,185695,1,2,0:0:0:0:
224,32,185900,2,0,L|136:32,1,80
72,48,186311,1,0,0:0:0:0:
72,48,186517,2,0,P|-16:112|16:232,1,240
128,280,187339,1,2,0:0:0:0:
248,312,187544,2,0,L|336:312,1,80
400,232,187955,5,2,0:0:0:0:
432,120,188161,2,0,P|440:72|400:56,1,80
296,56,188572,1,0,0:0:0:0:
184,80,188777,2,0,P|144:120|152:168,1,80
216,152,189188,2,0,P|192:208|88:200,1,160
56,160,189805,5,2,0:0:0:0:
56,160,190010,1,8,0:0:0:0:
56,160,190216,1,2,0:0:0:0:
40,88,190421,2,0,L|104:40,1,80
232,40,190832,2,0,L|168:96,1,80
216,184,191243,5,8,0:0:0:0:
288,248,191448,2,0,L|328:248,4,40
232,328,192065,2,0,L|184:328,4,40
336,360,192681,1,2,0:0:0:0:
336,360,192887,2,0,P|424:328|432:248,1,160
368,272,193503,1,0,0:0:0:0:
368,272,193709,2,0,L|368:192,1,80
368,120,194120,1,0,0:0:0:0:
368,120,194325,1,0,0:0:0:0:
272,56,194531,5,2,0:0:0:0:
272,56,194736,1,0,0:0:0:0:
112,136,195147,1,8,0:0:0:0:
152,216,195352,2,0,L|152:296,1,80
336,344,195969,1,0,0:0:0:0:
424,264,196174,1,2,0:0:0:0:
439,240,196380,1,0,0:0:0:0:
448,214,196585,1,0,0:0:0:0:
450,186,196791,1,0,0:0:0:0:
445,158,196996,1,8,0:0:0:0:
434,133,197202,1,0,0:0:0:0:
416,111,197407,1,2,0:0:0:0:
394,94,197613,1,0,0:0:0:0:
368,83,197818,1,12,0:0:0:0:
224,64,198229,6,0,L|144:64,1,80
80,96,198640,2,0,L|80:176,1,80
128,232,199051,1,0,0:0:0:0:
128,232,199257,1,2,0:0:0:0:
128,232,199462,1,0,0:0:0:0:
304,312,199873,1,0,0:0:0:0:
312,312,200079,1,0,0:0:0:0:
320,312,200284,1,8,0:0:0:0:
416,144,200695,6,0,L|352:88,1,80
320,16,201106,2,0,L|264:80,1,80
216,128,201517,1,2,0:0:0:0:
216,128,201928,1,8,0:0:0:0:
120,232,202339,2,0,P|160:312|224:320,1,160
296,320,202955,1,2,0:0:0:0:
296,320,203161,1,0,0:0:0:0:
448,224,203572,1,8,0:0:0:0:
280,168,203983,6,0,L|280:72,1,80
200,96,204394,2,0,L|200:0,1,80
120,0,204805,2,0,L|120:88,1,80
48,56,205216,2,0,L|48:248,1,160
48,288,205832,1,2,0:0:0:0:
224,336,206243,1,0,0:0:0:0:
224,336,206448,1,2,0:0:0:0:
400,264,206859,1,8,0:0:0:0:
312,88,207270,6,0,L|232:48,1,80
312,88,207681,2,0,L|376:32,1,80
312,88,208092,2,0,P|384:136|360:224,1,160
320,240,208709,1,0,0:0:0:0:
288,264,208914,1,0,0:0:0:0:
256,272,209120,1,8,0:0:0:0:
184,256,209287,2,0,B|56:192|272:96|80:56,1,240
106,59,210108,1,8,0:0:0:0:
8,160,210519,2,0,L|8:232,4,40
176,192,211341,5,0,0:0:0:0:
176,192,211752,2,0,P|176:288|232:328,1,160
288,352,212369,2,0,P|426:289|416:201,1,240
320,48,213396,1,8,0:0:0:0:
120,160,213807,2,0,P|88:240|144:304,1,160
200,304,214423,1,0,0:0:0:0:
200,304,214629,1,2,0:0:0:0:
240,136,215040,2,0,P|292:204|256:281,1,160
216,208,215656,2,0,P|160:128|264:64,1,240
392,112,216684,5,2,0:0:0:0:
434,143,216921,1,0,0:0:0:0:
454,192,217126,1,8,0:0:0:0:
448,245,217332,1,2,0:0:0:0:
416,287,217537,1,14,0:0:0:0:
288,216,217948,2,2,L|200:216,2,80
344,80,218770,6,0,L|432:80,2,80
272,80,219387,1,2,0:0:0:0:
223,80,219592,1,0,0:0:0:0:
180,102,219798,1,2,0:0:0:0:
150,141,220003,1,8,0:0:0:0:
140,188,220209,1,2,0:0:0:0:
151,235,220414,1,2,0:0:0:0:
182,272,220620,1,0,0:0:0:0:
256,192,220825,12,0,223291,0:0:0:0:
120,80,223702,6,0,L|216:80,1,80
312,80,224113,1,8,0:0:0:0:
432,320,224524,2,0,L|344:320,1,80
200,320,224900,1,8,0:0:0:0:
80,144,225311,1,2,0:0:0:0:
184,80,225517,1,0,0:0:0:0:
288,16,225722,1,8,0:0:0:0:
440,96,226133,6,0,P|496:192|432:296,1,240
368,328,226955,2,0,L|288:328,1,80
208,328,227366,2,0,P|121:283|126:217,1,160
184,192,227986,1,2,0:0:0:0:
120,152,228191,2,0,P|134:77|207:54,1,160
264,104,228808,6,0,L|352:104,1,80
416,112,229219,1,2,0:0:0:0:
456,128,229424,1,2,0:0:0:0:
485,160,229630,1,0,0:0:0:0:
496,202,229835,1,8,0:0:0:0:
488,245,230041,1,0,0:0:0:0:
461,279,230246,1,2,0:0:0:0:
160,304,230657,1,8,0:0:0:0:
256,32,231068,1,2,0:0:0:0:
432,272,231479,1,8,0:0:0:0:
136,224,231927,6,0,P|129:185|160:144,1,80
200,192,232337,2,2,P|232:168|280:176,1,80
248,232,232748,2,0,P|272:264|264:312,1,80
208,288,233159,1,8,0:0:0:0:
192,288,233570,1,0,0:0:0:0:
176,288,233981,2,0,P|64:216|80:112,1,240
120,64,234803,1,8,0:0:0:0:
312,48,235214,6,0,L|392:48,1,80
456,88,235625,1,2,0:0:0:0:
488,152,235831,2,0,L|488:240,1,80
440,288,236242,1,2,0:0:0:0:
384,336,236447,2,0,L|288:336,2,80
312,208,237269,5,2,0:0:0:0:
384,88,237680,2,0,L|296:88,1,80
216,88,238091,1,8,0:0:0:0:
88,88,238296,1,0,0:0:0:0:
152,192,238502,2,0,L|152:272,1,80
152,368,238913,1,8,0:0:0:0:
408,336,239324,6,0,P|480:360|496:344,1,80
408,336,239735,2,0,P|350:385|355:407,1,80
408,336,240146,2,0,P|432:256|384:192,1,160
336,152,240762,1,2,0:0:0:0:
336,152,240968,1,0,0:0:0:0:
336,152,241173,1,8,0:0:0:0:
392,104,241379,2,0,P|288:96|264:136,1,160
264,208,241995,6,0,P|208:248|128:216,1,160
96,152,242611,1,2,0:0:0:0:
152,304,242817,2,0,L|232:304,1,80
304,296,243228,2,0,P|392:256|400:184,1,160
336,168,243844,1,2,0:0:0:0:
400,128,244050,2,0,P|373:55|300:32,1,160
232,48,244666,1,8,0:0:0:0:
56,168,245077,5,0,0:0:0:0:
136,296,245283,1,2,0:0:0:0:
200,168,245488,1,0,0:0:0:0:
424,48,245899,1,2,0:0:0:0:
384,296,246310,1,2,0:0:0:0:
128,264,246721,1,0,0:0:0:0:
176,16,247132,2,0,L|264:16,1,80
328,16,247543,5,0,0:0:0:0:
432,96,247748,1,2,0:0:0:0:
304,144,247954,1,8,0:0:0:0:
160,232,248365,1,0,0:0:0:0:
120,360,248570,1,2,0:0:0:0:
24,256,248776,1,8,0:0:0:0:
56,64,249187,6,0,L|144:64,1,80
136,136,249598,2,0,L|216:136,1,80
216,208,250009,1,2,0:0:0:0:
216,208,250214,2,0,P|288:288|400:224,1,240
424,176,251036,1,0,0:0:0:0:
424,176,251242,1,8,0:0:0:0:
336,56,251653,1,0,0:0:0:0:
312,56,251858,1,0,0:0:0:0:
288,56,252063,1,8,0:0:0:0:
152,104,252474,1,8,0:0:0:0:
200,240,252885,2,0,L|120:240,2,80
312,152,253707,1,10,0:0:0:0:
256,192,260694,12,0,264187,0:0:0:0:
