osu file format v9

[General]
AudioFilename: Pink Rose - Kiyommy + Seiya.mp3
AudioLeadIn: 0
PreviewTime: 57687
Countdown: 0
SampleSet: Soft
StackLeniency: 0.3
Mode: 0
LetterboxInBreaks: 0

[Editor]
DistanceSpacing: 1.2
BeatDivisor: 4
GridSize: 4

[Metadata]
Title:Pink Rose
Artist:Kiyommy+Seiya
Creator:Philippines
Version:Normal
Source:Dance Dance Revolution EXTREME
Tags:Konami beatmania IIDX 18 Resort Anthem DDR Haruka Sweet_Serenitee

[Difficulty]
HPDrainRate:3
CircleSize:3
OverallDifficulty:3
ApproachRate:5
SliderMultiplier:1.3
SliderTickRate:2

[Events]
//Background and Video events
0,0,"BG.jpg"
//Break Periods
//Storyboard Layer 0 (Background)
//Storyboard Layer 1 (Fail)
//Storyboard Layer 2 (Pass)
//Storyboard Layer 3 (Foreground)
//Storyboard Sound Samples
//Background Colour Transformations
3,100,163,162,255

[TimingPoints]
3485,410.958904109589,4,2,0,85,1,0
59375,-100,4,2,0,85,0,1
65950,-100,4,2,0,85,0,0
72526,-100,4,2,0,85,0,1
79101,-100,4,2,0,85,0,0
85882,-100,4,2,0,15,0,0

[Colours]
Combo1 : 255,188,121
Combo2 : 255,179,217

[HitObjects]
96,88,3485,1,4
240,64,3895,1,2
376,104,4306,1,0
464,216,4717,1,2
464,216,4923,6,0,B|344:200|288:288,1,195,0|2
216,272,5745,2,0,B|160:320|88:280,1,130
56,216,6361,2,0,B|48:152,1,65,2|0
176,64,6978,5,0
328,72,7389,1,0
464,152,7800,1,0
460,308,8211,1,0
408,364,8416,2,0,B|272:364,1,130,0|2
192,228,9238,2,0,B|336:228,1,130,0|2
416,104,10060,6,0,B|428:68|408:40,1,65
340,4,10471,1,0
320,80,10676,2,0,B|224:104|128:48,1,195,0|2
72,104,11498,6,0,B|48:312,1,195,0|2
120,336,12320,2,0,B|248:336,1,130
288,264,12937,2,0,B|352:304,1,65,2|0
432,168,13553,6,0,B|328:104|240:224|88:128,1,325
194,24,14991,1,4
335,42,15402,1,4
465,100,15813,1,4
343,175,16224,1,4
200,176,16635,6,0,B|232:248|168:308,1,130,6|0
52,272,17457,2,0,B|20:200|84:140,1,130
112,28,18279,2,0,B|188:68|312:36,1,195
452,160,19512,1,2
448,288,19923,6,0,B|396:244|312:248,1,130,2|0
327,247,20539,1,0
232,336,20950,1,0
112,284,21361,1,0
112,284,21567,6,0,B|156:216|108:140,1,130,0|2
119,160,22183,1,2
352,124,22800,1,0
200,84,23211,5,2
396,332,24032,1,0
424,176,24443,1,2
288,248,24854,2,0,B|160:296,1,130
104,248,25471,2,0,B|128:176|64:120,1,130,2|0
152,104,26087,2,0,B|192:160,1,65,0|2
248,104,26498,6,0,B|376:56,1,130,2|2
432,104,27115,2,0,B|400:168|448:248,1,130,2|0
304,312,27937,1,0
224,296,28142,6,0,B|244:234|197:189,1,97.5
112,272,28758,1,0
50,224,28964,2,0,B|34:152,2,65
160,112,29786,6,0,B|216:64|304:104,1,130,4|0
440,112,30608,2,0,B|480:176,1,65,0|2
456,244,31019,2,0,B|392:300,1,65,2|2
336,320,31430,6,0,B|208:320,1,130,2|0
160,256,32046,2,0,B|80:288|48:216,1,130,2|0
56,144,32663,2,0,B|112:96,1,65,2|0
168,56,33074,6,0,B|240:56,1,65,2|0
240,136,33485,2,0,B|312:136,1,65,2|2
312,56,33895,2,0,B|376:56,1,65,0|2
384,136,34306,2,0,B|464:136,1,65,0|2
464,216,34717,6,0,B|392:248|400:320,1,130
320,328,35334,1,2
176,256,35745,2,0,B|112:280,2,65,0|2|2
128,192,36361,5,2
168,120,36567,2,0,B|240:96,2,65,2|2|2
368,80,37594,1,2
440,104,37800,1,2
392,168,38005,6,0,B|424:240,1,65,2|2
392,296,38416,2,0,B|328:280,1,65,2|2
184,328,39032,2,0,B|139:289|59:305,1,130,2|2
40,232,39649,6,0,B|48:160,1,65
120,144,40060,2,0,B|192:152,1,65
248,192,40471,2,0,B|240:272,1,65,2|0
304,296,40882,2,0,B|368:304,1,65,2|2
440,272,41293,5,0
464,120,41704,1,2
312,104,42115,1,0
288,256,42526,1,0
140,304,42937,5,0
44,180,43348,1,0
108,40,43758,1,0
184,176,44169,1,4
320,104,44580,6,0,B|448:152,1,130,6|2
432,304,45402,2,0,B|312:256,1,130
160,240,46224,2,0,B|32:240,3,130,0|2|2|2
48,88,47868,6,0,B|104:144,1,65,2|0
160,88,48279,2,0,B|160:176,1,65
240,136,48690,2,0,B|208:208,1,65,2|0
288,224,49101,2,0,B|224:272,1,65,2|2
280,328,49512,2,0,B|192:336,1,65,2|2
144,296,49923,6,0,B|104:240|24:232,1,130,2|0
160,136,50745,1,0
280,40,51156,6,0,B|400:104,1,130,2|2
288,216,51978,2,0,B|408:288,1,130,2|0
248,312,52800,6,0,B|184:272,1,65,2|0
160,344,53211,2,0,B|80:304,1,65,2|2
40,264,53621,2,0,B|48:192,1,65,0|2
120,232,54032,2,0,B|128:160,1,65
204,152,54443,6,0,B|228:80|324:88,1,130,2|2
348,152,55060,2,0,B|324:224|228:216,1,130,2|2
256,192,55882,12,0,57320
196,232,57731,5,4
208,80,58142,1,4
352,136,58553,2,4,B|384:192,1,65,6|2
312,220,58964,2,4,B|352:292,1,65,6|2
272,312,59375,6,0,B|216:272|136:296,1,130,4|0
80,248,59991,2,0,B|144:208|120:128,1,130
48,152,60608,2,0,B|40:88,1,65,0|2
102,40,61019,2,0,B|182:56|238:32,1,130,2|2
241,112,61635,2,0,B|313:80|385:120,1,130,2|0
392,40,62252,2,0,B|456:80,1,65,2|2
464,152,62663,6,0,B|416:288,1,130,2|2
344,264,63279,2,0,B|368:184|288:144,1,130,2|2
240,200,63895,1,2
224,280,64101,1,2
152,312,64306,6,0,B|88:328,1,65
64,256,64717,2,0,B|144:232,1,65
112,160,65128,2,0,B|40:184,1,65
32,104,65539,2,0,B|104:80,1,65,2|0
168,88,65950,6,0,B|240:56|312:96,1,130,2|2
248,152,66567,2,0,B|208:176|204:216,1,65
272,248,66978,2,0,B|320:256|348:224,1,65
392,184,67389,1,0
344,120,67594,6,0,B|400:72|472:96,1,130,2|2
480,168,68211,2,0,B|472:296,1,130,2|2
400,320,68827,1,2
320,328,69032,1,2
240,328,69238,6,0,B|104:312,1,130,2|0
56,256,69854,2,0,B|136:240|152:168,1,130,2|2
80,140,70471,2,0,B|100:68,1,65,2|2
176,80,70882,6,0,B|192:16,1,65
248,104,71293,2,0,B|232:168,1,65
320,120,71704,5,6
396,136,71909,1,2
380,212,72115,1,6
304,200,72320,1,2
256,264,72526,6,0,B|176:264|144:320,1,130,6|0
64,328,73142,2,0,B|16:264,1,65
56,200,73553,2,0,B|104:264,1,65
144,192,73964,1,2
104,128,74169,6,0,B|224:48,1,130,2|2
272,104,74786,2,0,B|224:152|248:232,1,130,2|2
320,240,75402,2,0,B|360:184,1,65,2|2
360,112,75813,5,2
424,64,76019,1,0
488,112,76224,1,2
424,160,76430,1,0
264,160,76841,2,0,B|192:160,2,65,2|2|2
320,304,77663,5,0
168,320,78074,1,0
48,224,78484,2,0,B|64:160,2,65,0|2|0
128,240,79101,6,0,B|176:192|256:224,1,130,2|0
328,232,79717,1,0
336,156,79923,1,0
272,108,80128,1,2
293,31,80334,1,2
374,31,80539,1,0
408,104,80745,6,0,B|456:224,1,130,2|2
480,296,81361,1,0
325,268,81772,1,0
272,328,81978,1,2
248,256,82183,1,2
192,312,82389,6,0,B|152:256|64:280,1,130,2|0
48,200,83005,1,0
64,120,83211,2,0,B|136:168,1,65
184,120,83621,2,0,B|240:168,1,65
307,138,84032,6,0,B|409:225,3,130,4|4|4|4
444,70,85676,5,6
256,192,85882,12,4,88964
