osu file format v9

[General]
AudioFilename: Pink Rose - Kiyommy + Seiya.mp3
AudioLeadIn: 0
PreviewTime: 57687
Countdown: 0
SampleSet: Soft
StackLeniency: 0.4
Mode: 0
LetterboxInBreaks: 0

[Editor]
Bookmarks: 42482
DistanceSpacing: 1.2
BeatDivisor: 4
GridSize: 4

[Metadata]
Title:Pink Rose
Artist:Kiyommy+Seiya
Creator:Philippines
Version:Hard
Source:Dance Dance Revolution EXTREME
Tags:Konami beatmania IIDX 18 Resort Anthem DDR Haruka Sweet_Serenitee

[Difficulty]
HPDrainRate:6
CircleSize:4
OverallDifficulty:6
ApproachRate:7
SliderMultiplier:1.6
SliderTickRate:2

[Events]
//Background and Video events
0,0,"BG.jpg"
//Break Periods
//Storyboard Layer 0 (Background)
//Storyboard Layer 1 (Fail)
//Storyboard Layer 2 (Pass)
//Storyboard Layer 3 (Foreground)
//Storyboard Sound Samples
//Background Colour Transformations
3,100,163,162,255

[TimingPoints]
3485,410.958904109589,4,2,0,85,1,0
59375,-100,4,2,0,85,0,1
65950,-100,4,2,0,85,0,0
72526,-100,4,2,0,85,0,1
79101,-100,4,2,0,85,0,0
85882,-100,4,2,0,15,0,0

[Colours]
Combo1 : 255,188,121
Combo2 : 255,179,217

[HitObjects]
40,104,3485,1,4
128,64,3690,1,2
216,104,3895,1,2
304,64,4101,2,0,B|472:80,1,160,2|0
424,168,4717,2,2,B|392:176|344:192,1,80
400,280,5128,6,0,B|304:272|240:344,1,160
216,240,5745,2,0,B|144:288|64:256,1,160,0|2
40,160,6361,1,2
112,96,6567,1,2
200,56,6772,6,0,B|368:80,1,160
416,160,7389,2,0,B|256:136,1,160
312,216,8005,2,0,B|416:232,1,80
368,320,8416,5,2
272,336,8621,1,0
192,288,8827,2,0,B|112:264,1,80,2|0
72,176,9238,1,2
168,192,9443,1,0
248,144,9649,2,0,B|328:120,1,80,2|0
384,48,10060,5,2
448,120,10265,1,2
376,184,10471,1,2
448,248,10676,2,0,B|440:304|384:344|328:336,1,160,2|0
288,248,11293,1,2
208,296,11498,6,0,B|136:256|48:272,1,160,2|0
24,176,12115,1,2
64,88,12320,2,0,B|128:152|224:128,1,160,2|2
296,80,12937,1,2
376,136,13142,1,2
424,320,13553,6,0,B|336:288|256:304,1,160,2|0
168,288,14169,1,0
72,296,14375,1,0
112,208,14580,1,0
212,196,14786,1,2
236,192,14889,1,2
260,188,14991,6,2,B|352:176,1,80,6|0
284,96,15402,2,4,B|192:108,1,80,4|0
316,248,15813,2,4,B|408:236,1,80,4|0
230,35,16224,2,4,B|138:47,1,80,4|0
150,45,16635,6,0,B|148:144|32:172,1,160,4|0
96,252,17252,2,0,B|180:248|244:308,1,160,0|2
340,308,17868,2,2,B|436:304,1,80
472,224,18279,2,0,B|472:128|368:104,1,160,2|0
360,12,18895,2,0,B|216:80,1,160,2|0
128,120,19512,2,0,B|208:164,1,80,2|0
116,212,19923,5,2
152,300,20128,1,0
240,340,20334,2,0,B|324:340,1,80,2|2
368,256,20745,1,0
332,168,20950,1,2
244,128,21156,2,0,B|160:128,1,80,2|2
192,220,21567,6,0,B|296:244|296:336,1,160,2|2
200,336,22183,2,0,B|112:364|32:336,1,160,2|0
42,339,22800,1,0
64,112,23211,6,0,B|24:192|64:272,1,160,2|0
128,336,23827,2,0,B|296:336,1,160,2|0
384,344,24443,1,2
344,256,24649,1,0
440,240,24854,6,0,B|416:184|488:144|440:80,1,160,2|0
360,40,25471,2,0,B|304:96,1,80,2|0
312,192,25882,2,0,B|376:128,1,80,0|2
360,40,26293,1,0
264,16,26498,6,0,B|232:96|128:64,1,160,2|0
44,104,27115,2,0,B|64:156|128:184|200:168,1,160
120,248,27731,2,0,B|144:328,1,80
240,320,28142,5,0
408,296,28450,1,0
472,144,28758,1,0
432,40,28964,1,0
312,36,29169,1,0
192,40,29375,1,0
72,60,29580,1,0
40,176,29786,6,0,B|200:192,1,160,2|0
248,280,30402,2,0,B|88:264,1,160,2|2
40,176,31019,2,2,B|16:88,1,80
112,112,31430,6,0,B|184:72|272:104,1,160,2|0
352,48,32046,2,0,B|400:120|496:144,1,160,2|0
440,224,32663,1,2
400,312,32868,1,0
304,336,33074,6,0,B|256:272,1,80,2|0
160,288,33485,1,2
104,208,33690,1,2
144,120,33895,2,0,B|192:184,1,80,0|2
288,168,34306,1,0
344,248,34512,1,2
384,160,34717,6,0,B|384:80|480:32,1,160,2|0
384,8,35334,2,0,B|312:40,1,80,2|0
224,88,35745,2,0,B|296:120,1,80,0|2
384,160,36156,1,2
312,216,36361,6,2,B|240:184,1,80
152,144,36772,2,2,B|72:104,1,80
56,296,37389,6,0,B|152:296,1,80,0|2
216,240,37800,1,2
312,216,38005,2,2,B|408:216,1,80
472,160,38416,1,2
400,96,38621,6,2,B|312:104|256:32,1,160,2|0
72,88,39443,1,0
168,96,39649,2,0,B|248:128,1,80
160,176,40060,2,0,B|240:208,1,80
184,288,40471,6,2,B|112:240|24:248,1,160
8,344,41087,2,2,B|80:392|168:384,1,160
248,344,41704,2,0,B|288:264,1,80
376,288,42115,2,0,B|472:288,1,80
472,192,42526,2,0,B|432:112,1,80
344,136,42937,5,0
320,136,43039,1,0
296,136,43142,1,0
272,136,43245,1,0
248,136,43348,1,0
224,136,43450,1,0
200,136,43553,1,0
176,136,43656,1,0
152,136,43758,6,2,B|96:136,3,40
92,136,44169,2,0,B|52:136,3,40,0|2|0|2
32,136,44580,6,0,B|0:184|0:184|0:288,1,160,6|0
128,256,45197,1,0
224,344,45402,2,2,B|256:296|256:296|256:193,1,160
416,88,46224,2,0,B|320:88,1,80
272,160,46635,2,0,B|360:160,1,80,2|0
440,192,47046,6,0,B|400:264,1,80,2|0
304,248,47457,2,0,B|256:320,1,80,2|0
160,304,47868,2,2,B|0:232,1,160,2|0
32,144,48484,1,0
120,192,48690,2,0,B|192:136|152:40,1,160,2|0
256,56,49306,1,2
344,96,49512,5,2
264,144,49717,1,2
344,192,49923,1,2
424,144,50128,1,0
424,240,50334,1,0
424,336,50539,1,0
344,288,50745,1,0
264,232,50950,1,0
184,176,51156,6,0,B|176:124|128:96,1,80,2|0
272,120,51567,2,0,B|324:112|352:64,1,80,2|2
328,208,51978,2,0,B|336:260|384:288,1,80,0|2
240,264,52389,2,0,B|188:272|160:320,1,80,0|0
176,152,52800,6,0,B|192:72,1,80,2|0
296,112,53211,2,2,B|376:128,1,80,2|0
336,232,53621,2,0,B|320:312,1,80,0|2
216,272,54032,2,0,B|136:256,1,80,0|0
184,88,54443,6,0,B|228:19,1,80,2|0
360,120,54854,2,2,B|428:164,1,80
328,296,55265,2,0,B|283:364,1,80,0|2
152,264,55676,2,0,B|83:219,1,80,0|2
256,192,56087,12,2,57320
152,96,57731,5,4
344,72,58142,1,4
280,256,58553,1,4
216,184,58758,1,4
312,168,58964,1,4
280,256,59169,1,4
192,296,59375,6,0,B|104:264|24:288,1,160,6|0
40,192,59991,2,0,B|40:112,1,80
120,168,60402,2,0,B|152:88,1,80
248,88,60813,1,2
336,48,61019,6,2,B|480:128,1,160
480,224,61635,2,0,B|336:144,1,160,2|0
256,192,62252,2,2,B|256:280,1,80
184,336,62663,6,2,B|104:304|96:200,1,160
72,112,63279,2,2,B|152:72|248:128,1,160
320,120,63895,1,2
256,192,64101,1,2
232,288,64306,6,0,B|304:248,1,80,0|2
344,336,64717,2,0,B|384:240,1,80,0|2
464,296,65128,2,0,B|424:208,1,80,0|2
512,192,65539,2,0,B|432:144,1,80,2|2
472,56,65950,6,2,B|304:64,1,160
368,144,66567,1,2
272,144,66772,1,0
200,88,66978,2,2,B|88:96,1,80
56,160,67389,1,2
88,248,67594,6,2,B|240:336,1,160
320,312,68211,2,2,B|384:256|472:304,1,160
464,208,68827,1,2
368,200,69032,1,2
280,240,69238,6,0,B|208:192,1,80
136,136,69649,1,0
224,96,69854,2,0,B|296:144,1,80,2|0
368,200,70265,1,2
448,152,70471,1,0
368,96,70676,1,2
448,40,70882,2,2,B|384:-8|280:8,1,160
112,56,71704,5,6
48,128,71909,1,2
144,152,72115,1,6
72,216,72320,1,2
160,256,72526,6,2,B|248:232|336:248,1,160,6|0
360,336,73142,2,0,B|416:264,1,80
504,272,73553,2,0,B|464:200,1,80
368,192,73964,1,2
368,192,74169,6,0,B|264:232|216:128,1,160,2|2
264,64,74786,2,0,B|368:24|416:128,1,160,2|0
472,176,75402,2,2,B|464:264,1,80
384,304,75813,6,2,B|312:272|224:304,1,160
136,280,76430,1,2
136,184,76635,1,0
40,160,76841,1,2
40,64,77046,1,2
128,96,77252,2,0,B|296:104,1,160,2|0
344,176,77868,2,0,B|264:176|224:208|200:248,1,160
376,336,78690,1,2
464,296,78895,1,0
376,248,79101,6,2,B|408:168|496:136,1,160
432,56,79717,1,2
344,96,79923,1,2
256,56,80128,1,0
176,104,80334,1,2
88,64,80539,1,2
32,136,80745,6,2,B|88:160|112:208|104:272,1,160
56,344,81361,2,0,B|152:344,1,80,2|0
216,384,81772,1,2
216,296,81978,2,2,B|304:296,1,80
384,264,82389,6,0,B|320:192,1,80
232,208,82800,2,0,B|176:144,1,80,0|2
232,64,83211,2,0,B|296:136,1,80,0|2
384,120,83621,2,0,B|440:184,1,80,2|2
448,272,84032,5,6
424,280,84135,1,0
400,288,84238,1,0
376,296,84341,1,0
352,296,84443,1,6
328,296,84546,1,0
304,288,84649,1,0
280,280,84752,1,0
256,272,84854,2,0,B|216:264,3,40,4|0|0|0
192,260,85265,2,0,B|168:252|128:256,3,40,4|0|0|0
128,260,85676,1,4
256,192,85882,12,4,88964
