osu file format v9

[General]
AudioFilename: Pink Rose - Kiyommy + Seiya.mp3
AudioLeadIn: 0
PreviewTime: 57687
Countdown: 0
SampleSet: Soft
StackLeniency: 0.7
Mode: 0
LetterboxInBreaks: 0

[Editor]
DistanceSpacing: 1
BeatDivisor: 4
GridSize: 4

[Metadata]
Title:Pink Rose
Artist:Kiyommy+Seiya
Creator:Philippines
Version:Easy
Source:Dance Dance Revolution EXTREME
Tags:Konami beatmania IIDX 18 Resort Anthem DDR Haruka Sweet_Serenitee

[Difficulty]
HPDrainRate:2
CircleSize:3
OverallDifficulty:1
ApproachRate:2
SliderMultiplier:0.9
SliderTickRate:2

[Events]
//Background and Video events
0,0,"BG.jpg"
//Break Periods
//Storyboard Layer 0 (Background)
//Storyboard Layer 1 (Fail)
//Storyboard Layer 2 (Pass)
//Storyboard Layer 3 (Foreground)
//Storyboard Sound Samples
//Background Colour Transformations
3,100,163,162,255

[TimingPoints]
3485,410.958904109589,4,2,0,85,1,0
59375,-100,4,2,0,85,0,1
65950,-100,4,2,0,85,0,0
72526,-100,4,2,0,85,0,1
79101,-100,4,2,0,85,0,0
85882,-100,4,2,0,15,0,0

[Colours]
Combo1 : 255,188,121
Combo2 : 255,179,217

[HitObjects]
232,128,3485,2,0,B|376:112,1,135,4|0
472,176,4717,1,2
480,256,5128,2,0,B|336:272,1,135
216,296,6361,1,2
128,304,6772,6,0,B|120:256|152:208|208:192|264:216,1,180
428,204,8416,2,0,B|436:252|404:300|348:316|292:300,1,180,2|2
168,192,10060,6,0,B|184:96,1,90
264,152,10882,2,0,B|249:240,1,90,0|2
336,248,11704,2,0,B|344:208|368:168|448:176,2,135,2|0|2
256,192,13348,12,6,16635
420,72,17868,5,2
432,172,18279,2,0,B|336:192|320:256,1,135
200,324,19512,1,2
104,296,19923,6,0,B|60:232|96:164,1,135
224,92,21156,1,2
296,160,21567,2,0,B|292:228|320:304,1,135
184,360,22800,1,2
108,316,23211,6,0,B|100:258|152:200|220:202,1,180
264,124,24443,1,2
352,148,24854,2,0,B|344:84|408:28|472:44,1,180
468,132,26087,1,2
452,220,26498,6,0,B|420:308,1,90
336,308,27320,2,0,B|366:223,1,90,0|2
280,228,28142,2,0,B|248:316,1,90
160,324,28964,2,2,B|190:239,1,90,0|2
104,244,29786,5,0
76,68,30608,1,2
240,144,31430,2,0,B|336:184|424:128,1,180,2|2
464,208,32663,1,0
464,208,33074,6,0,B|404:264|328:248,1,135
196,284,34306,1,2
96,272,34717,2,0,B|120:196|24:160,1,135,2|0
160,80,35950,1,0
216,152,36361,6,0,B|264:96|360:112,1,135,0|2
272,224,37594,1,2
216,152,38005,2,0,B|168:208|72:192,1,135,2|0
56,280,39032,2,0,B|144:304,1,90
368,288,40471,6,0,B|224:248,2,135,2|0|2
440,232,42115,2,0,B|376:168,1,90,0|2
276,156,42937,2,0,B|220:80|124:92|80:148|92:216,1,270
144,296,44580,6,0,B|200:224|312:248,1,180,4|0
360,176,45813,2,0,B|456:176,1,90
408,96,46635,2,0,B|320:96,3,90,2|2|2|2
136,80,48690,6,0,B|64:144,1,90
96,224,49512,2,0,B|168:160,1,90,0|2
400,288,51156,6,0,B|304:264,1,90
368,196,51978,2,0,B|272:172,1,90,2|2
232,252,52800,2,0,B|136:228,1,90
200,160,53622,2,0,B|104:136,1,90,2|2
256,192,54443,12,0,56909
212,148,57731,5,4
300,148,58142,1,4
300,236,58553,1,4
212,236,58964,1,4
128,272,59375,6,0,B|40:220|80:112,1,180,6|0
168,96,60608,1,0
232,160,61019,2,0,B|320:160,1,89.9999999999999
296,72,61841,2,0,B|400:72,1,89.9999999999999,2|2
424,152,62663,5,2
416,240,63074,2,0,B|416:288,1,45,0|2
324,284,63690,2,0,B|324:236,2,45,0|2|0
136,272,65539,5,2
216,312,65950,2,0,B|304:280,1,89.9999999999999,2|2
368,224,66772,1,2
316,152,67183,1,2
236,192,67594,5,2
176,128,68005,2,0,B|96:80,1,89.9999999999999,2|0
176,32,68827,1,2
260,64,69238,6,0,B|364:48|452:104,1,180
428,184,70471,1,0
376,256,70882,5,0
296,308,71293,1,2
212,340,71704,1,6
124,332,72115,1,6
64,264,72526,6,0,B|72:176,1,89.9999999999999,4|0
128,104,73348,2,0,B|168:144|224:136,1,89.9999999999999,2|2
264,64,74169,2,0,B|408:96,2,135,2|0|2
296,152,75813,6,0,B|392:192,1,89.9999999999999,0|2
312,248,76635,2,0,B|368:328,1,89.9999999999999,0|2
272,332,77457,2,0,B|168:316,3,90,0|2|0|2
104,272,79101,6,0,B|176:192|120:96,1,180
208,72,80334,1,2
288,112,80745,2,0,B|288:200,3,89.9999999999999,2|2|2|2
376,232,82389,6,0,B|344:296|264:304,1,135,0|2
136,296,83621,1,2
72,232,84032,6,0,B|152:168,1,89.9999999999999,4|6
80,104,84854,2,0,B|152:40,1,89.9999999999999,4|2
224,96,85676,1,4
256,192,85882,12,4,88964
