osu file format v6

[General]
AudioFilename: Yamato_Nadeshiko_Shichihenge_-_Slow.mp3
AudioLeadIn: 0
PreviewTime: -1
Countdown: 1
SampleSet: Normal
StackLeniency: 0.7
Mode: 0
LetterboxInBreaks: 1
StoryFireInFront: 0
SkinPreference:LuckyStar

[Editor]
DistanceSpacing: 0.800000011920929
BeatDivisor: 4
GridSize: 32

[Metadata]
Title:Slow
Artist:Kiyoharu
Creator:ETQW
Version:Easy
Source:The Seven Metamorphoses of Yamato Nadeshiko
Tags:Anime

[Difficulty]
HPDrainRate:7
CircleSize:6
OverallDifficulty:5
SliderMultiplier:1.4
SliderTickRate:2

[Events]
//Background and Video events
0,0,"the_seven_metamorphoses_of_yamato_nadeshiko18.jpg"
//Break Periods
2,111700,121800
2,196950,210300
//Storyboard Layer 0 (Background)
//Storyboard Layer 1 (Fail)
//Storyboard Layer 2 (Pass)
//Storyboard Layer 3 (Foreground)
//Storyboard Sound Samples
//Background Colour Transformations
3,100,163,162,255

[TimingPoints]
0,729.040097205346,4,1,0,100,1,0
31311,-50,4,2,0,100,0,0
52751,-100,4,2,0,100,0,0
87971,-100,4,1,0,100,0,0
122991,-100,4,2,0,100,0,0
157771,-100,4,1,0,100,0,0
197000,-100,4,1,0,100,0,0
232701,-100,4,1,0,100,0,0

[HitObjects]
32,192,1000,5,0
64,96,2000,1,0
99,69,2250,1,0
160,64,3000,2,0,B|416:64|480:192,1,350
473,180,5750,1,4
426,259,6250,5,0
389,272,6500,1,0
350,284,6750,1,0
320,288,7000,1,0
224,288,8000,1,0
185,273,8250,1,0
68,129,10250,5,0
90,95,10500,1,0
149,41,11250,1,2
224,32,11750,1,2
320,32,12250,2,0,B|480:32|480:32|480:192,1,315
480,215,14750,1,0
399,274,15750,1,0
374,293,16000,1,0
206,334,16500,5,0
75,196,17500,1,0
256,192,18250,1,0
256,192,18750,12,0,28000
162,142,28750,5,0
160,64,29500,1,0
256,64,30250,2,0,B|480:64|480:64|256:224|256:224|480:224|480:224|480:256,1,735
466,283,36000,2,0,B|285:326,1,175
206,329,37250,1,0
98,294,37750,1,0
46,216,38250,1,0
33,137,39000,6,0,B|37:20|37:20|173:20|187:21,1,245
256,34,40500,1,0
363,66,41000,1,0
438,147,41500,1,0
449,225,42000,2,0,B|444:373|-97:355|13:163,1,560
34,115,45000,5,0
142,45,46000,1,0
226,44,47000,2,0,B|227:342|226:354,1,280
321,312,49000,2,0,B|321:2|325:7|321:4,2,280
319,313,52000,1,0
25,151,53000,5,0
27,50,54000,1,0
123,51,55000,1,0
158,50,55250,1,0
198,49,55500,1,0
284,51,56000,1,0
319,51,56250,1,0
360,50,56500,1,0
446,51,57000,2,0,B|447:247|353:355,1,315
256,352,60000,5,0
224,352,60250,1,0
128,352,60750,1,0
126,283,61250,1,0
139,187,61750,6,0,B|260:280|262:282,1,140
305,246,63250,5,0
349,177,63750,1,0
358,131,64000,1,0
324,55,64500,1,0
295,54,64750,1,0
262,54,65000,1,0
175,50,65500,2,0,B|-17:295,1,280
64,256,68250,5,0
64,224,68500,1,0
64,96,69250,1,0
96,96,69500,1,0
221,94,70000,1,0
224,160,70500,1,0
224,192,70750,1,0
224,304,71250,1,0
167,344,71500,2,0,B|34:164|127:51|293:48|393:117|284:369,1,630
384,320,76500,1,0
448,320,77000,2,0,B|483:320|502:320|501:320,3,35
448,128,78250,1,0
349,128,78500,2,0,B|384:128,4,35
288,192,79750,1,0
192,352,80250,6,0,B|64:256|64:128,1,350
224,64,83250,1,0
352,64,83750,2,0,B|416:160|288:352,1,280
304,326,86000,1,0
143,349,86500,1,0
110,351,86750,1,0
73,351,87000,1,0
47,57,87750,1,0
84,57,88000,1,0
121,57,88250,1,0
34,290,89000,2,0,B|111:244,1,140
32,128,90500,1,0
64,96,90750,1,0
96,64,91000,1,0
192,64,91500,5,0
224,128,91750,1,0
288,64,92000,1,0
320,128,92250,1,0
384,64,92500,1,0
416,128,92750,1,0
64,128,93250,2,0,B|134:128,2,70
93,192,94750,2,0,B|128:192,4,35
99,256,96250,2,0,B|64:256,5,35
64,320,97750,2,0,B|288:320,1,210
320,320,99500,2,0,B|320:160,1,140
382,182,101000,2,0,B|382:334|386:345,1,140
96,331,102750,5,0
96,331,102916,5,0
96,331,103159,1,0
42,156,104000,2,0,B|156:33|153:37,1,140
153,36,105346,1,0
224,96,106000,2,0,B|106:217,1,140
100,219,107500,1,0
151,266,108000,2,0,B|264:139|261:143,1,140
261,142,109500,1,0
352,192,110000,2,0,B|229:315,1,140
228,315,111500,1,0
256,192,123000,5,0
196,192,123500,1,0
317,192,123750,1,0
256,96,124250,1,0
323,93,124750,2,0,B|387:93,2,35
414,140,125750,2,0,B|417:140|449:140,2,35
401,202,126500,1,0
461,229,126750,1,0
395,277,127000,1,0
455,309,127250,1,0
392,345,127500,1,0
320,352,128000,6,0,B|64:352,1,245
32,320,130250,2,0,B|32:224,1,175
195,252,132250,1,0
141,214,132500,1,0
142,157,132750,1,0
192,127,133000,1,0
229,196,133250,2,0,B|195:197,2,35
253,252,134250,1,0
296,214,134500,1,0
295,159,134750,1,0
249,123,135000,1,0
192,94,135250,1,0
110,97,135750,6,0,B|38:179|40:309|194:336,1,315
242,338,138250,1,0
293,339,138500,1,0
343,338,138750,1,0
256,192,139250,12,0,141000
256,192,141500,5,0
256,160,141750,1,0
256,128,142000,1,0
288,64,142500,2,0,B|192:64,2,70
369,73,143750,1,0
412,82,144000,1,0
363,138,144250,1,0
405,145,144500,1,0
366,208,144750,1,0
402,218,145000,1,0
362,288,145500,6,0,B|232:341|104:304,1,315
54,290,147630,1,0
39,98,148359,2,0,B|94:151,1,140
116,249,149817,1,0
116,286,150067,1,0
116,324,150317,1,0
116,361,150567,1,0
426,353,151093,1,0
425,315,151343,1,0
423,276,151593,1,0
421,224,151843,2,0,B|421:103,1,175
284,77,153500,5,0
240,77,153750,1,0
194,77,154000,1,0
189,136,154250,2,0,B|189:272|189:264,1,105
189,241,155500,1,0
303,156,156250,2,0,B|304:287,1,105
303,260,157290,1,0
64,192,158000,5,0
96,128,158500,1,0
128,96,158750,1,0
192,96,159250,2,0,B|224:96|256:96,3,35
288,96,160250,1,0
320,128,160500,1,0
351,189,160750,1,0
288,192,161000,2,0,B|128:192,5,140
30,285,167000,6,0,B|31:172|33:159,1,105
101,222,168500,1,0
102,260,168750,1,0
102,297,169000,1,0
153,334,169250,2,0,B|193:282,2,35
256,344,170000,2,0,B|229:301,2,35
317,346,171142,1,0
384,256,171750,1,0
416,160,172250,1,0
424,65,172750,1,0
352,64,173250,1,0
320,64,173500,1,0
256,64,174000,2,0,B|160:64,1,70
185,63,174750,1,0
128,128,175250,6,0,B|224:256|256:288|288:320|448:96|480:64,1,455
457,90,178250,1,0
288,96,179250,6,0,B|192:128,1,70
96,288,180500,1,0
96,256,180750,1,0
96,224,181000,1,0
192,160,181500,1,0
224,160,181750,1,0
256,160,182000,1,0
352,192,182500,1,0
352,224,182750,1,0
352,256,183000,1,0
352,288,183250,1,0
416,320,183750,6,0,B|416:256,3,35
416,285,184750,1,0
416,224,185000,1,0
416,192,185250,1,0
416,128,185750,2,0,B|320:128,1,70
352,128,186500,1,0
31,136,187000,6,0,B|113:264|136:269,1,140
192,192,188250,6,0,B|320:64|320:128,1,140
301,107,189500,1,0
352,128,189750,2,0,B|416:256|384:320,1,175
352,320,191250,5,0
320,320,191500,1,0
288,320,191750,1,0
160,320,192250,1,0
116,319,192500,2,0,B|15:318|15:319,1,70
256,192,193250,12,0,196750
19,352,211500,6,0,B|114:108|114:109|114:109|119:345|119:345|219:106,1,735
106,75,217250,2,0,B|114:170|188:209|211:186|211:186|229:53|229:53|229:288|229:288|208:346|174:365,1,630
365,341,222250,2,0,B|366:270|366:270|404:149|462:79|462:79|494:177|491:249|491:249|379:246|379:246|492:247|492:247|492:348|492:348|502:345,1,770
54,194,228750,1,0
76,166,229000,1,0
189,84,229750,1,0
226,84,230000,1,0
351,156,230750,1,0
379,184,231000,1,0
237,287,231750,1,0
196,287,232000,1,4
