osu file format v12

[General]
AudioFilename: Dou Kangaete mo Watashi wa Warukunai.mp3
AudioLeadIn: 1500
PreviewTime: 53414
Countdown: 0
SampleSet: Soft
StackLeniency: 0.7
Mode: 0
LetterboxInBreaks: 0
WidescreenStoryboard: 0

[Editor]
DistanceSpacing: 2
BeatDivisor: 4
GridSize: 4

[Metadata]
Title:Dou Kangaete mo Watashi wa Warukunai (TV Size)
TitleUnicode:どう考えても私は悪くない (TV Size)
Artist:Kitta Izumi
ArtistUnicode:橘田いずみ
Creator:LexiaLovesU
Version:Easy
Source:Watashi ga Motenai no wa Dou Kangaete mo Omaera ga Warui!
Tags:onepiece314 ending kuroki tomoko watamote 私がモテないのはどう考えてもお前らが悪い!
BeatmapID:307161
BeatmapSetID:119676

[Difficulty]
HPDrainRate:2
CircleSize:3
OverallDifficulty:2
ApproachRate:3
SliderMultiplier:1
SliderTickRate:1

[Events]
//Background and Video events
0,0,"maxresdefault.jpg",0,0
//Break Periods
2,9831,12245
//Storyboard Layer 0 (Background)
//Storyboard Layer 1 (Fail)
//Storyboard Layer 2 (Pass)
//Storyboard Layer 3 (Foreground)
//Storyboard Sound Samples
//Background Colour Transformations
3,100,163,162,255

[TimingPoints]
712,405.405405405405,4,2,1,70,1,0
7198,-100,4,2,1,70,0,0
23414,-100,4,2,1,45,0,0
23515,-100,4,2,1,70,0,0
25035,-100,4,2,1,60,0,0
25137,-100,4,2,1,30,0,0
25745,-100,4,2,1,70,0,0
36387,-100,4,2,1,45,0,0
36488,-100,4,2,1,70,0,0
39934,-100,4,2,2,70,0,0
40137,-100,4,2,1,80,0,0
40644,-100,4,2,2,70,0,0
41049,-100,4,2,1,80,0,0
43177,-100,4,2,2,70,0,0
43380,-100,4,2,1,80,0,0
43887,-100,4,2,2,70,0,0
44292,-100,4,2,1,80,0,0
46421,-100,4,2,2,70,0,0
46623,-100,4,2,1,80,0,0
47130,-100,4,2,2,70,0,0
47535,-100,4,2,1,80,0,0
50373,-100,4,2,2,70,0,0
50779,-100,4,2,1,80,0,0
53313,-100,4,2,1,60,0,0
53515,-100,4,2,1,80,0,0
54225,-100,4,2,1,80,0,1
66387,-100,4,2,0,80,0,0
67198,-100,4,2,1,80,0,1
80171,-100,4,2,1,80,0,0
88279,-100,4,2,1,30,0,0

[Colours]
Combo1 : 210,210,0
Combo2 : 255,128,192
Combo3 : 128,255,128

[HitObjects]
264,44,712,2,0,P|164:52|72:124,1,200,2|2,0:0|0:0,0:0:0:0:
20,196,1928,1,0,0:0:0:0:
84,284,2334,2,0,P|165:340|263:347,1,200,2|2,0:0|0:0,0:0:0:0:
368,312,3550,1,0,0:0:0:0:
352,204,3955,5,2,0:0:0:0:
256,152,4361,2,0,P|216:128|152:132,1,100,2|0,0:0|0:0,0:0:0:0:
80,200,5171,1,0,0:0:0:0:
40,304,5577,2,2,P|88:324|247:308,1,200,2|2,0:0|0:0,0:0:0:0:
324,248,6793,1,0,0:0:0:0:
372,148,7199,1,8,0:0:0:0:
256,192,7401,12,0,9631,0:0:0:0:
76,240,13685,6,4,P|83:191|114:152,1,100,4|8,0:0|0:0,0:0:0:0:
202,86,14496,1,8,0:0:0:0:
311,86,14901,1,8,0:0:0:0:
399,152,15307,2,8,P|429:190|437:239,1,100
375,330,16118,1,8,0:0:0:0:
156,332,16928,6,8,P|113:305|87:262,1,100,8|8,0:0|0:0,0:0:0:0:
128,160,17739,1,8,0:0:0:0:
212,88,18145,1,8,0:0:0:0:
320,92,18550,2,8,B|330:137|330:137|318:189,1,100
284,292,19361,1,8,0:0:0:0:
80,212,20172,6,8,P|56:255|12:277,1,100,8|8,0:0|0:0,0:0:0:0:
0,168,20982,2,8,P|24:128|72:104,1,100
180,104,21793,2,8,L|154:40,2,50
260,180,22604,1,8,0:0:0:0:
356,236,23009,1,8,0:0:0:0:
468,260,23415,6,12,P|469:205|435:164,2,100,4|8|8,0:0|0:0|0:0,0:0:0:0:
408,352,24631,1,8,0:0:0:0:
299,337,25036,2,2,B|253:303|202:328|149:352|96:307,1,200,2|8,0:0|0:0,0:0:0:0:
56,216,26253,1,8,0:0:0:0:
92,112,26658,6,4,P|133:137|158:188,1,100,4|8,0:0|0:0,0:0:0:0:
224,272,27469,2,8,P|270:259|316:217,1,100
372,136,28280,2,8,P|332:116|264:128,2,100
472,332,29901,6,8,B|430:354|430:354|378:344,1,100
312,256,30712,1,8,0:0:0:0:
200,256,31118,1,8,0:0:0:0:
116,324,31523,2,8,B|65:334|65:334|23:312,1,100
44,204,32334,1,8,0:0:0:0:
257,133,33145,6,8,L|256:237,1,100
209,332,33955,2,8,P|256:349|316:320,1,100
360,240,34766,2,8,B|396:204|396:204|404:140,1,100
443,51,35577,2,8,P|394:45|346:58,1,100
256,120,36388,5,4,0:0:0:0:
164,60,36793,2,8,P|116:47|66:54,1,100
48,160,37604,1,8,0:0:0:0:
64,268,38009,2,8,P|100:301|147:317,1,100
256,340,38820,2,8,B|288:304|308:320|348:260,1,100
412,200,39631,6,12,P|440:240|440:296,2,100,4|8|8,0:0|0:0|0:0,0:0:0:0:
304,176,40847,1,8,0:0:0:0:
196,200,41253,2,8,P|217:105|304:64,1,200
396,128,42469,1,8,0:0:0:0:
480,200,42874,6,8,P|503:152|504:104,2,100
392,268,44091,1,8,0:0:0:0:
303,332,44496,2,8,P|212:360|136:300,1,200
232,252,45712,1,8,0:0:0:0:
246,144,46118,6,12,P|293:160|328:196,2,100,4|8|8,0:0|0:0|0:0,0:0:0:0:
136,156,47334,1,8,0:0:0:0:
52,228,47739,2,8,P|28:136|92:56,1,200
196,48,48955,1,8,0:0:0:0:
304,72,49361,6,8,L|400:136,1,100
460,212,50172,2,8,P|428:227|408:232,2,50
256,192,50780,12,4,53415,0:0:0:0:
396,280,54226,6,4,P|357:311|310:326,1,100,4|0,0:0|0:0,0:0:0:0:
200,324,55036,2,0,P|153:309|115:278,1,100,2|0,0:0|0:0,0:0:0:0:
23,216,55847,2,0,P|56:180|112:172,1,100,8|0,0:0|0:0,0:0:0:0:
216,180,56658,1,2,0:0:0:0:
320,212,57064,1,8,0:0:0:0:
412,275,57469,6,0,P|428:180|364:108,1,200,4|4,0:0|0:0,0:0:0:0:
256,96,58685,1,0,0:0:0:0:
148,108,59091,2,0,P|84:180|100:275,1,200,4|8,0:0|0:0,0:0:0:0:
304,364,60712,6,4,P|354:368|397:344,1,100,4|0,0:0|0:0,0:0:0:0:
352,240,61523,2,0,P|340:196|352:124,1,100,2|0,0:0|0:0,0:0:0:0:
392,45,62334,2,0,P|349:20|299:24,1,100,8|0,0:0|0:0,0:0:0:0:
204,80,63145,1,2,0:0:0:0:
132,164,63550,1,8,0:0:0:0:
92,268,63955,6,0,P|50:240|28:196,2,100,2|0|2,0:0|0:0|0:0,0:0:0:0:
200,292,65172,1,2,0:0:0:0:
308,304,65577,2,0,B|317:224|409:224|420:132,1,200,8|4,0:0|0:0,0:0:0:0:
216,56,67199,6,4,P|170:36|123:50,1,100,4|0,0:0|0:0,0:0:0:0:
172,148,68009,2,0,P|220:164|268:144,1,100,2|0,0:0|0:0,0:0:0:0:
340,68,68820,2,0,P|380:108|412:260,1,200,8|2,0:0|0:0,0:0:0:0:
332,316,70036,1,8,0:0:0:0:
224,312,70442,6,0,B|180:332|180:332|124:308,1,100,4|0,0:0|0:0,0:0:0:0:
132,200,71253,2,0,B|179:179|179:179|223:199,1,100,4|0,0:0|0:0,0:0:0:0:
321,248,72064,2,8,B|367:214|418:237|468:262|522:207,1,200,4|8,0:0|0:0,0:0:0:0:
372,44,73685,6,4,P|329:68|302:111,1,100,4|0,0:0|0:0,0:0:0:0:
280,216,74496,2,0,P|236:196|209:148,1,100,2|0,0:0|0:0,0:0:0:0:
216,44,75307,2,0,P|167:44|130:77,2,100,8|0|2,0:0|0:0|0:0,0:0:0:0:
412,140,76928,6,0,P|442:178|453:227,1,100,8|0,0:0|0:0,0:0:0:0:
368,296,77739,1,2,0:0:0:0:
260,272,78145,1,8,0:0:0:0:
247,164,78550,2,0,P|165:213|160:316,1,200,8|4,0:0|0:0,0:0:0:0:
376,319,80172,6,4,P|432:236|395:129,1,200,4|2,0:0|0:0,0:0:0:0:
256,88,81591,2,4,B|256:192|136:192|136:300,1,250,4|2,0:0|0:0,0:0:0:0:
224,360,83009,1,2,0:0:0:0:
332,340,83415,6,4,P|348:292|396:244,1,100,4|0,0:0|0:0,0:0:0:0:
468,188,84226,2,4,P|441:145|401:117,1,100,4|0,0:0|0:0,0:0:0:0:
292,104,85036,2,0,B|272:168|156:100|140:180|172:200|208:200,1,200,4|8,0:0|0:0,0:0:0:0:
312,224,86253,1,2,0:0:0:0:
416,256,86658,1,4,0:0:0:0:
256,192,86759,12,0,88280,0:0:0:0:
