osu file format v12

[General]
AudioFilename: Dou Kangaete mo Watashi wa Warukunai.mp3
AudioLeadIn: 1500
PreviewTime: 53426
Countdown: 0
SampleSet: Soft
StackLeniency: 0.7
Mode: 0
LetterboxInBreaks: 0
WidescreenStoryboard: 0

[Editor]
DistanceSpacing: 1
BeatDivisor: 4
GridSize: 4

[Metadata]
Title:Dou Kangaete mo Watashi wa Warukunai (TV Size)
TitleUnicode:どう考えても私は悪くない (TV Size)
Artist:Kitta Izumi
ArtistUnicode:橘田いずみ
Creator:Guy
Version:Normal
Source:Watashi ga Motenai no wa Dou Kangaete mo Omaera ga Warui!
Tags:ending kuroki tomoko watamote 私がモテないのはどう考えてもお前らが悪い!
BeatmapID:274323
BeatmapSetID:104278

[Difficulty]
HPDrainRate:3
CircleSize:3
OverallDifficulty:4
ApproachRate:5
SliderMultiplier:1.2
SliderTickRate:1

[Events]
//Background and Video events
0,0,"bg.jpg",0,0
Video,150,"video.avi"
//Break Periods
//Storyboard Layer 0 (Background)
//Storyboard Layer 1 (Fail)
//Storyboard Layer 2 (Pass)
//Storyboard Layer 3 (Foreground)
//Storyboard Sound Samples
//Background Colour Transformations
3,100,163,162,255

[TimingPoints]
711.664581305041,405.405405405405,4,2,1,70,1,0
6387,-100,4,2,1,30,0,0
6792,-100,4,2,1,70,0,0
10745,-100,4,2,2,60,0,0
10948,-100,4,2,1,70,0,0
13076,-100,4,2,2,60,0,0
13684,-100,4,2,1,70,0,0
26657,-100,4,2,1,80,0,0
40644,-100,4,2,2,70,0,0
41049,-100,4,2,1,80,0,0
43887,-100,4,2,2,70,0,0
44292,-100,4,2,1,80,0,0
47130,-100,4,2,2,70,0,0
47535,-100,4,2,1,80,0,0
50373,-100,4,2,2,70,0,0
50779,-100,4,2,1,80,0,0
54225,-100,4,2,1,80,0,1
59394,-100,4,2,2,70,0,1
59596,-100,4,2,1,80,0,1
65880,-100,4,2,2,70,0,1
66083,-100,4,2,1,80,0,1
66590,-100,4,2,2,70,0,1
66995,-100,4,2,1,80,0,1
72367,-100,4,2,2,70,0,1
72569,-100,4,2,1,80,0,1
78853,-100,4,2,2,70,0,1
79056,-100,4,2,1,80,0,1
79563,-100,4,2,2,70,0,1
80171,-100,4,2,1,80,0,0
88279,-100,4,2,1,30,0,0

[Colours]
Combo1 : 255,128,64
Combo2 : 5,240,5
Combo3 : 5,5,240

[HitObjects]
324,344,711,6,0,P|376:264|400:176,1,180,4|2,0:0|0:0,0:0:0:0:
392,124,1522,2,0,P|324:140|264:140,1,120,2|2,0:0|0:0,0:0:0:0:
216,136,2130,1,0,0:0:0:0:
156,128,2333,6,0,L|140:192,1,60,2|0,0:0|0:0,0:0:0:0:
144,248,2738,2,0,P|148:284|160:320,1,60,2|0,0:0|0:0,0:0:0:0:
200,344,3144,2,0,B|248:340|280:320|280:320|320:316,2,120,2|2|2,0:0|0:0|0:0,0:0:0:0:
144,320,4157,5,0,0:0:0:0:
96,280,4360,2,0,P|88:232|88:196,1,60,2|0,0:0|0:0,0:0:0:0:
88,160,4765,2,0,P|132:124|200:104,1,120,2|2,0:0|0:0,0:0:0:0:
312,100,5576,6,0,P|392:176|340:276,1,240,2|0,0:0|0:0,0:0:0:0:
228,316,6792,2,0,P|212:276|204:236,1,60,2|2,0:0|0:0,0:0:0:0:
192,200,7198,6,0,P|176:136|156:80,2,120,4|8|8,0:0|0:0|0:0,0:0:0:0:
308,228,8414,1,8,0:0:0:0:
424,252,8819,2,0,P|396:304|328:344,1,120,8|8,0:0|0:0,0:0:0:0:
228,312,9630,2,0,P|200:256|196:196,1,120,8|8,0:0|0:0,0:0:0:0:
260,100,10441,6,0,P|144:84|76:172,1,240,8|8,0:0|0:0,0:0:0:0:
96,292,11657,2,0,L|152:316,1,60,8|0,0:0|0:0,0:0:0:0:
208,336,12063,1,8,0:0:0:0:
240,220,12468,1,8,0:0:0:0:
324,304,12873,1,8,0:0:0:0:
324,304,13076,2,0,P|356:320|384:328,1,60,8|8,0:0|0:0,0:0:0:0:
452,232,13684,6,0,P|444:128|436:88,1,120,4|8,0:0|0:0,0:0:0:0:
440,52,14292,1,0,0:0:0:0:
380,48,14495,2,0,P|320:52|244:64,1,120,8|8,0:0|0:0,0:0:0:0:
204,76,15103,1,0,0:0:0:0:
196,136,15306,2,0,P|188:188|184:224,1,60,8|0,0:0|0:0,0:0:0:0:
180,256,15711,2,0,P|228:276|296:284,2,120,8|8|8,0:0|0:0|0:0,0:0:0:0:
68,212,16927,6,0,P|84:140|100:84,1,120,8|8,0:0|0:0,0:0:0:0:
208,48,17738,2,0,P|192:120|176:176,1,120,8|8,0:0|0:0,0:0:0:0:
152,280,18549,1,8,0:0:0:0:
268,248,18954,1,8,0:0:0:0:
372,308,19360,2,0,L|416:348,2,60,8|0|8,0:0|0:0|0:0,0:0:0:0:
368,188,20171,6,0,P|376:128|372:56,1,120,8|8,0:0|0:0,0:0:0:0:
264,120,20981,2,0,P|200:120|128:100,1,120,8|8,0:0|0:0,0:0:0:0:
60,188,21792,2,0,L|72:256,1,60,8|0,0:0|0:0,0:0:0:0:
128,228,22198,2,0,L|140:296,1,60,8|0,0:0|0:0,0:0:0:0:
192,260,22603,2,0,P|240:276|304:320,1,120,8|8,0:0|0:0,0:0:0:0:
352,340,23211,1,0,0:0:0:0:
400,300,23414,6,0,P|428:240|444:172,1,120,8|8,0:0|0:0,0:0:0:0:
396,76,24225,2,0,P|368:92|336:108,1,60,8|0,0:0|0:0,0:0:0:0:
284,120,24630,1,8,0:0:0:0:
224,136,24833,2,0,P|152:120|76:184,1,180,0|8,0:0|0:0,0:0:0:0:
180,244,25846,1,8,0:0:0:0:
180,244,26049,2,0,B|220:284|220:284|288:268|340:308,1,180,2|4,0:0|0:0,0:0:0:0:
456,292,27063,6,0,P|436:240|424:216,1,60,8|0,0:0|0:0,0:0:0:0:
408,180,27468,2,0,P|368:124|300:84,1,120,8|8,0:0|0:0,0:0:0:0:
288,208,28279,2,0,P|232:248|196:304,2,120,8|8|8,0:0|0:0|0:0,0:0:0:0:
212,116,29495,1,8,0:0:0:0:
124,199,29900,6,0,L|203:289,1,120,8|8,0:0|0:0,0:0:0:0:
256,320,30508,1,0,0:0:0:0:
309,289,30711,2,0,L|388:199,1,120,8|8,0:0|0:0,0:0:0:0:
428,156,31319,1,0,0:0:0:0:
464,108,31522,2,0,P|428:64|360:32,2,120,8|8|8,0:0|0:0|0:0,0:0:0:0:
476,228,32738,1,8,0:0:0:0:
356,252,33144,6,0,P|296:264|232:288,1,120,8|8,0:0|0:0,0:0:0:0:
128,328,33954,2,0,P|128:260|144:208,1,120,8|8,0:0|0:0,0:0:0:0:
196,104,34765,2,0,P|228:84|264:68,1,60,8|0,0:0|0:0,0:0:0:0:
308,68,35171,2,0,P|340:80|384:92,1,60,8|0,0:0|0:0,0:0:0:0:
424,100,35576,1,8,0:0:0:0:
400,216,35981,2,0,P|368:284|340:332,1,120,8|8,0:0|0:0,0:0:0:0:
228,352,36792,6,0,P|192:332|160:304,1,60,8|0,0:0|0:0,0:0:0:0:
132,280,37198,1,8,0:0:0:0:
156,164,37603,1,8,0:0:0:0:
264,112,38008,2,0,P|276:172|248:240,2,120,8|8|8,0:0|0:0|0:0,0:0:0:0:
220,68,39022,2,0,P|192:52|148:44,1,60,0|8,0:0|0:0,0:0:0:0:
48,68,39630,6,0,P|16:120|4:184,2,120,4|8|0,0:0|0:0|0:0,0:0:0:0:
100,100,40644,2,0,L|152:136,1,60,8|8,0:0|0:0,0:0:0:0:
200,164,41049,2,0,P|296:160|356:88,1,180,10|8,0:0|0:0,0:0:0:0:
404,208,42063,2,0,L|420:332,1,120,8|8,0:0|0:0,0:0:0:0:
300,336,42873,5,8,0:0:0:0:
204,264,43279,1,8,0:0:0:0:
124,356,43684,1,8,0:0:0:0:
124,356,43887,2,0,L|112:276,1,60,8|8,0:0|0:0,0:0:0:0:
108,236,44292,2,0,P|104:136|120:44,1,180,10|8,0:0|0:0,0:0:0:0:
236,68,45306,2,0,P|240:136|232:196,1,120,8|8,0:0|0:0,0:0:0:0:
200,304,46117,6,0,P|260:340|324:360,1,120,4|8,0:0|0:0,0:0:0:0:
420,320,46927,1,8,0:0:0:0:
420,320,47130,2,0,L|408:236,1,60,8|8,0:0|0:0,0:0:0:0:
404,200,47535,2,0,P|388:100|360:12,1,180,10|8,0:0|0:0,0:0:0:0:
244,32,48549,2,0,L|260:96,1,60,8|0,0:0|0:0,0:0:0:0:
268,148,48954,2,0,P|256:192|252:232,1,60,8|0,0:0|0:0,0:0:0:0:
244,264,49360,1,8,0:0:0:0:
140,324,49765,6,0,P|132:288|128:256,1,60,8|0,0:0|0:0,0:0:0:0:
120,204,50171,2,0,P|108:168|92:136,2,60,8|8|8,0:0|0:0|0:0,0:0:0:0:
256,192,50779,12,0,52603,0:0:0:0:
256,304,53414,5,12,0:0:0:0:
136,96,54225,6,0,L|196:88,1,60,4|0,0:0|0:0,0:0:0:0:
188,148,54630,2,0,L|248:140,1,60,8|0,0:0|0:0,0:0:0:0:
308,132,55035,2,0,P|348:196|364:264,1,120,8|8,0:0|0:0,0:0:0:0:
300,340,55846,2,0,L|240:348,1,60,8|0,0:0|0:0,0:0:0:0:
180,352,56252,1,8,0:0:0:0:
132,316,56454,1,0,0:0:0:0:
136,256,56657,2,0,P|148:213|188:149,1,120,8|8,0:0|0:0,0:0:0:0:
308,132,57468,6,0,P|372:128|440:96,1,120,8|8,0:0|0:0,0:0:0:0:
388,220,58279,2,0,P|324:224|256:256,1,120,8|8,0:0|0:0,0:0:0:0:
216,268,58887,1,0,0:0:0:0:
164,300,59090,2,0,P|64:240|96:136,1,240,8|8,0:0|0:0,0:0:0:0:
208,104,60306,2,0,L|200:176,1,60,8|0,0:0|0:0,0:0:0:0:
228,216,60711,6,0,P|240:244|256:292,1,60,4|0,0:0|0:0,0:0:0:0:
292,312,61117,2,0,P|332:332|372:348,1,60,8|0,0:0|0:0,0:0:0:0:
408,340,61522,2,0,P|452:264|472:212,1,120,8|8,0:0|0:0,0:0:0:0:
408,128,62333,2,0,P|364:204|344:256,2,120,8|8|8,0:0|0:0|0:0,0:0:0:0:
320,44,63549,1,8,0:0:0:0:
200,44,63954,6,0,P|148:72|88:132,1,120,8|8,0:0|0:0,0:0:0:0:
112,232,64765,2,0,P|164:204|224:144,1,120,8|8,0:0|0:0,0:0:0:0:
252,120,65373,1,0,0:0:0:0:
300,80,65576,2,0,P|392:112|416:244,1,240,8|8,0:0|0:0,0:0:0:0:
384,292,66590,2,0,P|352:324|336:352,2,60,8|8|0,0:0|0:0|0:0,0:0:0:0:
352,240,67198,6,0,P|332:204|320:172,1,60,4|0,0:0|0:0,0:0:0:0:
304,132,67603,2,0,P|260:124|228:116,1,60,8|0,0:0|0:0,0:0:0:0:
188,104,68008,2,0,P|144:144|116:196,1,120,8|8,0:0|0:0,0:0:0:0:
148,312,68819,2,0,P|192:272|220:220,2,120,8|8|8,0:0|0:0|0:0,0:0:0:0:
56,236,70035,6,0,P|52:196|56:160,1,60,8|0,0:0|0:0,0:0:0:0:
72,120,70441,2,0,P|128:68|184:52,1,120,8|8,0:0|0:0,0:0:0:0:
280,96,71252,2,0,P|224:148|168:164,1,120,8|8,0:0|0:0,0:0:0:0:
88,236,72063,2,0,P|136:344|260:344,1,240,8|8,0:0|0:0,0:0:0:0:
304,340,73076,2,0,P|340:328|384:320,2,60,0|8|0,0:0|0:0|0:0,0:0:0:0:
264,296,73684,6,0,P|256:256|256:216,1,60,4|0,0:0|0:0,0:0:0:0:
256,176,74090,2,0,P|252:128|244:92,1,60,8|0,0:0|0:0,0:0:0:0:
240,56,74495,2,0,P|176:52|124:88,1,120,8|8,0:0|0:0,0:0:0:0:
112,200,75306,2,0,B|104:248|116:288|116:288|108:344,2,120,8|8|8,0:0|0:0|0:0,0:0:0:0:
232,180,76522,1,8,0:0:0:0:
348,156,76927,6,0,P|384:112|412:36,1,120,8|8,0:0|0:0,0:0:0:0:
288,60,77738,2,0,P|252:104|224:180,1,120,8|8,0:0|0:0,0:0:0:0:
300,260,78549,2,0,P|184:276|108:184,1,240,8|8,0:0|0:0,0:0:0:0:
108,132,79563,2,0,L|108:48,1,60,8|8,0:0|0:0,0:0:0:0:
224,36,80171,5,4,0:0:0:0:
224,96,80373,2,0,L|224:224,1,120,2|0,0:0|0:0,0:0:0:0:
224,276,80981,2,0,P|272:320|344:324,1,120,2|0,0:0|0:0,0:0:0:0:
384,324,81590,6,0,B|408:284|408:284|404:224|416:196,1,120,4|2,0:0|0:0,0:0:0:0:
424,152,82198,1,2,0:0:0:0:
376,116,82400,2,0,L|324:80,1,60,2|2,0:0|0:0,0:0:0:0:
220,28,83008,2,0,P|168:48|120:100,1,120,0|4,0:0|0:0,0:0:0:0:
104,152,83617,6,0,L|92:216,2,60,2|2|2,0:0|0:0|0:0,0:0:0:0:
164,140,84225,2,0,P|212:148|280:172,1,120,4|2,0:0|0:0,0:0:0:0:
324,212,84833,1,2,0:0:0:0:
324,272,85035,2,0,L|296:340,1,60,12|8,0:0|0:0,0:0:0:0:
256,288,85441,2,0,L|228:356,1,60,8|8,0:0|0:0,0:0:0:0:
180,312,85846,1,8,0:0:0:0:
104,220,86252,6,0,P|136:200|160:192,1,60,2|2,0:0|0:0,0:0:0:0:
256,192,86657,12,0,88279,0:0:0:0:
