osu file format v12

[General]
AudioFilename: Dou Kangaete mo Watashi wa Warukunai.mp3
AudioLeadIn: 1500
PreviewTime: 53426
Countdown: 0
SampleSet: Soft
StackLeniency: 0.7
Mode: 0
LetterboxInBreaks: 0
WidescreenStoryboard: 0

[Editor]
DistanceSpacing: 1
BeatDivisor: 4
GridSize: 4

[Metadata]
Title:Dou Kangaete mo Watashi wa Warukunai (TV Size)
TitleUnicode:どう考えても私は悪くない (TV Size)
Artist:Kitta Izumi
ArtistUnicode:橘田いずみ
Creator:Guy
Version:Easy
Source:Watashi ga Motenai no wa Dou Kangaete mo Omaera ga Warui!
Tags:ending kuroki tomoko watamote 私がモテないのはどう考えてもお前らが悪い!
BeatmapID:274767
BeatmapSetID:104278

[Difficulty]
HPDrainRate:2
CircleSize:3
OverallDifficulty:2
ApproachRate:3
SliderMultiplier:1
SliderTickRate:1

[Events]
//Background and Video events
0,0,"bg.jpg",0,0
Video,150,"video.avi"
//Break Periods
//Storyboard Layer 0 (Background)
//Storyboard Layer 1 (Fail)
//Storyboard Layer 2 (Pass)
//Storyboard Layer 3 (Foreground)
//Storyboard Sound Samples
//Background Colour Transformations
3,100,163,162,255

[TimingPoints]
711.664581305041,405.405405405405,4,2,1,70,1,0
12367,-100,4,2,2,60,0,0
12569,-100,4,2,1,70,0,0
13076,-100,4,2,2,60,0,0
13684,-100,4,2,1,70,0,0
15610,-100,4,2,2,60,0,0
15813,-100,4,2,1,70,0,0
18853,-100,4,2,2,60,0,0
19056,-100,4,2,1,70,0,0
22096,-100,4,2,2,60,0,0
22299,-100,4,2,1,70,0,0
23718,-100,4,2,2,60,0,0
23921,-100,4,2,1,70,0,0
26657,-100,4,2,1,80,0,0
28583,-100,4,2,2,70,0,0
28785,-100,4,2,1,80,0,0
31826,-100,4,2,2,70,0,0
32029,-100,4,2,1,80,0,0
35069,-100,4,2,2,70,0,0
35272,-100,4,2,1,80,0,0
39934,-100,4,2,2,70,0,0
40137,-100,4,2,1,80,0,0
40644,-100,4,2,2,70,0,0
41049,-100,4,2,1,80,0,0
43177,-100,4,2,2,70,0,0
43380,-100,4,2,1,80,0,0
43887,-100,4,2,2,70,0,0
44292,-100,4,2,1,80,0,0
46421,-100,4,2,2,70,0,0
46623,-100,4,2,1,80,0,0
47130,-100,4,2,2,70,0,0
47535,-100,4,2,1,80,0,0
50373,-100,4,2,2,70,0,0
50779,-100,4,2,1,80,0,0
54225,-100,4,2,1,80,0,1
56150,-100,4,2,2,70,0,1
56353,-100,4,2,1,80,0,1
57772,-100,4,2,2,70,0,1
57975,-100,4,2,1,80,0,1
58583,-100,4,2,2,70,0,1
58785,-100,4,2,1,80,0,1
59394,-100,4,2,2,70,0,1
59596,-100,4,2,1,80,0,1
62637,-100,4,2,2,70,0,1
62840,-100,4,2,1,80,0,1
64258,-100,4,2,2,70,0,1
64461,-100,4,2,1,80,0,1
65880,-100,4,2,2,70,0,1
66083,-100,4,2,1,80,0,1
66590,-100,4,2,2,70,0,1
66995,-100,4,2,1,80,0,1
69123,-100,4,2,2,70,0,1
69326,-100,4,2,1,80,0,1
70745,-100,4,2,2,70,0,1
70948,-100,4,2,1,80,0,1
71556,-100,4,2,2,70,0,1
71758,-100,4,2,1,80,0,1
72367,-100,4,2,2,70,0,1
72569,-100,4,2,1,80,0,1
78853,-100,4,2,2,70,0,1
79056,-100,4,2,1,80,0,1
79563,-100,4,2,2,70,0,1
80171,-100,4,2,1,80,0,0
88279,-100,4,2,1,30,0,0

[Colours]
Combo1 : 255,128,64
Combo2 : 5,240,5
Combo3 : 5,5,240

[HitObjects]
448,332,711,6,0,P|396:224|324:172,1,200,4|2,0:0|0:0,0:0:0:0:
140,172,2333,2,0,P|132:240|124:284,2,100,2|2|2,0:0|0:0|0:0,0:0:0:0:
188,84,3549,2,0,P|244:52|296:48,1,100,2|0,0:0|0:0,0:0:0:0:
328,52,4157,6,0,P|384:76|412:256,1,250,2|2,0:0|0:0,0:0:0:0:
352,320,5576,2,0,L|288:336,1,50,0|2,0:0|0:0,0:0:0:0:
248,248,6184,2,0,L|312:232,1,50,0|2,0:0|0:0,0:0:0:0:
396,220,6792,1,2,0:0:0:0:
256,192,7198,12,8,9630,0:0:0:0:
156,120,10441,6,0,L|256:132,1,100,8|8,0:0|0:0,0:0:0:0:
324,204,11252,2,0,P|300:252|292:308,1,100,8|8,0:0|0:0,0:0:0:0:
392,280,12063,2,0,P|416:168|360:104,1,200,8|8,0:0|0:0,0:0:0:0:
316,104,13076,2,0,L|248:128,1,50,8|8,0:0|0:0,0:0:0:0:
172,152,13684,5,4,0:0:0:0:
204,248,14090,1,8,0:0:0:0:
104,228,14495,2,0,P|80:180|76:132,1,100,8|8,0:0|0:0,0:0:0:0:
132,52,15306,2,0,P|216:60|276:160,1,200,8|8,0:0|0:0,0:0:0:0:
308,348,16927,6,0,P|352:308|372:272,1,100,8|8,0:0|0:0,0:0:0:0:
344,176,17738,2,0,P|296:156|248:152,1,100,8|8,0:0|0:0,0:0:0:0:
180,224,18549,2,0,P|148:144|216:56,1,200,8|8,0:0|0:0,0:0:0:0:
392,120,20171,6,0,P|404:172|404:220,1,100,8|8,0:0|0:0,0:0:0:0:
316,264,20981,2,0,P|304:212|304:164,1,100,8|8,0:0|0:0,0:0:0:0:
308,64,21792,2,0,P|212:48|124:96,1,200,8|8,0:0|0:0,0:0:0:0:
96,188,23008,1,8,0:0:0:0:
156,264,23414,6,0,P|252:280|340:232,1,200,8|8,0:0|0:0,0:0:0:0:
380,140,24630,1,8,0:0:0:0:
312,64,25035,2,0,P|284:108|284:168,1,100,8|8,0:0|0:0,0:0:0:0:
296,252,25846,1,8,0:0:0:0:
296,252,26049,2,0,L|144:288,1,150,2|4,0:0|0:0,0:0:0:0:
64,236,27063,5,8,0:0:0:0:
68,136,27468,2,0,P|72:84|88:32,1,100,8|8,0:0|0:0,0:0:0:0:
184,64,28279,2,0,P|264:108|376:128,1,200,8|8,0:0|0:0,0:0:0:0:
480,296,29900,6,0,P|420:304|368:324,1,100,8|8,0:0|0:0,0:0:0:0:
284,332,30711,2,0,P|220:320|172:304,1,100,8|8,0:0|0:0,0:0:0:0:
96,268,31522,2,0,P|80:200|156:96,1,200,8|8,0:0|0:0,0:0:0:0:
348,128,33144,6,0,P|296:168|256:192,1,100,8|8,0:0|0:0,0:0:0:0:
256,88,33954,2,0,P|308:48|348:24,1,100,8|8,0:0|0:0,0:0:0:0:
432,64,34765,2,0,P|444:160|376:232,1,200,8|8,0:0|0:0,0:0:0:0:
280,260,35981,1,8,0:0:0:0:
204,196,36387,1,8,0:0:0:0:
116,16,37198,6,0,P|172:32|220:60,1,100,8|8,0:0|0:0,0:0:0:0:
264,136,38008,2,0,P|276:188|280:248,2,100,8|8|8,0:0|0:0|0:0,0:0:0:0:
252,36,39225,1,8,0:0:0:0:
344,76,39630,6,0,P|444:116|472:212,1,200,4|8,0:0|0:0,0:0:0:0:
464,248,40644,2,0,L|444:308,1,50,8|8,0:0|0:0,0:0:0:0:
404,320,41049,2,0,P|324:328|240:360,1,150,10|8,0:0|0:0,0:0:0:0:
160,336,42063,2,0,P|136:280|128:236,1,100,8|8,0:0|0:0,0:0:0:0:
124,144,42873,6,0,B|196:124|196:124|248:124|248:124|320:104,1,200,8|8,0:0|0:0,0:0:0:0:
368,92,43887,2,0,L|384:156,1,50,8|8,0:0|0:0,0:0:0:0:
388,192,44292,2,0,P|368:260|316:344,1,150,10|8,0:0|0:0,0:0:0:0:
228,316,45306,2,0,L|200:212,1,100,8|8,0:0|0:0,0:0:0:0:
184,120,46117,6,0,P|172:72|28:56,1,200,4|8,0:0|0:0,0:0:0:0:
24,92,47130,2,0,L|4:156,1,50,8|8,0:0|0:0,0:0:0:0:
8,188,47535,2,0,P|28:252|68:328,1,150,10|8,0:0|0:0,0:0:0:0:
160,356,48549,2,0,P|232:340|276:340,1,100,8|8,0:0|0:0,0:0:0:0:
356,332,49360,5,8,0:0:0:0:
404,244,49765,1,8,0:0:0:0:
368,152,50171,2,0,L|312:112,2,50,8|8|8,0:0|0:0|0:0,0:0:0:0:
256,192,50779,12,12,53414,0:0:0:0:
80,208,54225,6,0,P|100:164|132:108,1,100,4|8,0:0|0:0,0:0:0:0:
224,116,55035,2,0,P|204:160|172:216,1,100,8|8,0:0|0:0,0:0:0:0:
128,292,55846,2,0,P|200:360|316:344,1,200,8|8,0:0|0:0,0:0:0:0:
372,288,57063,1,8,0:0:0:0:
352,192,57468,6,0,P|280:124|164:140,3,200,8|8|8|8,0:0|0:0|0:0|0:0,0:0:0:0:
108,192,60306,1,8,0:0:0:0:
120,292,60711,6,0,P|160:328|204:360,1,100,4|8,0:0|0:0,0:0:0:0:
276,296,61522,2,0,P|288:240|308:184,1,100,8|8,0:0|0:0,0:0:0:0:
400,180,62333,2,0,P|340:116|224:132,1,200,8|8,0:0|0:0,0:0:0:0:
172,200,63549,1,8,0:0:0:0:
176,300,63954,6,0,P|80:248|84:152,1,200,8|8,0:0|0:0,0:0:0:0:
152,104,65171,1,8,0:0:0:0:
252,108,65576,2,0,B|272:164|272:164|268:240|268:240|292:300,1,200,8|8,0:0|0:0,0:0:0:0:
336,324,66590,2,0,L|392:344,1,50,8|8,0:0|0:0,0:0:0:0:
452,268,67198,6,0,P|460:216|464:168,1,100,4|8,0:0|0:0,0:0:0:0:
380,116,68008,2,0,P|372:168|368:216,1,100,8|8,0:0|0:0,0:0:0:0:
364,316,68819,2,0,P|260:320|184:260,1,200,8|8,0:0|0:0,0:0:0:0:
168,164,70035,1,8,0:0:0:0:
236,88,70441,6,0,P|340:84|416:144,3,200,8|8|8|8,0:0|0:0|0:0|0:0,0:0:0:0:
420,240,73279,1,8,0:0:0:0:
368,324,73684,6,0,P|320:348|264:368,1,100,4|8,0:0|0:0,0:0:0:0:
196,304,74495,2,0,P|244:280|300:260,1,100,8|8,0:0|0:0,0:0:0:0:
380,224,75306,1,8,0:0:0:0:
344,132,75711,1,8,0:0:0:0:
248,168,76117,2,0,P|200:184|140:216,1,100,8|8,0:0|0:0,0:0:0:0:
96,284,76927,6,0,P|72:240|64:184,1,100,8|8,0:0|0:0,0:0:0:0:
96,96,77738,1,8,0:0:0:0:
192,64,78144,1,8,0:0:0:0:
280,112,78549,2,0,P|320:184|344:304,1,200,8|8,0:0|0:0,0:0:0:0:
308,336,79563,2,0,L|264:360,1,50,8|8,0:0|0:0,0:0:0:0:
164,344,80171,6,0,P|132:232|136:144,1,200,4|2,0:0|0:0,0:0:0:0:
240,44,81590,2,0,P|272:156|272:208,1,150,4|2,0:0|0:0,0:0:0:0:
248,284,82603,2,0,P|376:268|436:216,1,200,2|4,0:0|0:0,0:0:0:0:
368,36,84225,5,4,0:0:0:0:
184,112,85035,2,0,L|200:180,1,50,12|8,0:0|0:0,0:0:0:0:
208,208,85441,2,0,L|224:276,1,50,8|8,0:0|0:0,0:0:0:0:
232,304,85846,1,8,0:0:0:0:
256,192,86657,12,0,88279,0:0:0:0:
