osu file format v13

[General]
AudioFilename: www.mp3
AudioLeadIn: 1500
PreviewTime: 53414
Countdown: 0
SampleSet: Soft
StackLeniency: 0.4
Mode: 0
LetterboxInBreaks: 0
WidescreenStoryboard: 0

[Editor]
DistanceSpacing: 1
BeatDivisor: 4
GridSize: 4
TimelineZoom: 1

[Metadata]
Title:Dou Kangaete mo Watashi wa Warukunai
TitleUnicode:どう考えても私は悪くない
Artist:Kitta Izumi
ArtistUnicode:橘田いずみ
Creator:Macuilxochitl
Version:Insane
Source:Watashi ga Motenai no wa Dou Kangaete mo Omaera ga Warui!
Tags:fanzhen0019 TV size ending kuroki tomoko watamote wantuole jyc-Binggan
BeatmapID:305607
BeatmapSetID:118934

[Difficulty]
HPDrainRate:7
CircleSize:4
OverallDifficulty:7
ApproachRate:8
SliderMultiplier:1.6
SliderTickRate:1

[Events]
//Background and Video events
0,0,"36961875.png",0,0
//Break Periods
//Storyboard Layer 0 (Background)
//Storyboard Layer 1 (Fail)
//Storyboard Layer 2 (Pass)
//Storyboard Layer 3 (Foreground)
//Storyboard Sound Samples
//Background Colour Transformations
3,100,163,162,255

[TimingPoints]
712,405.405405405405,4,2,0,60,1,0
7198,-100,4,2,0,80,0,0
13684,-100,4,2,0,68,0,0
26049,-200,4,2,0,45,0,0
26657,-100,4,2,0,73,0,0
39630,-100,4,2,0,50,0,0
40036,-100,4,2,0,60,0,0
40441,-100,4,2,0,70,0,0
42874,-100,4,2,0,50,0,0
43279,-100,4,2,0,60,0,0
43684,-100,4,2,0,70,0,0
46117,-100,4,2,0,50,0,0
46522,-100,4,2,0,60,0,0
46928,-100,4,2,0,70,0,0
54225,-100,4,2,0,87,0,1
66590,-100,4,2,0,80,0,0
66995,-100,4,2,0,80,0,0
67198,-100,4,2,0,92,0,1
78955,-100,4,2,0,5,0,1
79157,-66.6666666666667,4,2,0,100,0,1
80171,-100,4,2,0,78,0,0
85036,-100,4,2,0,60,0,0
86049,-100,4,2,0,73,0,0
86759,-100,4,2,0,5,0,0

[Colours]
Combo1 : 190,125,255
Combo2 : 68,162,255
Combo3 : 255,255,128
Combo4 : 255,125,255

[HitObjects]
292,176,712,5,4,0:0:0:0:
216,196,914,1,0,0:0:0:0:
136,184,1117,1,2,0:0:0:0:
76,132,1320,1,0,0:0:0:0:
72,52,1523,1,2,0:0:0:0:
292,176,1928,6,0,L|380:156,2,80,0|2|0,0:0|0:0|0:0,0:0:0:0:
168,228,2536,1,0,0:0:0:0:
88,216,2739,1,2,0:0:0:0:
28,164,2942,1,0,0:0:0:0:
24,84,3145,1,2,0:0:0:0:
280,208,3549,2,0,L|256:372,1,160,0|2,0:0|0:0,0:0:0:0:
256,366,4157,1,0,0:0:0:0:
192,320,4360,5,2,0:0:0:0:
268,288,4563,1,0,0:0:0:0:
344,256,4766,1,2,0:0:0:0:
344,256,5171,1,2,0:0:0:0:
280,208,5374,1,0,0:0:0:0:
216,160,5576,1,2,1:2:0:0:
216,160,5982,5,2,1:2:0:0:
216,160,6387,1,2,1:2:0:0:
292,92,6590,2,0,L|380:108,1,80,0|8,3:0|1:0,1:0:0:0:
292,92,7198,6,0,P|360:128|444:120,1,160,4|8,1:0|1:0,0:0:0:0:
420,212,7806,2,0,L|484:204,3,40,0|0|0|0,0:0|0:0|1:0|0:0,0:0:0:0:
504,200,8211,2,0,L|496:288,1,80,0|8,0:0|1:0,0:0:0:0:
424,348,8617,6,0,P|348:324|336:248,1,160,0|0,1:0|1:0,0:0:0:0:
368,184,9225,1,8,1:0:0:0:
232,232,9428,1,0,0:0:0:0:
236,272,9529,1,0,1:0:0:0:
240,312,9630,1,0,1:0:0:0:
156,196,9833,6,0,L|108:176,1,40,0|0,1:0|0:0,0:0:0:0:
220,120,10036,2,0,L|176:120,1,40,8|0,1:0|0:0,0:0:0:0:
260,28,10239,2,0,L|208:48,1,40,0|0,1:0|0:0,0:0:0:0:
104,48,10441,6,0,L|8:44,1,80,0|0,1:0|0:0,0:0:0:0:
156,196,10847,1,8,1:1:0:0:
220,120,11049,1,0,0:0:0:0:
260,112,11151,1,0,0:0:0:0:
300,112,11252,1,0,1:0:0:0:
336,128,11353,1,0,0:0:0:0:
364,156,11455,1,0,1:0:0:0:
380,192,11556,1,0,0:0:0:0:
380,232,11657,5,8,1:0:0:0:
372,340,11860,1,0,1:0:0:0:
300,376,12063,1,4,1:0:0:0:
304,296,12266,5,2,0:0:0:0:
148,324,12671,1,2,0:0:0:0:
304,296,13076,5,8,0:0:0:0:
220,272,13279,1,8,0:0:0:0:
16,120,13684,5,0,1:0:0:0:
176,124,14090,1,0,1:0:0:0:
16,120,14495,1,0,1:0:0:0:
176,124,14901,1,0,1:0:0:0:
16,120,15306,5,0,1:0:0:0:
96,148,15509,1,2,0:0:0:0:
176,124,15711,1,0,1:0:0:0:
96,232,15914,1,2,0:0:0:0:
96,60,16117,5,0,1:0:0:0:
176,124,16320,1,2,0:0:0:0:
180,132,16421,1,2,0:0:0:0:
184,140,16522,1,0,1:0:0:0:
256,92,16725,1,2,0:0:0:0:
336,124,16928,5,0,1:0:0:0:
496,120,17334,1,0,1:0:0:0:
336,124,17739,1,0,1:0:0:0:
496,120,18145,1,0,1:0:0:0:
336,124,18550,5,0,1:0:0:0:
416,148,18753,1,2,0:0:0:0:
496,120,18955,1,0,1:0:0:0:
416,60,19157,1,2,0:0:0:0:
416,232,19360,1,0,1:2:0:0:
304,213,19563,5,8,0:2:0:0:
304,213,19664,1,0,0:0:0:0:
304,213,19766,1,8,1:2:0:0:
341,310,19968,2,0,L|336:352,1,40,0|0,1:0|0:0,0:0:0:0:
261,373,20171,6,0,P|191:373|133:307,1,160,0|0,1:0|1:0,0:0:0:0:
134,229,20779,1,0,0:0:0:0:
207,196,20982,2,0,P|132:229|71:186,1,160,0|0,1:0|1:0,0:0:0:0:
41,115,21590,1,0,0:0:0:0:
93,54,21793,6,0,P|75:83|40:115,1,80,0|2,1:0|0:0,0:0:0:0:
143,126,22198,2,0,L|224:116,1,80,0|2,1:0|0:0,0:0:0:0:
243,34,22603,1,0,1:0:0:0:
312,73,22806,1,2,0:0:0:0:
412,44,23009,5,2,1:2:0:0:
412,44,23414,6,0,B|432:98|419:140|419:140|379:133|379:133|348:179|387:208|387:208|410:188,1,240,2|0,1:2|0:0,0:0:0:0:
474,239,24225,6,0,L|468:336,1,80,0|0,1:0|0:0,0:0:0:0:
306,275,24630,1,0,1:0:0:0:
371,204,24833,2,0,P|398:281|354:354,1,160,0|0,1:0|0:0,0:0:0:0:
243,340,25441,2,0,P|216:263|260:190,1,160,0|0,1:0|1:0,0:0:0:0:
170,110,26049,6,0,L|160:202,1,80,2|0,0:0|0:0,0:0:0:0:
121,260,26657,6,0,P|80:271|26:263,1,80,4|0,1:2|0:2,0:2:0:0:
4,197,27063,1,8,1:2:0:0:
175,187,27266,1,0,0:0:0:0:
195,344,27468,6,0,P|152:348|100:332,1,80,0|0,1:0|0:0,0:0:0:0:
120,260,27874,1,8,1:2:0:0:
290,295,28076,1,0,0:0:0:0:
369,284,28279,6,0,P|395:246|401:209,1,80,0|2,1:0|0:0,0:0:0:0:
445,60,28684,2,0,L|456:140,1,80,8|2,1:2|0:0,0:0:0:0:
370,12,29090,1,0,1:0:0:0:
204,88,29293,1,2,0:0:0:0:
208,96,29394,1,2,0:0:0:0:
213,103,29495,2,0,L|308:97,1,80,8|2,1:2|0:0,0:0:0:0:
200,180,29901,6,0,P|150:158|132:129,1,80,0|0,1:0|0:0,0:0:0:0:
300,108,30306,2,0,L|318:203,1,80,8|0,1:2|0:0,0:0:0:0:
416,120,30711,6,0,P|448:92|456:52,1,80,0|0,1:0|0:0,0:0:0:0:
285,29,31117,2,0,L|300:108,1,80,8|0,1:2|0:0,0:0:0:0:
269,324,31522,5,0,1:0:0:0:
212,193,31725,1,2,0:0:0:0:
140,228,31928,1,8,1:2:0:0:
195,360,32130,1,2,0:0:0:0:
269,324,32333,1,0,1:0:0:0:
131,306,32536,6,0,B|100:306|69:325|69:325|60:293|60:293|36:303|-8:306,1,160,2|2,0:0|0:2,0:0:0:0:
32,188,33144,5,0,1:0:0:0:
104,224,33347,1,0,0:0:0:0:
116,112,33549,2,0,P|168:116|192:128,1,80,8|0,1:2|0:0,0:0:0:0:
192,208,33955,5,0,1:0:0:0:
264,244,34158,1,0,0:0:0:0:
276,132,34360,2,0,P|328:136|352:148,1,80,8|0,1:2|0:0,0:0:0:0:
392,220,34766,5,0,1:0:0:0:
472,212,34968,1,2,0:0:0:0:
488,132,35171,1,8,1:2:0:0:
416,96,35374,1,2,0:0:0:0:
356,148,35576,1,0,1:0:0:0:
312,252,35779,5,2,0:0:0:0:
260,112,35982,1,4,1:2:0:0:
260,112,36387,2,0,P|160:176|64:108,1,240,4|2,1:2|0:0,0:0:0:0:
200,12,37198,6,0,P|192:56|164:84,1,80,0|2,1:0|0:0,0:0:0:0:
68,120,37603,2,0,L|80:208,1,80,0|2,1:0|0:0,0:0:0:0:
56,296,38009,6,0,P|148:280|164:204,2,160,4|2|2,0:0|1:2|1:2,0:0:0:0:
180,308,39022,5,2,0:0:0:0:
176,320,39124,1,2,0:0:0:0:
176,332,39225,1,0,1:0:0:0:
304,308,39428,5,2,0:0:0:0:
308,296,39530,1,2,0:0:0:0:
308,284,39630,6,0,P|376:260|408:204,1,120,4|0,1:2|0:0,0:0:0:0:
328,200,40036,2,0,L|404:96,1,120,8|8,0:0|0:0,0:0:0:0:
316,92,40441,5,0,0:0:0:0:
440,32,40644,1,8,0:1:0:0:
440,32,40847,1,8,0:1:0:0:
444,168,41049,6,0,P|360:148|316:92,1,160,0|0,1:0|0:0,0:0:0:0:
192,80,41657,1,2,0:0:0:0:
136,136,41860,1,0,1:0:0:0:
212,156,42063,1,8,0:3:0:0:
112,216,42266,5,0,0:0:0:0:
168,272,42469,1,4,0:3:0:0:
92,292,42672,1,0,0:0:0:0:
256,352,42874,6,0,L|380:312,1,120,0|0,1:0|0:0,0:0:0:0:
448,344,43279,2,0,P|444:280|404:240,1,120,8|8,0:0|0:0,0:0:0:0:
324,244,43684,1,0,1:0:0:0:
364,168,43887,5,8,0:0:0:0:
364,168,44090,1,8,0:1:0:0:
360,48,44293,6,0,B|312:72|296:72|296:72|288:48|288:48|268:60|268:60|196:68,1,160,0|0,1:0|0:0,0:0:0:0:
36,140,44901,1,2,0:0:0:0:
64,64,45103,1,4,0:3:0:0:
112,128,45306,1,0,0:0:0:0:
216,216,45509,5,8,0:3:0:0:
188,140,45711,1,4,0:3:0:0:
140,204,45914,1,2,0:0:0:0:
340,328,46117,6,0,P|308:276|324:212,1,120,4|0,1:2|0:0,0:0:0:0:
476,248,46522,2,0,P|460:308|404:344,1,120,8|8,0:0|0:0,0:0:0:0:
392,260,46928,1,0,1:2:0:0:
408,148,47130,5,8,0:1:0:0:
408,148,47333,1,8,0:1:0:0:
344,36,47536,6,0,P|248:88|256:144,1,160,0|0,1:0|0:0,0:0:0:0:
280,200,48144,1,4,0:3:0:0:
200,212,48347,1,2,0:0:0:0:
252,272,48549,1,8,0:3:0:0:
88,276,48752,5,2,0:0:0:0:
168,288,48955,1,4,0:3:0:0:
116,348,49157,1,2,0:0:0:0:
268,352,49360,6,0,L|352:356,1,80,0|0,1:0|0:0,0:0:0:0:
480,272,49766,1,8,0:0:0:0:
400,284,49968,2,0,P|420:328|456:348,1,80,0|8,1:0|0:0,0:0:0:0:
432,208,50374,1,8,1:2:0:0:
324,296,50576,1,8,0:0:0:0:
280,176,50779,6,0,L|296:16,1,160,4|0,1:2|0:0,0:0:0:0:
364,60,51387,5,0,1:0:0:0:
252,72,51793,1,0,1:0:0:0:
140,84,52198,1,0,1:0:0:0:
28,96,52603,5,0,1:0:0:0:
88,148,52806,1,2,0:0:0:0:
140,84,53009,1,0,1:0:0:0:
192,20,53211,1,2,0:0:0:0:
252,72,53414,1,4,1:1:0:0:
308,128,53617,5,0,0:0:0:0:
388,120,53820,1,2,0:0:0:0:
280,204,54022,1,0,0:0:0:0:
308,128,54225,5,4,1:2:0:0:
364,196,54428,1,2,0:0:0:0:
248,280,54630,1,8,1:0:0:0:
280,204,54833,1,2,0:0:0:0:
412,264,55036,6,0,P|400:312|368:328,1,80,0|2,1:0|0:0,0:0:0:0:
248,280,55441,2,0,L|144:272,1,80,8|2,1:0|0:0,0:0:0:0:
48,188,55847,5,0,1:0:0:0:
64,268,56049,1,2,0:0:0:0:
172,112,56252,5,8,1:0:0:0:
156,192,56454,1,2,0:0:0:0:
48,52,56657,5,0,1:0:0:0:
164,84,56860,1,2,0:0:0:0:
168,100,56961,1,2,0:0:0:0:
172,112,57063,5,8,1:0:0:0:
256,128,57266,1,2,0:0:0:0:
332,32,57468,2,0,P|344:80|328:116,1,80,4|2,1:2|0:0,0:0:0:0:
197,188,57874,5,8,1:0:0:0:
113,172,58077,1,2,0:0:0:0:
76,56,58279,2,0,P|47:96|49:135,1,80,4|0,1:2|0:0,0:0:0:0:
164,264,58684,5,8,1:0:0:0:
248,248,58887,1,2,0:0:0:0:
312,136,59090,2,0,B|292:180|292:180|320:192|356:256|328:308|288:324|260:328,1,240,4|0,1:2|1:0,0:0:0:0:
164,264,59901,5,2,0:0:0:0:
32,320,60103,1,0,1:0:0:0:
104,196,60306,1,8,1:0:0:0:
120,336,60509,1,0,3:0:0:0:
24,232,60711,5,4,1:2:0:0:
164,264,60914,1,2,0:0:0:0:
156,116,61117,1,8,1:0:0:0:
248,232,61320,1,2,0:0:0:0:
104,196,61522,5,0,1:0:0:0:
244,144,61725,1,2,0:0:0:0:
248,232,61928,5,8,1:0:0:0:
372,264,62130,1,2,0:0:0:0:
404,184,62333,6,0,P|452:224|456:248,1,80,0|2,1:0|0:0,0:0:0:0:
296,296,62739,2,0,P|237:317|214:309,1,80,8|2,1:0|0:0,0:0:0:0:
244,144,63144,2,0,P|254:82|273:66,1,80,0|2,1:0|0:0,0:0:0:0:
336,32,63549,1,8,1:0:0:0:
336,32,63752,1,2,1:2:0:0:
196,76,63955,6,0,L|96:80,1,80,0|2,1:0|0:0,0:0:0:0:
0,144,64360,2,0,L|100:140,1,80,8|2,1:0|0:0,0:0:0:0:
204,200,64766,6,0,L|104:204,1,80,0|2,1:0|0:0,0:0:0:0:
8,268,65171,2,0,L|108:264,1,80,8|2,1:0|0:0,0:0:0:0:
212,312,65576,5,0,1:0:0:0:
212,312,65779,1,0,1:2:0:0:
304,316,65982,1,0,1:0:0:0:
308,300,66083,1,0,1:0:0:0:
312,284,66184,1,0,1:0:0:0:
316,268,66286,1,0,1:0:0:0:
320,252,66387,1,0,1:0:0:0:
264,188,66590,5,8,0:2:0:0:
396,152,66793,1,8,0:2:0:0:
264,188,66995,1,0,3:0:0:0:
192,144,67198,5,4,1:2:0:0:
120,224,67401,1,2,0:0:0:0:
116,208,67502,1,0,0:0:0:0:
112,192,67603,1,8,1:0:0:0:
20,180,67806,1,2,0:0:0:0:
192,144,68009,5,0,1:0:0:0:
96,128,68211,1,2,0:0:0:0:
104,112,68313,1,0,0:0:0:0:
112,96,68414,1,8,1:0:0:0:
16,72,68617,1,2,0:0:0:0:
192,144,68820,6,0,P|240:156|272:144,1,80,0|2,1:0|0:0,0:0:0:0:
336,40,69225,2,0,P|384:28|416:40,1,80,8|2,1:0|0:0,0:0:0:0:
500,144,69630,2,0,L|492:276,1,120,0|0,1:0|1:0,0:0:0:0:
496,280,70036,5,8,1:0:0:0:
332,232,70239,1,2,1:2:0:0:
408,128,70441,2,0,L|400:228,1,80,4|2,1:2|0:0,0:0:0:0:
248,336,70847,5,8,1:0:0:0:
120,372,71049,1,2,1:2:0:0:
161,224,71252,2,0,L|172:304,1,80,4|2,1:2|0:0,0:0:0:0:
232,168,71658,5,8,1:0:0:0:
56,108,71860,1,2,1:2:0:0:
144,8,72063,2,0,B|128:124|128:124|160:184|232:168,1,240,4|0,1:2|1:0,0:0:0:0:
292,64,72874,1,4,1:2:0:0:
208,84,73076,6,0,L|312:76,1,80,0|2,1:0|0:0,0:0:0:0:
384,72,73482,1,12,0:0:0:0:
460,192,73684,5,4,1:2:0:0:
432,268,73887,1,2,0:0:0:0:
436,188,74090,1,8,1:0:0:0:
468,116,74293,1,2,0:0:0:0:
460,192,74495,5,0,1:0:0:0:
384,220,74698,1,2,0:0:0:0:
308,196,74901,1,8,1:0:0:0:
268,128,75103,1,2,0:0:0:0:
272,108,75205,1,2,0:0:0:0:
276,88,75306,5,0,1:0:0:0:
212,180,75509,1,2,0:0:0:0:
152,116,75711,1,8,1:0:0:0:
76,160,75914,1,2,0:0:0:0:
36,60,76117,1,0,1:0:0:0:
112,24,76320,5,8,0:0:0:0:
112,24,76522,1,8,1:0:0:0:
76,160,76725,1,2,1:2:0:0:
44,292,76928,6,0,P|136:328|172:280,1,160,4|8,1:2|1:0,0:0:0:0:
188,216,77536,5,2,1:2:0:0:
76,160,77739,1,4,1:2:0:0:
80,256,77941,1,2,0:0:0:0:
84,276,78043,1,0,0:0:0:0:
88,296,78144,1,8,1:0:0:0:
200,312,78347,1,2,0:0:0:0:
308,312,78549,6,0,P|256:380|200:312,1,200,4|0,1:2|0:0,0:0:0:0:
256,252,79157,6,0,L|256:112,1,120.000004577637,0|4,0:0|0:0,0:0:0:0:
256,32,79563,5,8,0:0:0:0:
256,32,79766,1,8,0:0:0:0:
488,92,80171,5,4,0:0:0:0:
412,180,80374,1,0,0:0:0:0:
332,176,80576,1,2,0:0:0:0:
336,36,80779,1,0,0:0:0:0:
256,32,80981,1,2,0:0:0:0:
440,280,81387,1,0,0:0:0:0:
488,92,81590,5,4,0:0:0:0:
384,192,81793,1,0,0:0:0:0:
304,188,81995,1,2,0:0:0:0:
308,48,82198,1,0,0:0:0:0:
228,44,82400,1,0,0:0:0:0:
148,40,82603,1,2,0:0:0:0:
108,172,82806,5,0,0:0:0:0:
28,96,83009,2,0,P|8:172|56:232,1,160,2|4,0:0|0:0,0:0:0:0:
136,248,83617,1,0,0:0:0:0:
108,172,83820,5,2,0:0:0:0:
184,152,84022,1,0,0:0:0:0:
260,132,84225,5,4,0:0:0:0:
260,132,84630,1,2,0:0:0:0:
204,76,84833,1,0,0:0:0:0:
144,20,85036,5,4,1:2:0:0:
184,152,85239,1,4,1:2:0:0:
280,52,85441,1,4,1:2:0:0:
204,76,85644,1,4,1:2:0:0:
336,112,85847,1,4,1:2:0:0:
388,172,86049,5,0,3:0:0:0:
488,72,86252,1,8,0:1:0:0:
240,208,86657,5,4,0:0:0:0:
256,192,86759,12,0,88583,0:0:0:0:
