osu file format v13

[General]
AudioFilename: www.mp3
AudioLeadIn: 1500
PreviewTime: 53414
Countdown: 0
SampleSet: Normal
StackLeniency: 0.4
Mode: 0
LetterboxInBreaks: 0
WidescreenStoryboard: 0

[Editor]
Bookmarks: 32536,32840
DistanceSpacing: 1
BeatDivisor: 4
GridSize: 4
TimelineZoom: 1

[Metadata]
Title:Dou Kangaete mo Watashi wa Warukunai
TitleUnicode:どう考えても私は悪くない
Artist:Kitta Izumi
ArtistUnicode:橘田いずみ
Creator:Macuilxochitl
Version:Easy
Source:Watashi ga Motenai no wa Dou Kangaete mo Omaera ga Warui!
Tags:fanzhen0019 TV size ending kuroki tomoko watamote wantuole jyc-Binggan
BeatmapID:312455
BeatmapSetID:118934

[Difficulty]
HPDrainRate:2
CircleSize:2
OverallDifficulty:2
ApproachRate:3
SliderMultiplier:0.8
SliderTickRate:2

[Events]
//Background and Video events
0,0,"36961875.png",0,0
Video,158,"v.avi"
//Break Periods
2,9831,11636
//Storyboard Layer 0 (Background)
//Storyboard Layer 1 (Fail)
//Storyboard Layer 2 (Pass)
//Storyboard Layer 3 (Foreground)
//Storyboard Sound Samples
//Background Colour Transformations
3,100,163,162,255

[TimingPoints]
712,405.405405405405,4,2,0,60,1,0
25847,-100,4,2,0,40,0,0
25948,-100,4,2,0,60,0,0
32840,-100,4,2,0,60,0,0
54225,-100,4,1,0,60,0,1
66590,-100,4,2,0,80,0,0
67198,-100,4,2,0,80,0,1
72063,-100,4,1,0,60,0,1
73076,-100,4,2,0,80,0,1
78549,-100,4,1,0,60,0,1
78955,-100,4,1,0,60,0,1
79360,-100,4,1,0,60,0,1
80171,-100,4,2,0,80,0,0
85036,-100,4,2,1,80,0,0
86759,-100,4,2,0,5,0,0

[Colours]
Combo1 : 190,125,255
Combo2 : 68,162,255
Combo3 : 255,255,128
Combo4 : 255,125,255

[HitObjects]
376,344,712,6,0,P|364:284|432:224,1,160,4|2,0:0|0:0,0:0:0:0:
292,200,2130,2,0,P|356:144|472:128,1,200,0|2,0:0|0:0,0:0:0:0:
440,224,3549,1,0,0:0:0:0:
360,288,3955,6,0,L|24:308,1,320,0|2,0:0|0:0,0:0:0:0:
8,216,5982,1,0,0:0:0:0:
92,168,6387,1,2,0:0:0:0:
184,196,6793,1,0,1:0:0:0:
268,148,7198,5,4,0:0:0:0:
256,192,7401,12,0,9631,0:0:0:0:
72,272,13076,6,8,L|76:316,1,40
204,312,13684,6,0,P|276:296|360:348,2,160,6|0|2,0:0|0:0|0:0,0:0:0:0:
124,256,15711,2,0,L|112:172,1,80,0|2,0:0|0:0,0:0:0:0:
276,76,16928,6,0,P|348:92|432:40,2,160,2|0|2,0:0|0:0|0:0,0:0:0:0:
212,148,18955,2,0,L|224:232,1,80,0|2,0:0|0:0,0:0:0:0:
348,352,20171,6,0,P|420:336|504:388,2,160,2|0|2,0:0|0:0|0:0,0:0:0:0:
312,264,22198,2,0,L|324:180,2,80,0|2|0,0:0|0:0|0:0,0:0:0:0:
228,312,23414,6,0,P|72:296|64:228,1,240,4|0,0:0|0:0,0:0:0:0:
108,160,25036,1,2,0:0:0:0:
256,36,25847,5,0,1:0:0:0:
404,160,26657,6,0,L|404:244,3,80,4|8|0|8,0:0|0:0|0:0|0:0,0:0:0:0:
428,332,28279,2,0,P|352:360|280:332,1,160
256,144,29901,6,0,L|256:228,3,80,0|8|0|8,0:0|0:0|0:0|0:0,0:0:0:0:
230,333,31522,2,0,P|157:360|84:332,1,160
108,160,33144,6,0,L|108:244,3,80,0|8|0|8,0:0|0:0|0:0|0:0,0:0:0:0:
84,332,34766,2,0,P|157:360|230:333,1,160
256,240,35982,1,8,0:0:0:0:
281,333,36387,2,0,P|354:360|427:332,1,160
448,240,37603,1,8,0:0:0:0:
396,156,38009,6,4,L|312:156,2,80
216,84,39630,6,0,B|180:160|180:160|116:120,1,160,4|0,0:0|0:0,0:0:0:0:
4,212,41049,2,0,B|108:272|108:272|152:280|192:256|192:256|232:268|268:244,1,280,2|0,0:0|0:0,0:0:0:0:
336,184,42874,6,0,B|372:260|372:260|436:220,1,160
468,80,44293,2,0,B|364:140|364:140|320:148|280:124|280:124|240:136|210:115,1,280,2|0,0:0|0:0,0:0:0:0:
140,48,46117,6,0,B|104:124|104:124|40:84,1,160,4|0,0:0|0:0,0:0:0:0:
40,228,47536,2,0,B|28:280|96:300|120:284|120:284|152:308|192:296|192:296|232:316|272:300,1,280,2|0,0:0|0:0,0:0:0:0:
360,344,49360,6,0,B|408:220|328:272|372:144,1,200,0|8,0:0|0:0,0:0:0:0:
432,76,50779,1,4,0:0:0:0:
256,192,50982,12,4,53414,0:0:0:0:
104,312,54225,6,0,P|60:276|52:248,2,80,4|8|0,0:0|0:0|0:0,0:0:0:0:
192,356,55441,1,8,0:0:0:0:
284,324,55847,2,0,L|452:332,1,160
460,140,57468,6,0,L|368:136,1,80,4|0,0:2|0:0,0:0:0:0:
404,44,58279,2,0,L|312:40,1,80,4|0,0:2|0:0,0:0:0:0:
244,96,59090,2,0,L|80:88,1,160,4|0,0:2|0:0,0:0:0:0:
60,280,60711,6,0,P|44:328|56:360,2,80,4|8|0,0:2|0:0|0:0,0:0:0:0:
132,212,61928,1,8,0:0:0:0:
220,248,62333,2,0,B|316:276|280:220|384:248,1,160
440,64,63955,6,0,P|384:104|296:104,2,160
496,140,65982,2,0,L|476:236,1,80
456,312,66793,1,8,1:0:0:0:
360,292,67198,6,0,P|304:304|280:324,2,80,4|8|0,0:2|0:0|0:0,0:0:0:0:
428,224,68414,1,8,0:0:0:0:
504,164,68820,2,0,P|444:128|356:156,1,160
232,296,70441,6,0,P|192:296|152:280,1,80,4|0,0:0|0:0,0:0:0:0:
136,188,71252,2,0,P|176:188|216:172,1,80,4|0,0:0|0:0,0:0:0:0:
232,80,72063,2,0,P|144:80|80:32,1,160,4|0,0:2|0:0,0:0:0:0:
68,232,73684,6,0,L|48:316,2,80,4|8|0,0:0|0:0|0:0,0:0:0:0:
140,168,74901,1,8,0:0:0:0:
204,240,75306,2,0,P|300:240|340:196,1,160
480,64,76928,6,0,L|460:160,1,80,4|0,0:0|0:0,0:0:0:0:
368,132,77739,2,0,L|388:228,1,80,4|0,0:0|0:0,0:0:0:0:
464,260,78549,2,4,L|444:356,2,80
256,192,80171,5,4,0:0:0:0:
256,192,81590,5,4,0:0:0:0:
328,68,83414,6,4,P|257:36|186:68,1,160
184,268,85036,6,4,P|254:299|325:268,1,160
256,192,86252,1,0,1:0:0:0:
160,172,86657,5,4,0:0:0:0:
256,192,86860,12,0,88583,0:0:0:0:
