osu file format v7

[General]
AudioFilename: Kitsune - Rock My Emotions.mp3
AudioLeadIn: 0
PreviewTime: 99454
Countdown: 1
SampleSet: Soft
StackLeniency: 0.7
Mode: 0
LetterboxInBreaks: 1

[Editor]
Bookmarks: 14179,21283,28387,42594,56802,71040,85217,99454,113632,127869,142047,156254,170462
DistanceSpacing: 1
BeatDivisor: 4
GridSize: 8

[Metadata]
Title:Rock My Emotions
Artist:Kitsune^2
Creator:CheZDa
Version:Normal
Source:
Tags:Renard Queenston Xgor

[Difficulty]
HPDrainRate:4
CircleSize:4
OverallDifficulty:4
SliderMultiplier:1.2
SliderTickRate:1

[Events]
//Background and Video events
0,0,"kitsune.jpg"
//Break Periods
2,57011,69924
//Storyboard Layer 0 (Background)
//Storyboard Layer 1 (Fail)
//Storyboard Layer 2 (Pass)
//Storyboard Layer 3 (Foreground)
//Storyboard Sound Samples
//Background Colour Transformations
3,100,255,255,255

[TimingPoints]
14180,444.082599363482,4,2,0,100,1,0
21283,-100,4,2,1,100,0,0

[Colours]
Combo1 : 242,36,201
Combo2 : 125,190,255
Combo3 : 71,255,62
Combo4 : 48,48,48
Combo5 : 230,0,0

[HitObjects]
384,48,14179,5,0
144,48,15068,1,0
144,288,15956,1,0
384,288,16844,1,0
256,48,17732,5,0
64,192,18620,1,0
256,344,19508,1,0
440,192,20397,1,0
208,192,21285,5,0
208,72,21729,1,8
272,72,21951,1,0
336,72,22173,5,0
336,192,22617,1,8
336,256,22839,1,0
336,320,23061,5,0
216,320,23505,1,8
152,320,23727,1,0
152,256,23949,5,0
152,136,24393,1,8
152,72,24615,1,0
88,72,24837,5,0
88,136,25060,1,8
88,200,25282,1,8
88,320,25726,1,8
88,320,25948,1,8
208,320,26392,5,0
272,320,26614,1,0
336,320,26836,1,8
336,320,27058,1,8
400,320,27280,1,0
400,256,27502,1,0
400,136,27946,1,8
280,136,28390,5,2
216,200,28723,1,0
152,136,29056,1,0
152,16,29500,5,0
216,16,29722,1,2
280,16,29944,1,0
344,16,30166,5,2
408,80,30500,1,0
344,144,30833,1,0
344,264,31277,1,0
280,264,31499,1,2
160,264,31943,5,2
96,200,32276,1,0
160,136,32609,1,0
280,136,33053,1,0
400,136,33497,1,0
400,256,33941,5,0
336,256,34163,1,2
272,192,34496,1,0
208,128,34829,1,0
144,128,35051,1,2
24,128,35495,5,2
88,192,35829,1,0
152,256,36162,1,0
272,264,36606,1,0
272,200,36828,1,2
272,136,37050,1,0
272,72,37272,5,2
336,8,37605,1,0
400,72,37938,1,0
400,200,38382,1,0
400,264,38604,1,2
272,264,39048,5,2
208,328,39381,1,0
144,264,39714,1,0
144,144,40158,1,0
144,24,40602,1,0
24,24,41046,5,0
24,88,41269,1,2
88,152,41602,1,0
24,216,41935,1,0
88,216,42157,1,2
152,216,42379,1,0
216,216,42601,6,0,B|216:312,2,90,2|0|0
216,88,43711,2,0,B|216:8,2,60,0|2|0
216,152,44377,2,0,B|336:152,2,90,2|0|0
88,152,45487,2,0,B|0:152,1,60,0|0
152,152,46153,2,0,B|152:272,1,90,2|0
152,336,46820,2,0,B|288:336,1,120,0|0
336,336,47486,5,2
456,336,47930,1,0
456,216,48374,2,0,B|456:104,2,90,2|0|0
392,216,49262,2,0,B|304:216,1,60,2|0
271,216,49706,6,0,B|271:328,2,90
151,216,50816,1,2
87,216,51038,1,0
87,152,51260,1,2
151,152,51482,2,0,B|151:32,2,90
271,152,52593,1,0
335,152,52815,1,2
335,32,53259,6,0,B|455:32,2,90
215,32,54369,1,0
151,32,54591,1,2
87,32,54813,1,0
87,152,55257,5,0
151,152,55479,2,0,B|263:152,2,90,2|0|0
151,216,56367,1,2
151,280,56589,1,0
151,344,56811,1,4
360,56,71244,6,0,B|360:128,2,60,0|2|0
296,56,71910,1,0
232,56,72132,1,0
168,56,72354,1,2
104,56,72576,1,0
104,176,73020,6,0,B|104:240,2,60,0|2|0
168,176,73687,1,0
232,176,73909,1,0
296,176,74131,1,2
360,176,74353,1,0
360,296,74797,6,0,B|360:368,2,60,0|2|0
296,296,75463,1,0
232,296,75685,1,0
168,296,75907,1,2
104,296,76129,1,0
192,208,76573,6,0,B|144:160,2,60,0|2|0
232,168,77239,1,0
272,208,77461,1,0
312,168,77683,1,2
352,128,77905,1,0
264,40,78349,6,0,B|312:88,2,60,0|2|0
224,80,79016,1,0
184,40,79238,1,0
144,80,79460,1,2
104,120,79682,1,0
192,208,80126,6,0,B|248:152,2,60,0|2|0
232,248,80792,1,0
272,288,81014,1,0
312,248,81236,1,2
352,288,81458,1,0
264,200,81902,6,0,B|320:144,2,60,0|2|0
224,160,82568,1,0
184,200,82790,1,0
144,240,83012,1,2
104,280,83234,1,0
184,200,83678,6,0,B|232:248,2,60,0|2|0
144,160,84345,1,0
104,120,84567,1,0
144,80,84789,1,2
184,40,85011,1,0
304,136,85677,5,2
304,256,86121,1,0
200,192,86565,1,2
256,192,87009,12,0,92337
256,132,92782,5,2
194,235,93226,1,0
314,235,93670,1,2
256,192,94114,12,0,98554
200,224,99443,5,2
264,160,99776,1,0
328,224,100109,1,0
328,344,100554,5,0
264,344,100776,1,2
200,344,100998,1,0
136,344,101220,5,2
72,280,101553,1,0
136,216,101886,1,0
136,96,102330,1,0
200,96,102552,1,2
320,96,102996,5,2
384,160,103329,1,0
320,224,103662,1,0
200,224,104106,1,0
80,224,104550,1,0
80,104,104994,5,0
144,104,105216,1,2
208,168,105549,1,0
272,232,105883,1,0
336,232,106105,1,2
456,232,106549,5,2
392,168,106882,1,0
328,104,107215,1,0
207,104,107659,1,0
207,168,107881,1,2
207,232,108103,1,0
207,296,108325,5,2
143,360,108658,1,0
79,296,108991,1,0
80,176,109435,1,0
80,112,109657,1,2
200,112,110101,5,2
264,48,110434,1,0
328,112,110767,1,0
328,232,111212,1,0
328,352,111656,1,0
448,352,112100,5,0
448,288,112322,1,2
384,224,112655,1,0
448,160,112988,1,0
384,160,113210,1,2
320,160,113432,1,0
264,160,113654,6,0,B|264:64,2,90,2|0|0
264,280,114764,2,0,B|264:360,2,60,0|2|0
264,216,115430,2,0,B|144:216,2,90,2|0|0
384,216,116541,2,0,B|472:216,1,60,0|0
320,216,117207,2,0,B|320:96,1,90,2|0
320,32,117873,2,0,B|184:32,1,120,0|0
136,32,118539,5,2
16,32,118983,1,0
16,152,119427,2,0,B|16:264,2,90,2|0|0
80,152,120315,2,0,B|168:152,1,60,2|0
201,152,120759,6,0,B|201:40,2,90
320,152,121870,1,2
384,152,122092,1,0
384,216,122314,1,2
320,216,122536,2,0,B|320:336,2,90
200,216,123646,1,0
136,216,123868,1,2
136,336,124312,6,0,B|16:336,2,90
256,336,125422,1,0
320,336,125644,1,2
384,336,125866,1,0
384,216,126310,5,0
320,216,126532,2,0,B|208:216,2,90,2|0|0
320,152,127421,1,2
320,88,127643,1,0
320,24,127865,1,4
