osu file format v9

[General]
AudioFilename: Kitsune^2 Rainbow Tylenol.mp3
AudioLeadIn: 2000
PreviewTime: 14826
Countdown: 0
SampleSet: Soft
StackLeniency: 0.7
Mode: 0
LetterboxInBreaks: 1

[Editor]
Bookmarks: 604,7715,13048,43270,48603,78826,84159,107270
DistanceSpacing: 0.88
BeatDivisor: 4
GridSize: 8

[Metadata]
Title:Rainbow Tylenol
Artist:Kitsune^2
Creator:Blue Dragon
Version:lol201
Source:
Tags:xgor metalmario201 diamondcrash

[Difficulty]
HPDrainRate:5
CircleSize:4
OverallDifficulty:6
ApproachRate:8
SliderMultiplier:1.92
SliderTickRate:4

[Events]
//Background and Video events
0,0,"Rainbow_Wallpaper_3_White_by_rogueXunited.jpg"
//Break Periods
2,7905,12288
2,43460,47843
2,79016,83399
//Storyboard Layer 0 (Background)
//Storyboard Layer 1 (Fail)
//Storyboard Layer 2 (Pass)
//Storyboard Layer 3 (Foreground)
//Storyboard Sound Samples
//Background Colour Transformations
3,100,163,162,255

[TimingPoints]
594,444.444444444444,4,2,0,60,1,0
982,-66.6666666666667,4,2,0,60,0,0
2260,-100,4,2,0,60,0,0
2760,-66.6666666666667,4,2,0,60,0,0
4038,-100,4,2,0,60,0,0
4538,-66.6666666666667,4,2,0,60,0,0
4927,-100,4,2,0,60,0,0
5427,-66.6666666666667,4,2,0,60,0,0
14593,-100,4,2,0,60,0,0
15205,-66.6666666666667,4,2,0,60,0,0
16482,-100,4,2,0,60,0,0
16982,-66.6666666666667,4,2,0,60,0,0
18260,-100,4,2,0,60,0,0
18760,-66.6666666666667,4,2,0,60,0,0
19149,-100,4,2,0,60,0,0
19649,-66.6666666666667,4,2,0,60,0,0
21427,-133.333333333333,4,2,0,60,0,0
21816,-100,4,2,0,60,0,0
22316,-66.6666666666667,4,2,0,60,0,0
23593,-100,4,2,0,60,0,0
24093,-66.6666666666667,4,2,0,60,0,0
25371,-100,4,2,0,60,0,0
25871,-66.6666666666667,4,2,0,60,0,0
26260,-100,4,2,0,60,0,0
26760,-66.6666666666667,4,2,0,60,0,0
28538,-133.333333333333,4,2,0,60,0,0
28927,-66.6666666666667,4,2,0,60,0,0
30816,-100,4,2,0,60,0,0
86316,-66.6666666666667,4,2,0,60,0,0
87593,-100,4,2,0,60,0,0
88093,-66.6666666666667,4,2,0,60,0,0
89371,-100,4,2,0,60,0,0
89871,-66.6666666666667,4,2,0,60,0,0
90260,-100,4,2,0,60,0,0
90760,-66.6666666666667,4,2,0,60,0,0
92538,-133.333333333333,4,2,0,60,0,0
92927,-100,4,2,0,60,0,0

[Colours]
Combo1 : 240,238,142
Combo2 : 107,101,235
Combo3 : 235,92,92
Combo4 : 140,248,135
Combo5 : 236,165,241

[HitObjects]
0,72,594,6,0,B|0:224,1,144,2|0
72,216,1038,2,2,B|72:64,1,143.999995708466,2|8
184,296,1482,1,2
216,312,1593,1,0
256,320,1705,1,0
296,312,1816,1,0
328,296,1927,1,8
256,80,2149,1,0
512,72,2371,6,0,B|512:224,1,144,2|0
440,216,2816,2,2,B|440:64,1,143.999995708466,2|8
328,296,3260,1,2
296,312,3371,1,0
256,320,3482,1,0
216,312,3594,1,0
184,296,3705,1,8
256,80,3927,1,0
168,224,4149,6,0,B|190:176|136:122|88:144,1,144,2|0
36,196,4594,2,2,B|14:244|68:298|116:276,1,144,2|8
344,224,5038,2,0,B|322:176|376:122|424:144,1,144,2|0
476,196,5482,2,2,B|498:244|444:298|396:276,1,144,2|8
312,72,5927,5,4
272,56,6038,1,4
240,56,6149,1,0
200,72,6260,1,4
256,192,6482,1,2
256,192,6594,1,6
312,312,6816,1,4
272,328,6927,1,4
240,328,7038,1,0
200,312,7149,1,4
256,192,7371,1,2
256,192,7482,1,6
256,48,7705,1,4
256,192,13038,5,4
256,192,14371,1,4
120,32,14816,6,0,B|0:112,1,143.999995708466,6|0
48,168,15260,2,2,B|168:88,1,143.999995708466,2|8
192,288,15705,1,2
224,320,15816,1,0
256,304,15927,1,0
288,320,16038,1,0
320,288,16149,1,8
256,120,16371,1,0
392,32,16594,6,0,B|512:112,1,143.999995708466,2|0
464,168,17038,2,2,B|344:88,1,143.999995708466,2|8
320,288,17482,1,2
288,320,17594,1,0
256,304,17705,1,0
224,320,17816,1,0
192,288,17927,1,8
256,120,18149,1,0
368,272,18371,6,0,B|520:272,1,143.999995708466,2|0
512,344,18816,2,2,B|360:344,1,143.999995708466,2|8
144,344,19260,2,0,B|-8:344,1,143.999995708466,2|0
0,272,19705,2,2,B|152:272,1,143.999995708466,2|8
360,192,20149,5,2
384,152,20260,1,0
344,120,20371,1,0
336,80,20482,1,0
292,72,20593,1,2
256,48,20705,1,0
220,72,20816,1,0
176,80,20927,1,0
168,120,21038,1,2
128,152,21149,1,0
152,192,21260,1,2
192,184,21371,1,0
220,216,21482,2,2,B|300:216,1,71.9999978542328,2|0
344,88,21927,22,0,B|464:168,1,143.999995708466,6|0
512,112,22371,2,2,B|392:32,1,143.999995708466,2|8
320,184,22816,1,2
288,216,22927,1,0
256,200,23038,1,0
224,216,23149,1,0
192,184,23260,1,8
256,24,23482,1,0
168,88,23705,6,0,B|48:168,1,143.999995708466,2|0
0,112,24149,2,2,B|120:32,1,143.999995708466,2|8
192,184,24593,1,2
224,216,24705,1,0
256,200,24816,1,0
288,216,24927,1,0
320,184,25038,1,8
256,24,25260,1,0
144,272,25482,6,0,B|-8:272,1,143.999995708466,2|0
0,344,25927,2,2,B|152:344,1,143.999995708466,2|8
368,344,26371,2,0,B|520:344,1,143.999995708466,2|0
512,272,26816,2,2,B|360:272,1,143.999995708466,2|8
152,192,27260,5,2
128,152,27371,1,0
168,120,27482,1,0
176,80,27593,1,0
220,72,27705,1,2
256,48,27816,1,0
292,72,27927,1,0
336,80,28038,1,0
344,120,28149,1,2
384,152,28260,1,0
360,192,28371,1,2
320,184,28482,1,0
292,216,28593,2,2,B|212:216,1,71.9999978542328,2|0
24,264,29038,21,4
32,228,29149,1,0
0,200,29260,1,0
16,160,29371,1,0
0,120,29482,1,2
32,92,29593,1,0
40,48,29705,1,0
84,40,29816,1,0
112,8,29927,1,2
152,24,30038,1,0
192,8,30149,1,2
220,40,30260,1,0
256,32,30371,1,2
136,304,30816,5,2
168,324,30927,1,0
200,336,31038,1,0
240,344,31149,1,0
272,344,31260,1,2
312,336,31371,1,0
344,324,31482,1,0
376,304,31593,1,2
360,192,31816,1,0
328,208,31927,1,2
292,216,32038,1,0
256,220,32149,1,2
220,216,32260,1,0
184,208,32371,1,0
152,192,32482,1,2
256,16,32816,5,0
312,96,33038,1,2
272,112,33149,1,0
240,112,33260,1,0
200,96,33371,1,2
136,256,33593,1,0
176,280,33705,1,2
216,296,33816,1,0
256,304,33927,2,0,B|256:200,1,96,2|0
304,56,34371,5,4
336,72,34482,1,2
368,88,34593,1,0
400,104,34705,1,2
256,192,34927,1,0
256,192,35038,1,2
208,328,35260,1,4
176,312,35371,1,2
144,296,35482,1,0
112,280,35593,1,2
256,192,35816,1,0
256,192,35927,1,2
488,264,36149,21,4
480,228,36260,1,0
512,200,36371,1,0
496,160,36482,1,0
512,120,36593,1,2
480,92,36705,1,0
472,48,36816,1,0
428,40,36927,1,0
400,8,37038,1,2
360,24,37149,1,0
320,8,37260,1,2
292,40,37371,1,0
256,32,37482,1,2
376,304,37927,5,2
344,324,38038,1,0
312,336,38149,1,0
272,344,38260,1,0
240,344,38371,1,2
200,336,38482,1,0
168,324,38593,1,0
136,304,38705,1,2
152,192,38927,1,0
184,208,39038,1,2
220,216,39149,1,0
256,220,39260,1,2
292,216,39371,1,0
328,208,39482,1,0
360,192,39593,1,2
256,16,39927,5,0
200,96,40149,1,2
240,112,40260,1,0
272,112,40371,1,0
312,96,40482,1,2
376,256,40705,1,0
336,280,40816,1,2
296,296,40927,1,0
256,304,41038,2,0,B|256:200,1,96,2|0
208,56,41482,5,4
176,72,41593,1,4
144,88,41705,1,0
112,104,41816,1,4
256,192,42038,1,2
256,192,42149,1,6
304,328,42371,1,4
336,312,42482,1,4
368,296,42593,1,0
400,280,42705,1,4
256,192,42927,1,2
256,192,43038,1,6
256,48,43260,1,4
256,192,48593,5,4
256,192,49927,1,4
92,160,50593,5,2
48,80,50816,1,2
136,80,51038,1,0
202,144,51260,1,2
238,160,51371,1,0
274,144,51482,1,0
310,160,51593,1,2
256,232,51816,1,0
256,232,51927,1,2
296,360,52260,5,0
320,328,52371,1,2
344,296,52482,1,0
368,264,52593,1,2
392,232,52705,1,0
416,200,52816,1,0
440,168,52927,1,2
216,24,53149,1,0
192,56,53260,1,2
168,88,53371,1,0
144,120,53482,1,2
120,152,53593,1,0
96,184,53705,1,0
72,216,53816,1,2
420,160,54149,5,2
464,80,54371,1,2
376,80,54593,1,0
312,144,54816,1,2
296,104,54927,1,0
256,88,55038,1,2
216,104,55149,1,0
200,144,55260,1,2
216,184,55371,1,0
256,200,55482,1,0
296,184,55593,1,2
208,376,55816,5,2
240,360,55927,1,0
272,344,56038,1,0
304,328,56149,1,2
272,312,56260,1,0
240,296,56371,1,0
208,280,56482,1,2
240,264,56593,1,0
272,248,56705,1,0
304,232,56816,1,2
272,216,56927,1,0
240,200,57038,1,2
240,112,57260,1,2
120,64,57482,22,2,B|128:72|128:72|145:91|145:113|128:132|128:132|111:151|111:173|128:192|128:192|145:211|145:233|128:252|128:252|111:271|111:293|128:312|128:312|136:320,1,288,4|0
392,320,58371,2,2,B|384:312|384:312|367:293|367:271|384:252|384:252|401:233|401:211|384:192|384:192|367:173|367:151|384:132|384:132|401:113|401:91|384:72|384:72|376:64,1,288,4|0
256,320,59371,5,0
256,284,59482,1,0
256,248,59593,1,2
256,64,59816,1,0
256,100,59927,1,2
256,136,60038,1,0
232,160,60149,2,0,B|216:190|168:190|152:160,2,96,2|0|2
359,160,60816,1,0
359,160,60927,1,2
288,344,61260,5,0
248,336,61371,1,0
216,320,61482,1,2
184,288,61593,1,0
168,256,61705,1,2
160,216,61816,1,0
208,216,61927,2,0,B|312:216,3,96
382,128,62816,6,2,B|395:104|367:56|340:56|340:56|312:56|298:32|298:32|284:8|228:8|214:32|214:32|200:56|172:56|172:56|145:56|117:104|130:128,2,384,4|4|4
328,288,65038,22,0,B|304:359|208:359|184:288,2,192,0|2|2
376,80,66371,5,2
344,60,66482,1,0
312,48,66593,1,0
272,40,66705,1,0
240,40,66816,1,2
200,48,66927,1,0
168,60,67038,1,0
136,80,67149,1,2
256,136,67371,1,0
256,168,67482,2,0,B|256:272,2,96,0|2|0
328,288,68149,6,0,B|304:359|208:359|184:288,3,192,4|0|2|2
160,112,69927,5,2
176,144,70038,1,0
192,176,70149,1,0
208,208,70260,1,2
224,176,70371,1,0
240,144,70482,1,0
256,112,70593,1,2
272,144,70705,1,0
288,176,70816,1,0
304,208,70927,1,2
320,176,71038,1,0
336,144,71149,1,0
352,112,71260,1,2
504,192,71705,21,4
496,224,71816,1,0
480,256,71927,1,0
456,288,72038,1,2
424,312,72149,1,0
392,328,72260,1,0
360,336,72371,1,2
328,328,72482,1,0
296,312,72593,1,0
264,288,72705,1,2
240,256,72816,1,0
224,224,72927,1,0
216,192,73038,1,2
8,192,73482,5,4
16,224,73593,1,0
32,256,73705,1,0
56,288,73816,1,2
88,312,73927,1,0
120,328,74038,1,0
152,336,74149,1,2
184,328,74260,1,0
216,312,74371,1,0
248,288,74482,1,2
272,256,74593,1,0
288,224,74705,1,0
296,192,74816,1,2
208,64,75260,6,0,B|160:18|144:48|128:78|80:32,2,144,4|2|0
304,64,76149,2,0,B|352:18|368:48|384:78|432:32,2,144,2|2|0
136,136,77038,5,4
120,176,77149,1,4
120,208,77260,1,0
136,248,77371,1,4
256,192,77593,1,2
256,192,77705,1,6
376,136,77927,1,4
392,176,78038,1,4
392,208,78149,1,0
376,248,78260,1,4
256,192,78482,1,2
256,192,78593,1,6
256,48,78816,1,4
304,56,84149,69,4
336,72,84260,1,4
368,88,84371,1,0
400,104,84482,1,4
256,192,84705,1,2
256,192,84816,1,6
208,328,85038,1,4
176,312,85149,1,4
144,296,85260,1,0
112,280,85371,1,4
256,192,85593,1,2
256,192,85705,1,6
168,88,85927,22,0,B|48:168,1,143.999995708466,6|0
0,112,86371,2,2,B|120:32,1,143.999995708466,2|8
192,184,86816,1,2
224,216,86927,1,0
256,200,87038,1,0
288,216,87149,1,0
320,184,87260,1,8
256,24,87482,1,0
344,88,87705,6,0,B|464:168,1,143.999995708466,2|0
512,112,88149,2,2,B|392:32,1,143.999995708466,2|8
320,184,88593,1,2
288,216,88705,1,0
256,200,88816,1,0
224,216,88927,1,0
192,184,89038,1,8
256,24,89260,1,0
368,272,89482,6,0,B|520:272,1,143.999995708466,2|0
512,344,89927,2,2,B|360:344,1,143.999995708466,2|8
144,344,90371,2,0,B|-8:344,1,143.999995708466,2|0
0,272,90816,2,2,B|152:272,1,143.999995708466,2|8
360,192,91260,5,2
384,152,91371,1,0
344,120,91482,1,0
336,80,91593,1,0
292,72,91705,1,2
256,48,91816,1,0
220,72,91927,1,0
176,80,92038,1,0
168,120,92149,1,2
128,152,92260,1,0
152,192,92371,1,2
192,184,92482,1,0
220,216,92593,2,2,B|300:216,1,71.9999978542328,2|0
488,264,93038,21,4
480,228,93149,1,0
512,200,93260,1,0
496,160,93371,1,0
512,120,93482,1,2
480,92,93593,1,0
472,48,93705,1,0
428,40,93816,1,0
400,8,93927,1,2
360,24,94038,1,0
320,8,94149,1,2
292,40,94260,1,0
256,32,94371,1,2
376,304,94816,5,2
344,324,94927,1,0
312,336,95038,1,0
272,344,95149,1,0
240,344,95260,1,2
200,336,95371,1,0
168,324,95482,1,0
136,304,95593,1,2
152,192,95816,1,0
184,208,95927,1,2
220,216,96038,1,0
256,220,96149,1,2
292,216,96260,1,0
328,208,96371,1,0
360,192,96482,1,2
256,16,96816,5,0
200,96,97038,1,2
240,112,97149,1,0
272,112,97260,1,0
312,96,97371,1,2
376,256,97593,1,0
336,280,97705,1,2
296,296,97816,1,0
256,304,97927,2,0,B|256:200,1,96,2|0
208,56,98371,5,4
176,72,98482,1,2
144,88,98593,1,0
112,104,98705,1,2
256,192,98927,1,0
256,192,99038,1,2
304,328,99260,1,4
336,312,99371,1,2
368,296,99482,1,0
400,280,99593,1,2
256,192,99816,1,0
256,192,99927,1,2
24,264,100149,21,4
32,228,100260,1,0
0,200,100371,1,0
16,160,100482,1,0
0,120,100593,1,2
32,92,100705,1,0
40,48,100816,1,0
84,40,100927,1,0
112,8,101038,1,2
152,24,101149,1,0
192,8,101260,1,2
220,40,101371,1,0
256,32,101482,1,2
136,304,101927,5,2
168,324,102038,1,0
200,336,102149,1,0
240,344,102260,1,0
272,344,102371,1,2
312,336,102482,1,0
344,324,102593,1,0
376,304,102705,1,2
360,192,102927,1,0
328,208,103038,1,2
292,216,103149,1,0
256,220,103260,1,2
220,216,103371,1,0
184,208,103482,1,0
152,192,103593,1,2
256,16,103927,5,0
312,96,104149,1,2
272,112,104260,1,0
240,112,104371,1,0
200,96,104482,1,2
136,256,104705,1,0
176,280,104816,1,2
216,296,104927,1,0
256,304,105038,2,0,B|256:200,1,96,2|0
256,192,105482,12,4,107260
