osu file format v9

[General]
AudioFilename: Kitsune^2 Rainbow Tylenol.mp3
AudioLeadIn: 2000
PreviewTime: 14826
Countdown: 0
SampleSet: Soft
StackLeniency: 0.7
Mode: 0
LetterboxInBreaks: 1

[Editor]
Bookmarks: 43270,48603,64603,78826,85937,96715,107270
DistanceSpacing: 0.8
BeatDivisor: 4
GridSize: 8

[Metadata]
Title:Rainbow Tylenol
Artist:Kitsune^2
Creator:Blue Dragon
Version:Xgor's Simple
Source:
Tags:xgor metalmario201 diamondcrash

[Difficulty]
HPDrainRate:1
CircleSize:3
OverallDifficulty:1
ApproachRate:3
SliderMultiplier:1.3
SliderTickRate:2

[Events]
//Background and Video events
0,0,"Rainbow_Wallpaper_3_White_by_rogueXunited.jpg"
//Break Periods
2,43460,47153
//Storyboard Layer 0 (Background)
//Storyboard Layer 1 (Fail)
//Storyboard Layer 2 (Pass)
//Storyboard Layer 3 (Foreground)
//Storyboard Sound Samples
//Background Colour Transformations
3,100,163,162,255

[TimingPoints]
594,444.444444444444,4,2,0,100,1,0

[Colours]
Combo1 : 236,165,241
Combo2 : 140,248,135
Combo3 : 107,101,235
Combo4 : 235,92,92
Combo5 : 240,238,142

[HitObjects]
136,88,594,6,0,B|248:-8|256:112|264:-8|376:88,1,260,2|0
376,296,2371,2,0,B|264:392|256:272|248:392|136:296,1,260,2|0
88,96,4149,6,0,B|144:56|224:72,1,130,2|0
300,69,5038,2,0,B|368:56|424:96,1,130,2|0
424,200,5927,2,0,B|304:200|304:200|304:264|208:264|208:200|208:200|88:200,1,390,6|4
48,104,7705,5,4
256,136,8594,1,8
456,184,9482,1,0
256,240,10371,1,8
48,280,11260,5,0
120,88,12149,1,8
256,240,13038,1,4
256,240,14371,1,4
360,240,14816,5,4
256,64,15705,1,8
72,152,16594,1,2
176,328,17482,1,8
384,304,18371,6,0,B|432:248|392:184,1,130,2|8
304,240,19260,2,0,B|256:184|296:120,1,130,0|8
240,32,20149,2,2,B|100:57|64:179|90:286|183:331,1,390
256,272,21927,5,4
48,240,22816,1,8
136,56,23705,1,2
320,152,24594,1,8
440,320,25482,6,0,B|360:328|328:272,1,130,2|8
424,224,26371,2,0,B|464:160|432:96,1,130,0|8
344,152,27260,2,0,B|256:200|256:112|152:160,2,195,2|8|2
416,80,29038,6,0,B|368:24|296:40,1,130,4|8
192,40,29927,2,0,B|123:24|75:80,1,130,2|8
72,184,30816,6,0,B|72:288|216:184|216:280,2,195,2|8|2
112,88,32594,5,4
200,32,33038,1,8
256,120,33482,1,0
320,32,33927,1,8
400,96,34371,5,4
256,240,35260,1,6
112,96,36149,6,0,B|112:24|208:96|208:24,1,130,2|8
304,35,37038,2,0,B|304:96|400:24|400:96,1,130,2|8
352,176,37927,6,0,B|256:232|168:176,2,195,2|8|2
432,248,39705,5,4
360,328,40149,1,8
256,352,40593,1,0
152,328,41038,1,8
80,248,41482,5,4
256,136,42371,1,6
432,248,43260,1,4
256,168,48593,5,4
256,168,49927,1,4
176,232,50371,6,0,B|256:328|424:224|312:80,1,260,4|2
304,56,51705,1,8
96,64,52593,5,8
64,168,53038,2,2,B|32:248|112:344|224:320,1,260
256,224,54371,5,8
297,321,54816,2,2,B|400:344|480:248|448:168,1,260
352,136,56149,5,8
256,88,56593,1,2
160,136,57038,1,8
164,239,57482,6,0,L|172:247|180:239|188:247|196:239|204:247|212:239|220:247|228:239|236:247|244:239|252:247|260:239|268:247|276:239|284:247|292:239|300:247|308:239|316:247|324:239|332:247|340:239|348:247,2,260,4|4|2
96,160,59705,1,8
164,82,60149,2,0,L|172:90|180:82|188:90|196:82|204:90|212:82|220:90|228:82|236:90|244:82|252:90|260:82|268:90|276:82|284:90|292:82|300:90|308:82|316:90|324:82|332:90|340:82|348:90,1,260,2|8
256,192,61482,12,4,64593
48,192,65482,5,8
224,304,66371,2,2,B|344:192|224:80,1,260,2|8
136,136,67705,1,0
88,232,68149,5,4
256,360,69038,1,8
424,232,69927,2,2,B|344:120|168:120|88:232,1,390,2|8
160,304,71705,6,0,B|256:256|352:304,2,195,2|8|2
160,200,73482,2,0,B|256:152|352:200,2,195,2|8|2
256,192,75260,12,4,78816
256,48,80593,5,4
152,336,82371,5,4
360,336,83260,1,4
432,136,84149,6,2,B|312:280|208:48|80:216,1,390,6|2
152,288,85927,5,4
356,251,86816,1,8
320,47,87705,1,2
114,75,88593,1,8
440,80,89482,6,0,B|304:80,1,130,2|8
208,80,90371,2,0,B|64:80,1,130,0|8
80,184,91260,2,2,B|80:312|416:184|416:312,1,390,2|8
320,344,93038,5,4
120,288,93927,1,8
192,96,94816,1,2
392,152,95705,1,8
440,352,96593,6,0,B|376:344|376:368|304:352,1,130,4|8
200,344,97482,2,0,B|136:336|136:360|64:344,1,130,0|8
128,256,98371,2,0,B|256:208|256:296|384:240,1,260,4|4
440,32,100149,6,0,B|376:40|376:16|304:32,1,130,4|8
200,40,101038,2,0,B|136:48|136:24|64:40,1,130,0|8
96,136,101927,6,0,B|112:216|184:232|248:184,2,195,2|8|2
256,192,103705,12,4,107260
