osu file format v9

[General]
AudioFilename: Kitsune^2 Rainbow Tylenol.mp3
AudioLeadIn: 2000
PreviewTime: 14826
Countdown: 0
SampleSet: Soft
StackLeniency: 0.7
Mode: 0
LetterboxInBreaks: 1

[Editor]
Bookmarks: 64603,78826,96715,107270
DistanceSpacing: 1.6
BeatDivisor: 4
GridSize: 8

[Metadata]
Title:Rainbow Tylenol
Artist:Kitsune^2
Creator:Blue Dragon
Version:Hell
Source:
Tags:xgor metalmario201 diamondcrash

[Difficulty]
HPDrainRate:5
CircleSize:4
OverallDifficulty:8
ApproachRate:9
SliderMultiplier:3.4
SliderTickRate:4

[Events]
//Background and Video events
0,0,"Rainbow_Wallpaper_3_White_by_rogueXunited.jpg"
//Break Periods
2,13237,13771
2,43460,47993
//Storyboard Layer 0 (Background)
//Storyboard Layer 1 (Fail)
//Storyboard Layer 2 (Pass)
//Storyboard Layer 3 (Foreground)
//Storyboard Sound Samples
//Background Colour Transformations
3,100,163,162,255

[TimingPoints]
594,444.444444444444,4,2,0,60,1,0

[Colours]
Combo1 : 236,165,241
Combo2 : 140,248,135
Combo3 : 107,101,235
Combo4 : 235,92,92
Combo5 : 240,238,142

[HitObjects]
0,24,594,6,0,B|256:24,1,255,2|0
255,100,1038,2,0,B|63:100,1,175,2|0
32,240,1482,5,2
58,311,1593,1,0
122,352,1705,1,2
197,363,1816,1,0
266,332,1927,2,0,B|296:240|400:216,1,170,0|2
430,72,2371,6,4,B|288:28|307:124|176:80,1,255,4|0
167,153,2816,2,4,B|244:177|316:160|344:128,1,170,2|4
167,153,3260,6,0,B|82:108,1,85,2|0
36,166,3482,2,0,B|121:212,1,85,2|0
60,262,3705,2,0,B|223:352,1,170,0|2
365,351,4149,6,0,B|344:272|414:174|521:183,1,255,2|0
441,198,4593,2,0,B|462:119|400:65|334:88,1,170,2|0
361,167,4927,1,0
361,167,5038,6,0,B|215:191|114:104,1,255,2|0
174,55,5482,2,0,B|130:10|62:30|34:82|49:116,1,170,2|2
29,254,5927,6,4,B|100:183,1,85,4|0
146,243,6149,1,0
88,293,6260,2,4,B|146:351|222:300|217:251,1,170,4|0
294,253,6593,2,4,B|289:302|365:353|422:296,1,170,4|4
366,246,6927,1,0
428,203,7038,1,0
360,168,7149,2,4,B|475:27,1,170,4|0
467,36,7482,1,4
72,32,7705,6,0,B|248:32,1,170
317,32,8038,2,0,B|304:104|248:104|248:104|184:104,1,170,2|0
152,176,8371,2,0,B|91:176|91:176|35:176|22:248,1,170,2|0
256,360,8816,5,0
192,312,8927,1,0
216,240,9038,1,2
296,240,9149,1,0
320,312,9260,1,2
72,32,9482,6,0,B|248:32,1,170
317,32,9816,2,0,B|304:104|248:104|248:104|184:104,1,170,2|0
152,176,10149,2,0,B|91:176|91:176|35:176|22:248,1,170,2|0
64,312,10482,1,0
136,336,10593,1,2
208,352,10705,1,0
136,256,10816,1,0
208,280,10927,1,2
280,304,11038,1,0
400,232,11260,6,0,B|463:184|470:83,1,170,0|0
417,30,11593,2,0,B|233:30,1,170,2|0
193,83,11927,2,0,B|200:184|264:232,1,170,0|0
208,280,12260,1,0
136,256,12371,1,0
152,328,12482,1,0
80,312,12593,2,0,B|24:240|40:120,2,170,2|0|4
256,192,14371,5,4
392,72,14816,6,0,B|288:24|128:24,1,255,2|0
72,48,15260,2,2,B|24:120|112:144|56:232,1,170
176,312,15705,5,2
336,312,15816,1,0
184,312,15927,1,2
328,312,16038,1,0
256,288,16149,2,0,B|256:104,1,170,0|2
408,104,16593,6,0,B|408:368,1,255,2|0
483,359,17038,2,0,B|483:183,1,170,2|2
192,48,17482,5,2
152,112,17593,1,0
360,112,17705,1,2
320,48,17816,1,0
256,88,17927,2,0,B|256:280,1,170,0|2
120,192,18371,6,0,B|32:256|32:328|32:328|120:368,1,255,2|0
176,319,18816,2,2,B|256:369|336:319,1,170
392,192,19260,6,0,B|480:256|480:328|480:328|392:368,1,255,2|0
336,319,19705,2,2,B|256:369|176:319,1,170
256,48,20149,5,2
392,48,20260,1,0
392,184,20371,1,2
256,184,20482,1,0
120,184,20593,5,2
120,321,20705,1,0
255,321,20816,1,2
255,185,20927,1,0
255,49,21038,5,2
119,49,21149,1,0
119,184,21260,1,2
254,184,21371,1,0
389,184,21482,5,2
116,184,21705,1,0
256,192,21927,6,2,B|240:48|96:0,1,255,6|0
256,192,22371,2,0,B|272:288|352:336,1,170,2|0
328,136,22816,5,2
328,248,22927,1,0
184,248,23038,1,2
184,136,23149,1,0
256,107,23260,2,0,B|256:291,1,170,0|2
392,40,23705,6,0,B|472:112|472:288,1,255,2|0
416,328,24149,2,2,B|360:360|360:360|320:344|257:364,1,170
80,248,24593,5,2
80,136,24705,1,0
432,136,24816,5,2
432,248,24927,1,0
256,107,25038,6,0,B|256:283,1,170,0|2
168,152,25482,6,2,B|144:48|240:0,1,170,2|0
296,32,25816,1,0
360,72,25927,2,2,B|384:176|288:224,1,170,2|0
168,232,26371,6,2,B|144:336|240:384,1,170,2|0
296,352,26705,1,0
360,312,26816,2,2,B|384:208|288:160,1,170,2|0
128,160,27260,5,2
72,104,27371,1,0
169,92,27482,5,2
155,14,27593,1,0
242,60,27705,5,2
275,0,27816,1,0
320,76,27927,5,2
388,37,28038,1,0
374,134,28149,5,2
453,141,28260,1,0
386,212,28371,5,2
446,263,28482,1,0
350,283,28593,6,0,B|304:304|254:278|239:229|256:192,1,170,2|0
160,312,29038,5,2
144,240,29149,1,0
80,272,29260,2,2,B|32:296|32:344,2,85,2|0|2
64,200,29593,1,0
128,168,29705,2,2,B|176:144|176:96,2,85,2|0|2
72,120,30038,1,0
112,56,30149,2,2,B|88:8|40:8,2,85,2|0|2
408,64,30816,6,2,B|440:96|496:80,2,85,2|0|2
344,104,31149,1,0
320,176,31260,2,2,B|272:208|280:272,2,85,2|0|2
392,160,31593,2,0,B|472:216|472:328,1,170,2|0
416,352,31927,1,0
376,288,32038,1,0
320,336,32149,1,2
248,312,32260,1,0
192,360,32371,1,0
192,360,32482,2,2,B|48:304|48:144,1,255
128,40,33038,5,2
152,112,33149,1,0
216,72,33260,1,2
216,72,33371,2,2,B|304:48|392:72,1,170
368,144,33705,1,0
440,120,33816,1,0
424,192,33927,2,2,B|464:280|448:368,1,170
304,312,34371,5,2
208,312,34482,1,0
208,72,34593,1,2
304,72,34705,1,0
256,192,34927,1,0
256,192,35038,1,2
304,72,35260,5,2
208,72,35371,1,0
208,312,35482,1,2
304,312,35593,1,0
256,192,35816,1,0
256,192,35927,1,2
112,144,36149,6,2,B|88:56,1,85,2|0
304,48,36371,2,2,B|392:24,1,85,2|0
399,239,36593,2,10,B|422:322,1,85,8|2
207,336,36816,2,10,B|125:358,1,85,2|0
248,112,37038,5,2
336,184,37149,1,0
264,272,37260,1,2
176,200,37371,1,0
248,112,37482,1,8
464,48,37927,5,2
488,120,38038,1,0
472,192,38149,1,0
496,264,38260,1,0
488,336,38371,2,0,B|400:344,1,85,2|0
352,288,38593,1,2
376,216,38705,1,2
176,8,38927,5,0
248,24,39038,1,0
304,72,39149,1,0
232,104,39260,1,2
176,152,39371,1,0
136,216,39482,1,0
88,160,39593,2,2,B|0:224|-8:312|48:392,1,255
192,376,40149,5,0
264,360,40260,1,0
208,304,40371,1,0
280,280,40482,1,2
336,232,40593,1,0
376,168,40705,1,0
432,216,40816,2,0,B|472:184|472:120,2,85,0|0|2
470,142,41260,1,2
352,56,41482,5,2
160,48,41593,1,0
160,56,41705,1,0
352,64,41816,1,2
256,192,42038,1,0
256,192,42149,1,2
160,328,42371,5,2
352,336,42482,1,0
352,328,42593,1,0
160,320,42705,1,2
256,192,42927,1,0
256,192,43038,1,2
256,192,43260,5,4
256,192,48593,5,4
256,192,49927,1,4
392,96,50371,6,0,B|432:120,3,42.5
456,144,50593,2,2,B|480:240|440:320,1,170,2|0
376,272,50927,1,0
352,344,51038,2,2,B|265:392|177:374,1,170,2|2
200,304,51371,1,0
128,328,51482,1,0
144,256,51593,2,2,B|120:152|152:64,1,170,2|0
72,88,51927,1,2
216,64,52149,6,0,B|184:16,3,42.5,0|0|0|0
216,64,52371,2,0,B|232:104|272:128,2,85,2|0|2
288,32,52705,1,0
344,80,52816,2,0,B|368:128|352:192,1,85,2|0
288,192,53038,1,0
336,248,53149,1,0
408,224,53260,1,0
472,264,53371,1,0
464,336,53482,2,2,B|368:368,1,85
320,320,53705,1,0
264,368,53816,1,2
128,192,54149,6,2,B|120:104|48:40,2,170
184,48,54816,1,2
232,104,54927,1,0
304,120,55038,1,0
368,80,55149,1,2
424,32,55260,1,2
480,80,55371,1,0
448,144,55482,2,0,B|480:224,1,85
488,344,55816,5,0
416,320,55927,1,0
344,296,56038,1,2
24,296,56149,5,0
96,272,56260,1,0
168,248,56371,1,2
488,248,56482,5,0
416,224,56594,1,0
344,200,56705,1,2
168,152,56816,5,0
96,176,56927,1,0
24,200,57038,2,2,B|-8:104|88:24,1,170
320,16,57482,6,0,B|376:40,2,42.5
360,120,57705,6,0,B|416:144,2,42.5
392,224,57927,6,0,B|448:248,2,42.5
432,328,58149,6,0,B|488:352,2,42.5
192,368,58371,6,0,B|136:344,2,42.5
152,264,58593,6,0,B|96:240,2,42.5
120,160,58816,6,0,B|64:136,2,42.5
80,56,59038,6,0,B|24:32,2,42.5
24,248,59371,5,0
8,176,59482,1,0
32,104,59593,2,2,B|112:32|208:32,1,170
183,108,59927,2,2,B|216:144|288:144,1,85
312,88,60149,1,2
320,80,60223,1,0
328,72,60297,1,0
336,64,60371,1,0
408,32,60482,5,0
472,80,60593,1,0
408,120,60705,1,0
456,176,60816,1,0
408,232,60927,1,2
184,264,61260,6,2,B|96:272,1,85
184,192,61482,2,2,B|96:200,1,85,2|2
184,120,61705,1,0
184,120,61816,1,0
328,264,61927,6,2,B|416:272,1,85
328,192,62149,2,2,B|416:200,1,85,2|2
328,120,62371,1,2
328,120,62483,1,2
376,64,62593,1,0
336,48,62649,1,0
304,32,62705,1,2
232,16,62816,6,0,B|184:16,1,42.5
184,16,62927,2,0,B|128:16,1,42.5,2|0
136,16,63038,2,0,B|80:16,1,42.5,0|2
80,16,63149,2,0,B|48:48,1,42.5,0|0
48,56,63260,2,2,B|48:112,1,42.5,6|2
48,104,63371,2,0,B|48:160,1,42.5,0|2
56,156,63482,2,0,B|104:156,1,42.5
104,156,63593,2,0,B|160:156,1,42.5,2|0
152,156,63705,2,0,B|208:156,1,42.5,4|2
208,156,63816,2,0,B|240:124,1,42.5,0|0
240,116,63927,2,2,B|240:60,1,42.5,2|2
240,68,64038,2,0,B|240:12,1,42.5,0|2
280,24,64149,6,0,B|336:8,2,42.5,4|0|2
306,50,64316,2,0,B|362:34,2,42.5,0|0|2
332,76,64482,2,0,B|388:60,2,42.5,0|0|4
352,224,64816,5,0
392,160,64927,1,0
440,216,65038,2,2,B|456:320|368:352,1,170
304,312,65371,1,0
240,352,65482,2,2,B|151:319|167:215,1,170
104,176,65816,1,0
152,120,65927,2,2,B|328:120,2,170,2|0|2
99,67,66482,5,0
46,14,66593,1,0
237,119,66705,5,2
184,66,66816,1,0
131,13,66927,1,0
322,120,67038,5,2
320,120,67149,1,2
464,152,67371,6,0,B|488:120|496:64,2,85
392,176,67705,2,2,B|336:248|392:328|424:328,1,170
264,352,68149,6,2,B|0:352,1,255,2|0
9,277,68593,2,2,B|273:277,1,255,2|0
264,201,69038,2,2,B|0:201,1,255,2|0
9,126,69482,2,2,B|273:126,1,255,2|0
304,64,69927,6,2,B|216:48,1,85,2|0
384,240,70149,2,2,B|400:152,1,85,2|0
208,320,70371,2,2,B|296:336,1,85,2|0
128,144,70593,2,2,B|112:232,1,85,2|0
336,144,70816,6,0,B|384:120|384:72,1,85,2|0
304,272,71038,2,0,B|328:320|376:320,1,85,2|0
176,240,71260,2,0,B|128:264|128:312,1,85,2|0
208,112,71482,2,0,B|184:64|136:64,1,85,2|0
336,328,71705,5,2
296,256,71816,1,0
256,192,71927,1,2
296,128,72038,1,0
336,56,72149,1,2
376,128,72260,1,0
416,192,72371,1,2
376,256,72482,1,0
336,328,72594,1,2
296,256,72705,1,0
256,192,72816,1,2
296,128,72927,1,0
336,56,73038,5,2
272,24,73149,1,0
208,56,73260,1,2
176,40,73316,1,0
144,24,73371,1,0
72,32,73482,1,0
8,72,73594,1,0
40,136,73705,5,2
104,104,73816,1,0
160,152,73927,1,2
96,184,74038,1,0
32,216,74149,1,2
88,264,74260,1,0
152,224,74371,1,0
216,264,74482,1,0
152,296,74594,1,0
88,336,74705,2,2,B|120:368|120:368|168:368,1,85
232,344,74927,1,0
304,360,75038,1,2
344,296,75149,1,0
416,272,75260,5,2
432,264,75334,1,0
448,256,75408,1,0
464,248,75482,1,2
480,240,75556,1,0
464,232,75631,1,0
448,224,75705,1,2
432,216,75779,1,0
416,208,75853,1,0
432,200,75927,1,2
448,192,76001,1,0
464,184,76075,1,0
480,176,76149,1,2
464,168,76223,1,0
448,160,76297,1,0
432,152,76371,1,2
416,144,76445,1,0
432,136,76519,1,0
448,128,76594,1,2
464,120,76668,1,0
480,112,76742,1,0
464,104,76816,1,2
448,96,76890,1,0
432,88,76964,1,0
416,80,77038,1,2
256,192,77112,12,2,78593
464,192,78816,6,0,B|448:360|272:376,1,255,2|0
258,318,79260,2,0,B|58:318,1,170,2|0
256,32,79705,5,2
176,80,79816,1,0
336,128,79927,1,2
256,176,80038,1,0
341,320,80149,2,0,B|165:320,1,170
48,192,80594,6,0,B|64:24|240:8,1,255,2|0
254,66,81038,2,0,B|454:66,1,170,2|0
392,216,81482,5,2
232,328,81594,1,0
120,168,81705,1,2
280,56,81816,1,0
256,192,81927,5,0
256,192,82149,1,8
136,288,82371,6,2,B|400:288,1,255,2|0
345,355,82816,2,2,B|169:355,1,170
136,96,83260,6,2,B|400:96,1,255,2|0
345,29,83705,2,2,B|169:29,1,170
464,192,84149,5,4
392,256,84260,1,4
392,128,84371,1,0
320,192,84482,2,4,B|136:192,1,170,4|0
88,256,84816,1,4
88,128,84927,1,0
152,64,85038,2,4,B|322:64,1,170,4|0
392,128,85371,1,4
392,256,85482,1,0
464,192,85594,1,0
320,192,85705,1,4
256,56,85927,6,2,B|320:104|376:24|376:24|416:0|496:32,1,255,2|0
256,136,86371,2,2,B|256:320,1,170,2|0
112,336,86816,5,2
152,272,86927,1,0
80,264,87038,1,2
128,200,87149,1,0
56,192,87260,2,0,B|80:16,1,170,0|2
256,328,87705,6,2,B|320:280|376:360|376:360|416:384|496:352,1,255,2|0
256,248,88149,2,2,B|256:64,1,170,2|0
112,48,88594,5,2
152,112,88705,1,0
80,120,88816,1,2
128,184,88927,1,0
56,192,89038,2,0,B|80:368,1,170,0|2
176,248,89482,6,0,B|224:152|288:120|288:120|288:168|352:192,1,255,2|0
360,113,89927,2,2,B|344:17|240:40|224:85,1,170
176,136,90371,6,0,B|224:232|288:264|288:264|288:216|352:192,1,255,2|0
360,271,90816,2,2,B|344:367|240:344|224:299,1,170
88,344,91260,6,2,B|32:264,1,85,2|0
88,336,91482,2,2,B|40:256,1,85,2|0
88,328,91705,2,2,B|48:248,1,85,2|0
88,40,91927,6,2,B|32:120,1,85,2|0
88,48,92149,2,2,B|40:128,1,85,2|0
88,56,92372,2,2,B|48:136,1,85,2|0
96,192,92593,6,2,B|176:144|176:232|256:192,1,170,2|0
400,112,93038,6,2,B|392:64|336:48,1,85,2|0
336,336,93260,2,2,B|384:328|400:272,1,85,2|0
112,272,93482,2,2,B|120:320|176:336,1,85,2|0
176,48,93705,2,2,B|128:56|112:112,1,85,2|0
188,121,93927,2,0,B|274:121,1,85,2|0
324,263,94149,2,0,B|238:263,1,85,2|0
256,192,94371,1,2
32,96,94816,6,2,B|120:96,1,85,2|0
120,168,95038,1,0
56,200,95149,1,0
96,264,95260,2,2,B|152:336|248:344,1,170
256,272,95594,1,2
336,144,95816,5,0
280,96,95927,1,0
296,24,96038,1,0
368,24,96149,1,2
392,96,96260,1,0
448,144,96371,1,0
392,192,96482,2,2,B|344:272|440:296|440:296|376:392,1,255
144,360,97038,5,2
120,288,97149,1,0
64,240,97260,1,0
120,192,97371,2,2,B|168:112|72:88|72:88|104:32,1,170
144,16,97705,1,0
184,80,97816,1,0
216,16,97927,2,2,B|312:56|272:168,1,170
424,192,98371,5,2
368,144,98482,1,0
336,208,98594,1,2
392,256,98705,2,2,B|384:352|280:368,1,170,2|0
256,296,99038,1,2
88,192,99260,5,2
144,144,99371,1,0
176,208,99482,1,2
120,256,99594,2,2,B|128:352|232:368,1,170,2|0
256,296,99927,1,2
256,144,100149,6,0,B|216:136|216:136|200:120|192:80,1,85,4|0
160,32,100371,1,0
160,32,100482,1,0
88,32,100594,2,0,B|48:40|48:40|32:56|24:96,1,85,8|0
80,136,100816,1,0
80,136,100927,1,0
32,192,101038,2,2,B|32:280,1,85,2|0
96,320,101260,1,0
96,320,101371,1,0
104,248,101482,1,8
360,88,101927,5,2
424,56,102038,1,0
480,104,102149,1,0
440,168,102260,1,0
368,184,102371,2,2,B|376:232|408:272,2,85,2|0|2
304,144,102705,2,2,B|224:200|256:296,1,170,2|0
208,352,103038,1,0
136,336,103149,1,0
160,264,103260,1,2
96,224,103371,1,0
96,224,103482,1,0
32,184,103594,2,2,B|32:16|208:16,1,255
256,152,104149,5,2
296,216,104260,1,0
232,248,104371,1,0
272,312,104482,2,2,B|480:312,1,170
480,248,104816,1,0
408,232,104927,1,0
456,176,105038,2,2,B|472:128|432:96|432:96|456:8,1,170
296,72,105482,5,2
136,152,105594,1,0
216,312,105705,1,0
376,232,105816,1,2
256,192,106038,1,0
256,192,106149,1,2
216,0,106371,5,2
64,232,106482,1,0
296,384,106594,1,0
448,152,106705,1,2
256,192,106927,1,0
256,192,107038,1,2
256,192,107260,5,4
