osu file format v9

[General]
AudioFilename: Kitsune Soundsystem - Straight Outta Pallet Town - 02 Raptorjesus Died for Our Sine Waves.mp3
AudioLeadIn: 0
PreviewTime: 49090
Countdown: 0
SampleSet: Normal
StackLeniency: 0.6
Mode: 0
LetterboxInBreaks: 1

[Editor]
DistanceSpacing: 1.2
BeatDivisor: 4
GridSize: 4

[Metadata]
Title:Raptorjesus Died for Our Sine Waves
Artist:Kitsune Soundsystem
Creator:Aleks719
Version:Insane
Source:
Tags:Straight Outta Pallet Town electronic breakcore breakbeat chiptune 8bit 8-bit Reiji-RJ Backfire

[Difficulty]
HPDrainRate:7
CircleSize:4
OverallDifficulty:7
ApproachRate:9
SliderMultiplier:2
SliderTickRate:1

[Events]
//Background and Video events
0,0,"bg by me.png"
//Break Periods
2,98381,108490
//Storyboard Layer 0 (Background)
//Storyboard Layer 1 (Fail)
//Storyboard Layer 2 (Pass)
//Storyboard Layer 3 (Foreground)
//Storyboard Sound Samples
//Background Colour Transformations
3,100,231,24,102

[TimingPoints]
0,340.909090909091,4,1,0,50,1,0
10994,-100,4,2,0,65,0,0
20454,-100,4,1,0,65,0,0
43721,-133.333333333333,4,1,0,65,0,0
49090,-100,4,1,0,65,0,1
60000,-133.333333333333,4,1,0,65,0,0
65369,-100,4,1,0,65,0,0

[Colours]
Combo1 : 0,128,128
Combo2 : 255,128,64
Combo3 : 0,128,255
Combo4 : 128,0,255

[HitObjects]
316,72,10909,1,4
196,72,11079,1,0
92,132,11249,2,0,B|20:172,1,50,8|0
88,200,11420,2,0,B|56:264,1,50,2|0
124,252,11590,2,0,B|124:308,1,50
184,308,11761,2,0,B|214:359,2,50,2|0|0
256,212,12102,1,2
196,72,12272,5,0
316,72,12443,1,0
420,132,12613,2,0,B|492:172,1,50,8|0
424,200,12784,2,0,B|456:264,1,50,2|0
388,252,12954,2,0,B|388:308,1,50
328,308,13124,2,0,B|298:359,2,50,2|0|0
256,212,13465,1,2
304,100,13636,6,0,B|256:80|208:100,1,100
104,164,13977,1,8
60,204,14062,1,0
40,260,14147,1,2
48,320,14232,1,0
92,360,14318,1,0
152,372,14403,1,0
212,360,14488,1,2
256,320,14573,1,0
296,276,14659,2,0,B|348:256|396:276,1,100,0|2
280,244,14999,6,0,B|300:192|280:144,1,100,0|0
200,60,15340,1,8
248,96,15426,1,0
304,116,15511,1,2
360,136,15596,1,0
416,160,15681,2,0,B|444:168|460:200,2,50,0|0|2
364,192,15937,1,0
344,248,16022,2,0,B|340:300|272:332,1,100,0|2
228,344,16278,1,0
168,336,16363,5,0
168,336,16534,1,0
104,232,16704,2,0,B|52:260,2,50,8|0|2
140,184,16960,2,0,B|192:212,2,50
100,140,17215,2,0,B|48:168,2,50,2|0|0
196,68,17556,1,2
316,68,17727,5,0
428,116,17897,1,0
332,192,18068,2,0,B|280:164,2,50,8|0|2
368,240,18323,2,0,B|420:212,2,50
328,284,18579,2,0,B|276:256,2,50,2|0|0
436,336,18920,1,2
256,336,19090,5,0
76,336,19261,1,0
76,216,19431,1,8
128,244,19517,1,0
180,212,19602,1,2
128,184,19687,1,0
80,152,19772,1,0
128,124,19857,1,0
180,152,19943,1,2
232,180,20028,1,0
232,240,20113,1,0
332,308,20284,1,2
364,192,20454,5,8
372,200,20539,1,0
424,96,20710,1,0
432,104,20795,1,8
492,192,20965,1,0
500,200,21051,2,0,B|500:252|452:284,2,100,8|8|0
484,140,21477,2,0,B|468:80,3,50,10|0|10|0
456,32,21818,5,6
336,48,21988,1,0
280,156,22159,1,8
236,200,22244,2,0,B|220:228|188:240,3,50
152,272,22585,2,0,B|120:288|104:312,3,50,0|0|0|8
224,348,23011,1,8
344,328,23181,5,0
420,232,23352,1,0
404,112,23522,1,8
364,68,23607,1,0
308,48,23693,1,0
248,36,23778,1,0
188,44,23863,1,0
140,76,23948,1,0
104,124,24034,1,0
96,184,24119,1,0
112,244,24204,1,8
196,328,24375,1,8
316,328,24545,5,0
256,224,24715,1,0
188,124,24886,1,8
244,104,24971,1,0
300,128,25056,2,0,B|344:160|400:124,1,100,0|8
408,68,25312,1,0
348,72,25397,2,0,B|316:116|352:172,1,100,0|8
412,268,25738,1,8
292,276,25909,5,0
188,340,26079,1,0
68,340,26249,1,8
92,284,26335,2,2,B|112:228,1,50,2|2
156,272,26505,2,2,B|176:216,1,50,0|10
220,264,26676,2,2,B|240:208,1,50,0|2
284,256,26846,2,2,B|304:200,1,50,0|10
420,196,27102,1,0
420,128,27187,1,0
480,92,27272,5,4
360,92,27443,1,0
420,196,27613,1,8
464,240,27698,1,0
464,300,27784,1,0
420,340,27869,1,0
360,340,27954,1,0
316,300,28039,1,0
316,240,28124,1,0
360,196,28210,1,0
420,196,28295,1,8
300,180,28465,1,8
388,268,28636,5,0
300,356,28806,1,0
216,268,28977,1,8
168,232,29062,1,0
132,184,29147,2,0,B|112:152|128:128,3,50
132,76,29488,1,0
180,36,29573,1,0
228,76,29659,1,8
256,192,29829,1,8
316,296,29999,5,0
195,296,30170,1,0
256,192,30340,1,8
256,132,30426,1,0
288,76,30510,1,0
336,36,30596,1,0
380,76,30681,1,8
388,136,30767,2,0,B|395:163|379:183,3,50,0|0|0|8
280,252,31192,1,8
172,200,31363,5,0
124,88,31534,1,0
80,204,31704,1,8
48,256,31789,1,2
48,316,31875,2,2,B|72:344|96:352,1,50,2|0
144,336,32045,2,2,B|168:308|192:300,1,50,10|0
240,316,32215,2,2,B|264:344|288:352,1,50,2|0
340,348,32386,2,2,B|356:288|420:280,1,100,10|2
476,312,32642,1,0
416,360,32727,5,4
352,224,32897,1,0
212,168,33068,1,8
80,236,33238,1,0
120,92,33409,1,0
264,56,33579,1,0
400,120,33749,1,8
448,264,33920,1,8
240,276,34090,6,0,B|232:216|164:184,1,100
236,88,34431,2,0,B|276:116,3,50,8|0|0|0
320,160,34772,2,0,B|352:212,3,50
368,260,35113,1,8
368,260,35284,1,8
152,276,35454,5,0
32,268,35625,2,0,B|24:208|80:172,1,100,0|8
120,148,35880,2,0,B|168:120|168:120,1,50
180,180,36051,2,0,B|228:216,1,50,0|8
232,152,36221,2,0,B|280:124|280:124,1,50
292,184,36392,2,0,B|340:220,1,50,0|8
332,332,36647,1,8
328,336,36732,1,0
324,340,36818,5,0
188,332,36988,1,0
60,284,37159,1,8
80,228,37245,2,2,B|100:172,1,50,2|2
144,216,37415,2,2,B|164:272,1,50,0|10
204,224,37586,2,2,B|224:168,1,50,0|2
264,216,37756,2,2,B|284:272,1,50,0|10
384,324,38011,1,0
388,324,38096,1,0
392,324,38181,6,0,B|452:308|460:244,1,100,4|0
480,136,38522,1,8
376,72,38693,1,0
344,124,38778,1,0
316,72,38863,1,0
344,20,38948,1,0
404,20,39034,1,0
436,72,39119,1,0
404,124,39204,1,8
348,232,39375,1,8
244,172,39545,6,0,B|216:228|240:284,1,100
312,360,39886,1,8
404,284,40056,2,0,B|436:244|416:212,1,50
408,180,40227,2,0,B|384:156|340:156,1,50
304,168,40397,2,0,B|276:180|276:216,1,50
264,264,40568,2,0,B|248:320|184:340,1,100,8|8
80,308,40909,6,0,B|48:224|96:156,1,150
140,200,41250,2,0,B|200:128|156:56,1,150,8|0
112,96,41590,2,2,B|152:168|248:160,1,150,2|0
300,160,41931,2,0,B|360:160|400:120,1,100,8|8
400,248,42272,6,2,B|352:276|304:284|252:276,1,150,2|0
224,340,42613,1,8
296,332,42698,2,0,B|308:260|360:184,1,150,0|8
384,140,43039,2,0,B|392:76|328:56,1,100,0|0
280,52,43295,1,8
224,76,43380,1,8
208,132,43465,1,8
232,188,43551,1,8
272,232,43636,5,4
272,232,43977,2,0,B|384:180|488:232|500:348|464:384,2,299.999991059304,0|0|8
188,196,45511,1,0
156,280,45681,1,0
156,280,45852,1,0
188,196,46022,1,8
272,232,46193,1,0
248,320,46363,6,0,B|360:372|464:320|472:200|440:168,2,299.999991059304
84,248,48068,1,8
164,288,48238,1,0
248,320,48409,1,0
240,232,48579,1,0
156,196,48749,1,8
228,144,48920,1,0
228,144,49090,5,6
228,144,49261,1,0
232,24,49431,2,0,B|296:32|340:96,1,100,10|0
440,56,49772,2,0,B|440:124|376:156,1,100,2|2
348,252,50113,2,0,B|292:228|288:164,1,100,8|2
168,164,50454,6,0,B|216:192|220:264,1,100,0|2
140,336,50795,2,0,B|92:312|88:228,1,100,8|2
280,72,51136,2,2,B|324:108|340:192,1,100,2|2
164,160,51477,2,0,B|120:132|124:68,1,100,10|10
372,32,51818,6,0,B|412:64|424:132,1,100,2|0
296,324,52159,2,0,B|240:300|208:260,1,100,10|0
176,56,52500,2,10,B|240:64|272:120,1,100,2|2
220,360,52840,2,0,B|168:332|144:280,1,100,8|2
108,140,53181,5,0
72,24,53352,1,2
184,64,53522,2,0,B|232:88|232:88|256:144,1,100,8|2
224,248,53863,2,0,B|268:216|268:216|316:208,1,100,8|2
348,92,54204,2,0,B|368:140|368:140|416:180,1,100,8|2
448,60,54545,5,6
332,28,54715,1,0
220,68,54886,1,10
192,124,54971,1,0
180,180,55056,2,0,B|180:204|180:204|204:240,3,50,0|0|2|0
236,272,55397,1,2
284,308,55482,1,0
344,324,55568,2,0,B|396:328|396:328|452:320,4,100,8|2|0|2|8
316,268,56335,5,2
284,216,56420,1,2
284,156,56505,1,0
316,104,56590,1,2
372,76,56676,1,0
428,96,56761,1,2
464,144,56846,1,0
464,204,56931,1,10
428,320,57102,1,2
180,320,57272,5,0
180,320,57443,1,2
84,248,57613,2,0,B|28:232,2,50,10|0|0
140,220,57869,2,0,B|204:200,2,50,0|10|0
104,172,58124,2,0,B|32:152,2,50,0|0|10
220,196,58465,1,2
324,256,58636,5,0
440,232,58806,1,2
456,112,58977,2,0,B|404:64,3,50,10|0|0|0
360,88,59318,2,0,B|280:112|280:112,3,50,10|0|0|0
252,100,59659,1,10
152,36,59829,1,2
256,192,59999,5,4
336,192,60681,1,8
176,192,61363,1,0
256,32,61704,5,8
216,112,61874,1,0
256,192,62045,1,0
296,272,62215,1,0
256,352,62386,1,8
216,272,62556,1,0
256,192,62727,6,0,B|232:80|376:4|464:88|464:88,2,299.999991059304,4|0|0
300,268,64261,1,0
210,268,64431,1,8
164,192,64601,1,0
212,116,64772,1,0
300,116,64942,1,0
348,192,65112,1,8
256,192,65283,1,0
256,340,65454,5,6
180,244,65625,2,0,B|156:188|184:136,1,100,0|10
332,140,65965,2,0,B|356:196|328:248,1,100,0|2
92,292,66306,2,0,B|68:236|96:184,1,100,2|8
420,96,66647,2,0,B|444:152|416:204,1,100,2|0
360,292,66988,5,2
256,352,67159,2,0,B|208:368|156:352,1,100,8|2
112,208,67500,2,2,B|160:192|212:208,1,100,2|2
264,360,67840,2,2,B|216:376|164:360,1,100,10|10
108,132,68181,6,0,B|156:116|208:132,1,100,2|0
244,240,68522,2,0,B|252:296|252:296,1,50,10|0
312,292,68693,2,0,B|352:360|356:356,1,50
396,316,68863,2,0,B|432:368,1,50,10|0
484,336,69034,2,0,B|456:296,1,50,2|0
424,244,69204,2,2,B|392:184|416:140,1,100,8|2
464,40,69545,5,0
412,148,69715,1,2
308,208,69886,1,8
256,240,69971,1,0
196,232,70056,1,2
144,200,70142,1,0
140,140,70227,1,8
160,84,70312,1,0
212,52,70397,1,2
272,60,70482,1,0
308,108,70568,2,2,B|332:156|392:180,1,100,8|2
384,180,70823,1,0
388,184,70909,5,6
472,268,71079,2,0,B|452:328|388:340,1,100,0|8
328,244,71420,2,0,B|276:264|252:320,1,100
144,352,71761,2,0,B|84:344|56:296,1,100,0|8
20,188,72102,1,0
96,96,72272,5,2
216,84,72443,2,0,B|208:136|208:136|236:192,1,100,0|8
340,128,72784,2,0,B|380:88|380:40,1,100
320,220,73125,2,0,B|296:260|296:260|288:320,1,100,0|8
400,276,73465,2,0,B|436:240|412:180,1,100,0|2
376,68,73806,5,0
272,128,73977,2,0,B|200:168,1,50,8|0
172,128,74148,2,0,B|140:192,1,50
92,184,74318,2,0,B|92:240,1,50,8|0
36,260,74489,2,0,B|56:328,2,50,0|0|8
12,140,74830,1,0
96,56,75000,5,2
216,40,75170,1,0
328,76,75340,2,0,B|372:120,3,50,8|2|2|0
392,164,75681,2,0,B|384:232,3,50,10|0|2|0
380,272,76022,2,0,B|340:308|340:308|280:316,1,100,10|2
168,312,76363,5,6
176,184,76534,1,0
64,128,76704,2,2,B|100:16|296:0|360:176|264:264,1,400,8|8
236,340,77556,1,0
116,352,77727,5,0
100,232,77897,1,0
220,232,78068,2,2,B|157:132|271:-27|447:36|452:166,1,400,8|8
332,176,78920,1,0
332,176,79090,5,0
332,176,79261,1,0
432,252,79431,2,2,B|404:284|336:352|232:280|220:220|220:220|184:220|184:220|160:208|160:208|132:196|84:216,1,400,8|8
24,316,80284,1,0
136,276,80454,5,0
204,152,80625,1,0
304,88,80795,2,0,B|284:44,2,50,8|2|2
300,148,81051,2,0,B|268:192,2,50,0|10|0
356,124,81306,2,0,B|428:136,2,50,2|0|10
376,244,81647,1,0
256,268,81818,5,4
140,292,81988,1,0
20,316,82159,2,0,B|0:268|20:208,1,100,8|0
112,64,82500,2,0,B|128:116|112:168,1,100
108,284,82840,2,0,B|88:236|108:176,1,100,8|0
256,28,83181,6,0,B|272:80|256:132,1,100
208,312,83522,2,0,B|214:260|264:220,1,100,8|0
464,164,83863,2,0,B|451:217|412:254,1,100,0|0
95,250,84204,2,0,B|60:217|48:164,1,100,8|0
260,240,84545,6,0,B|299:274|308:328,1,100
176,236,84886,2,0,B|152:188|152:188|164:128,1,100,8|0
256,68,85227,2,0,B|256:120|256:120|228:172,1,100,8|0
224,284,85568,2,0,B|252:328|252:328|320:348|320:348,1,100,8|0
416,324,85909,5,0
468,216,86079,1,0
360,164,86250,2,0,B|336:96|336:96,1,50,8|2
284,128,86420,2,0,B|232:176|232:176,1,50,2|0
192,140,86591,2,0,B|168:72|168:72,1,50,10|0
116,88,86761,2,0,B|52:128|52:128,2,50,2|0|10
228,40,87102,1,0
344,72,87272,5,6
420,164,87443,1,0
400,284,87613,2,0,B|348:296|348:296|284:320,1,100,8|0
212,236,87954,2,0,B|164:244|164:244|132:284,1,100
248,308,88295,2,0,B|300:296|300:296|324:256,1,100,8|0
304,136,88636,6,2,B|256:152|256:152|208:136,1,100,2|0
100,96,88977,2,0,B|136:60|192:60,1,100,8|0
324,60,89318,2,0,B|376:60|416:100,1,100
480,200,89659,2,0,B|468:256|468:256|424:284,1,100,8|0
316,312,90000,5,6
196,312,90170,1,0
92,252,90340,2,0,B|20:212,1,50,8|2
88,184,90511,2,0,B|56:120,1,50,2|0
124,132,90681,2,0,B|124:76,1,50,10|0
184,76,90852,2,0,B|214:25,2,50,2|0|10
256,192,91193,1,0
196,312,91363,5,2
316,312,91534,1,0
420,252,91704,2,0,B|492:212,1,50,8|2
424,184,91875,2,0,B|456:120,1,50,2|0
388,132,92045,2,0,B|388:76,1,50,10|0
328,76,92215,2,0,B|298:25,2,50,2|0|10
256,192,92556,1,0
196,312,92727,5,6
316,312,92897,1,0
144,236,93068,1,8
376,236,93238,1,0
144,148,93408,1,0
376,148,93579,1,0
196,72,93750,1,8
316,72,93921,1,0
292,216,94090,6,0,B|268:268|292:312,1,100,2|0
220,168,94431,2,0,B|244:116|220:72,1,100,8|0
280,156,94772,2,0,B|332:180|376:156,1,100
232,228,95113,2,0,B|180:204|136:228,1,100,8|0
28,284,95454,6,0,B|4:232|28:188,2,100,2|0|8
64,332,95880,1,0
116,360,95965,1,0
176,368,96051,1,0
236,356,96136,2,0,B|268:348|268:348|288:332,1,50,8|0
336,312,96306,1,0
376,268,96392,1,0
400,216,96477,2,0,B|412:160|384:108,1,100,8|8
260,40,96818,2,0,B|248:95|276:147,1,100,2|8
256,192,97159,12,4,98181
256,192,109090,5,0
196,252,109772,1,8
320,132,110284,2,0,B|360:92,2,50
196,132,110795,1,0
320,252,111136,1,8
116,192,111477,5,0
396,192,111647,1,0
256,192,111818,5,0
116,72,112159,1,0
116,312,112500,1,8
396,312,112840,1,0
396,192,113011,1,0
396,72,113181,1,0
256,312,113522,1,0
256,72,113863,1,8
32,16,114545,5,0
260,104,114886,1,0
32,192,115227,1,8
256,276,115568,1,0
480,196,115909,1,0
256,364,116250,1,0
256,84,116590,1,8
480,276,116931,1,0
160,33,117272,5,0
160,113,117443,1,0
160,192,117613,1,0
160,272,117784,1,0
160,351,117954,1,0
400,32,118636,5,8
400,113,118807,1,8
400,192,118977,1,8
400,272,119148,1,8
400,352,119318,2,0,B|332:360|284:276|332:232,1,150,8|8
316,196,119659,2,0,B|316:132|248:132,2,100,8|8|4
256,192,120085,12,2,121363
256,192,121448,12,2,122727
256,192,122812,12,2,124090
256,192,124176,12,4,125454
256,192,125625,5,0
256,192,125795,1,8
376,192,125965,2,0,B|440:200|464:260,1,100
336,264,126306,2,0,B|324:328|240:328,2,100,0|8|0
216,268,126818,6,0,B|160:232|172:172,1,100
256,272,127159,2,0,B|252:208|300:180,1,100,8|0
284,304,127500,2,0,B|328:264|384:264,1,100,0|0
484,308,127840,2,0,B|440:348|384:348,1,100,8|0
448,240,128181,6,0,B|436:184|348:184,1,100
260,224,128522,2,0,B|216:280,1,50,8|0
196,212,128693,2,0,B|136:248,1,50,0|0
136,176,128863,2,0,B|68:180,1,50,8|0
104,120,129034,2,0,B|40:100,1,50,0|0
92,56,129204,2,0,B|132:28|192:32,1,100,8|0
308,48,129545,5,0
208,116,129715,1,0
320,164,129886,2,0,B|352:176|360:200,8,50,8|2|2|0|10|0|2|0|10
216,228,130738,1,0
212,232,130823,1,0
208,236,130909,5,4
124,320,131079,1,0
244,340,131250,2,0,B|292:312|340:324,1,100,8|0
460,344,131590,2,0,B|420:296|432:240,1,100
460,136,131931,2,0,B|412:160|356:148,1,100,8|0
248,120,132272,5,0
136,80,132443,1,0
24,40,132613,2,0,B|-4:84|12:144,1,100,8|0
128,168,132954,2,0,B|152:216|200:244,1,100
316,180,133295,2,0,B|376:204|436:168,1,100,8|0
484,80,133636,6,0,B|444:52|376:52|324:88,1,150
352,20,133977,2,0,B|303:28|255:76|244:138,1,150,8|0
220,68,134318,2,2,B|192:108|192:176|224:228,1,150,2|0
148,208,134659,2,0,B|136:240|176:288|216:284,1,100,8|8
268,260,134914,1,0
216,212,135000,6,0,B|164:220|128:264,1,100,0|0
80,368,135340,1,8
48,316,135426,1,2
40,256,135511,1,2
44,196,135596,2,0,B|84:136,3,50,0|10|0|2
120,120,135937,1,0
180,120,136022,1,10
296,80,136193,2,0,B|308:144,1,50,8|0
316,188,136363,5,4
316,188,136534,1,0
316,307,136704,1,8
372,328,136789,1,0
432,316,136875,1,0
472,268,136960,1,0
468,208,137045,1,0
428,164,137130,1,0
368,152,137215,1,0
316,188,137301,1,0
296,248,137386,2,0,B|260:304|200:304,3,100,8|0|0|0
96,304,138068,5,8
120,188,138238,2,0,B|92:148,1,50,0|0
148,132,138408,2,0,B|136:80,1,50,0|0
196,96,138579,2,0,B|208:36,1,50,0|0
256,84,138750,2,0,B|284:32|348:28,1,100,8|0
452,60,139090,5,4
396,168,139261,1,0
292,196,139431,2,0,B|364:208,2,50,8|0|0
236,216,139687,2,0,B|188:256,2,50,0|8|0
240,156,139943,2,0,B|220:96,2,50,0|0|8
284,268,140284,1,0
172,180,140454,5,0
304,124,140625,1,0
416,84,140795,2,0,B|464:108,1,50,8|2
420,152,140965,2,0,B|464:196,1,50,2|0
400,212,141136,2,0,B|428:268,1,50,10|0
364,264,141306,2,0,B|344:328,1,50,2|0
288,308,141477,1,10
204,224,141647,1,0
204,100,141818,5,4
308,160,141988,1,0
308,40,142159,2,0,B|404:48|444:136|416:196,2,200,8|0|8
204,100,143011,1,0
204,224,143181,5,0
308,284,143352,1,0
204,344,143522,2,0,B|108:336|68:248|96:188,2,200,8|0|8
324,344,144375,1,0
444,344,144545,5,0
384,240,144715,1,0
356,124,144886,2,0,B|288:112,3,50,8|0|0|0
252,140,145227,2,0,B|192:164,3,50,8|0|0|0
152,132,145568,1,8
152,132,145738,1,0
88,236,145909,5,0
164,328,146079,1,0
212,216,146250,1,8
212,216,146335,2,2,B|228:272,1,50,2|2
276,228,146505,2,2,B|288:288,1,50,0|10
340,236,146676,2,2,B|348:296,1,50,0|2
404,244,146846,2,2,B|404:296,1,50,0|10
404,172,147102,1,0
404,52,147272,5,4
296,108,147443,1,0
180,72,147613,2,0,B|120:52|120:52|60:32|24:120|92:144,2,200,8|0|8
216,188,148465,1,0
320,244,148636,5,0
228,320,148806,1,0
120,264,148977,2,0,B|68:236|48:176,1,100,8|0
176,188,149318,2,0,B|136:124|148:76,1,100
256,140,149659,2,0,B|260:68|296:36|300:36,1,100,8|0
400,92,150000,5,0
432,208,150170,1,0
368,308,150340,2,0,B|276:236|316:144|352:120,2,200,8|0|8
480,360,151193,1,0
480,360,151363,5,0
368,320,151534,1,0
256,280,151704,1,8
144,320,151875,1,0
28,356,152045,1,0
40,216,152215,1,0
124,104,152386,1,8
256,52,152556,2,0,B|256:100,2,50,0|0|4
