osu file format v9

[General]
AudioFilename: Kitsune Soundsystem - Straight Outta Pallet Town - 02 Raptorjesus Died for Our Sine Waves.mp3
AudioLeadIn: 0
PreviewTime: 49090
Countdown: 0
SampleSet: Normal
StackLeniency: 0.7
Mode: 0
LetterboxInBreaks: 1

[Editor]
DistanceSpacing: 1
BeatDivisor: 1
GridSize: 4

[Metadata]
Title:Raptorjesus Died for Our Sine Waves
Artist:Kitsune Soundsystem
Creator:Aleks719
Version:Easy
Source:
Tags:Straight Outta Pallet Town electronic breakcore breakbeat chiptune 8bit 8-bit Reiji-RJ Backfire

[Difficulty]
HPDrainRate:1
CircleSize:3
OverallDifficulty:1
ApproachRate:2
SliderMultiplier:0.500000005960464
SliderTickRate:1

[Events]
//Background and Video events
0,0,"bg by me.png"
//Break Periods
2,98381,107530
//Storyboard Layer 0 (Background)
//Storyboard Layer 1 (Fail)
//Storyboard Layer 2 (Pass)
//Storyboard Layer 3 (Foreground)
//Storyboard Sound Samples
//Background Colour Transformations
3,100,231,24,102

[TimingPoints]
0,340.909090909091,4,1,0,50,1,0
10994,-100,4,2,0,65,0,0
20454,-100,4,1,0,65,0,0
49090,-100,4,1,0,65,0,1
60000,-100,4,1,0,65,0,0

[Colours]
Combo1 : 0,128,128
Combo2 : 255,128,64
Combo3 : 0,128,255
Combo4 : 128,0,255

[HitObjects]
344,156,10909,2,0,B|332:124|256:104|180:124|168:156,1,200.000002384186,4|8
88,220,12954,2,0,B|88:276|88:276|140:328,1,100.000001192093,2|8
204,360,14318,2,0,B|304:360,1,100.000001192093,2|8
392,307,15681,2,0,B|424:276|424:276|424:220,1,100.000001192093,2|8
424,120,17045,6,0,B|336:32,1,100.000001192093,2|8
284,120,18409,2,0,B|188:216,1,100.000001192093,2|8
284,260,19772,1,2
354,190,20454,2,0,B|404:240|404:240|432:268|424:336|360:344,1,200.000002384186,8|4
272,340,22500,6,0,B|160:304,1,100.000001192093,0|8
208,216,23863,2,0,B|324:252,2,100.000001192093,0|8|0
112,184,25909,2,0,B|88:176|88:176|52:164|28:100|80:56|132:72,1,200.000002384186,8|4
232,60,27954,5,0
316,116,28636,1,8
256,304,30000,1,8
456,336,31363,2,0,B|472:272|416:208|328:232|312:272,1,200.000002384186,8|4
464,108,34090,6,0,B|448:52|368:84|336:52|336:116|336:116|312:212|256:120|256:120|200:212|176:116|176:116|176:52|144:84|64:52|48:108,1,600.000007152557,8|4
112,184,38863,5,0
20,224,39545,2,0,B|44:296|132:312|192:272|212:224,1,200.000002384186,8|8
352,136,42272,2,0,B|252:80|148:140,1,200.000002384186,8|4
72,184,44318,5,8
32,280,45000,2,0,B|148:304|188:208|164:156,1,200.000002384186
256,128,47045,1,8
228,32,47727,2,0,B|312:8|384:96|341:172,1,200.000002384186,0|6
332,240,49772,5,2
308,336,50454,2,0,B|248:336|216:304|216:304|184:336|124:336,1,200.000002384186,10|2
52,264,52500,1,2
60,164,53181,2,0,B|108:132|168:152,2,100.000001192093,10|0|6
64,64,55227,5,2
164,56,55909,2,0,B|256:92|240:136|344:180,2,200.000002384186,10|2|10
152,156,59318,1,0
188,248,60000,5,4
260,316,60681,1,8
356,348,61363,2,0,B|368:300|368:300|348:252|368:200|368:200|356:152,1,200.000002384186,8|8
308,64,63409,1,8
260,152,64090,2,0,B|248:200|248:200|268:248|248:300|248:300|260:348,1,200.000002384186,8|4
160,348,66136,5,0
176,248,66818,1,8
164,148,67500,1,0
176,48,68181,2,0,B|220:48|220:48|272:24|324:48|324:48|372:48,1,200.000002384186,8|10
324,136,70227,1,0
224,136,70909,6,0,B|216:212|300:260|360:244|384:208,2,200.000002384186,6|8|8
256,192,73977,12,4,76363
156,232,77727,5,8
356,232,79090,1,0
256,60,80454,1,8
308,144,81136,1,8
204,144,81818,5,4
256,336,83181,1,8
156,164,84544,1,0
356,164,85908,1,8
308,252,86590,2,0,B|204:252,1,100.000001192093,8|4
408,252,88636,5,8
256,124,90000,1,0
104,252,91363,1,8
204,240,92045,1,8
276,168,92727,6,0,B|224:138|180:149|180:149|168:106|116:76,1,200.000002384186,6|2
204,32,94772,1,0
304,44,95454,2,0,B|356:75|368:118|368:118|411:107|463:137,1,200.000002384186,2|2
396,212,97500,1,2
300,244,98181,1,4
296,192,109090,6,0,B|316:240|296:288,1,100.000001192093,0|8
204,328,110454,2,0,B|184:280|204:232,1,100.000001192093,0|8
176,136,111818,2,0,B|224:116|272:136,1,100.000001192093,0|8
324,220,113181,2,0,B|276:240|228:220,1,100.000001192093,0|8
156,148,114545,6,0,B|207:118|251:129|251:129|263:86|315:56,1,200.000002384186,4|0
344,152,116590,1,8
440,124,117272,2,0,B|456:188|408:228,1,100.000001192093,0|0
324,248,118636,2,0,B|268:232|248:176,2,100.000001192093,8|8|4
412,204,120681,6,0,B|432:252|412:300,1,100.000001192093,8|0
320,344,122045,2,0,B|272:364|224:344,1,100.000001192093,8|0
172,256,123409,2,0,B|220:236|268:256,2,100.000001192093,8|0|8
76,288,125454,5,0
76,288,126136,1,8
48,192,126818,2,0,B|56:136|160:136|144:192|192:192|192:192|224:152|256:192|256:192|288:152|320:192|320:192|368:192|352:136|456:136|464:192,1,500.000005960464,0|8
464,292,130909,6,0,B|432:324|432:324|380:300|320:324|320:324|288:292,1,200.000002384186,4|0
256,200,132954,2,0,B|260:160|260:160|252:140|252:140|256:76,2,100.000001192093,8|0|8
224,296,135000,2,0,B|192:328|192:328|140:304|80:328|80:328|48:296,1,200.000002384186,2|4
156,124,137727,5,2
356,124,139090,1,2
256,296,140454,2,0,B|256:192,1,100.000001192093,2|8
256,96,141818,5,4
176,280,143181,2,0,B|208:272|208:272|216:244|256:228|256:228|296:244|304:272|304:272|344:280,1,200.000002384186,8|8
156,192,145909,1,8
356,192,147272,5,4
256,172,147954,1,0
176,112,148636,2,0,B|184:56|256:88|256:88|328:56|336:112,2,200.000002384186,8|8|8
204,208,152045,1,0
308,208,152727,1,4
