osu file format v14

[General]
AudioFilename: Kitcaliber -Hey Fucker.mp3
AudioLeadIn: 0
PreviewTime: 23426
Countdown: 0
SampleSet: Normal
StackLeniency: 0.7
Mode: 0
LetterboxInBreaks: 0
WidescreenStoryboard: 0

[Editor]
Bookmarks: 4200,8040,23400,46440,69480,100200,115560,123240,130920
DistanceSpacing: 1
BeatDivisor: 4
GridSize: 4
TimelineZoom: 2.8

[Metadata]
Title:HEY FUCKER
TitleUnicode:HEY FUCKER
Artist:KITCALIBER
ArtistUnicode:KITCALIBER
Creator:P o M u T a
Version:EASY
Source:
Tags:lapfox trax renard neverland soundgirls Squeedge Hamilton shmuppunk pomuta
BeatmapID:458083
BeatmapSetID:192416

[Difficulty]
HPDrainRate:2
CircleSize:3
OverallDifficulty:2
ApproachRate:3
SliderMultiplier:0.619999999999999
SliderTickRate:1

[Events]
//Background and Video events
0,0,"heyfucker.jpg",0,0
//Break Periods
2,38986,45026
//Storyboard Layer 0 (Background)
//Storyboard Layer 1 (Fail)
//Storyboard Layer 2 (Pass)
//Storyboard Layer 3 (Foreground)
//Storyboard Sound Samples

[TimingPoints]
386,240,4,1,1,60,1,0
8066,-100,4,1,1,70,0,0
23426,-100,4,1,1,75,0,1
38786,-100,4,3,0,70,0,0
69506,-100,4,1,1,70,0,0
115586,-100,4,1,1,60,0,0
123266,-100,4,1,1,75,0,1
146186,-100,4,1,1,60,0,0

[Colours]
Combo1 : 0,128,192
Combo2 : 255,128,255
Combo3 : 105,28,249
Combo4 : 188,208,47

[HitObjects]
256,192,4226,12,0,7106,0:0:0:0:
240,316,8066,6,0,P|291:339|358:333,2,124,4|8|0,0:0|0:0|0:0,0:0:0:0:
256,192,9506,1,8,0:0:0:0:
272,68,9986,2,0,P|221:45|154:51,2,124,0|8|0,0:0|0:0|0:0,0:0:0:0:
256,192,11426,1,10,0:0:0:0:
240,316,11906,6,0,L|112:332,1,124,0|8,0:0|0:0,0:0:0:0:
22,250,12866,1,0,0:0:0:0:
76,138,13346,1,8,0:0:0:0:
180,70,13826,2,0,P|237:60|299:83,1,124,0|8,0:0|0:0,0:0:0:0:
374,179,14786,2,0,P|432:201|492:191,2,124,0|8|4,0:0|0:0|0:0,0:0:0:0:
297,82,16226,5,8,0:0:0:0:
179,120,16706,2,0,L|52:104,1,124,0|8,0:0|0:0,0:0:0:0:
108,216,17666,2,0,L|236:233,1,124,0|8,0:0|0:0,0:0:0:0:
331,306,18626,1,0,0:0:0:0:
441,248,19106,2,2,B|468:193|468:193|453:130,1,124,8|0,0:0|0:0,0:0:0:0:
354,56,20066,5,8,0:0:0:0:
262,139,20546,2,0,P|192:145|148:118,1,124,0|8,0:0|0:0,0:0:0:0:
54,37,21506,2,0,L|25:159,1,124,0|8,0:0|0:0,0:0:0:0:
6,280,22466,2,0,P|33:291|67:293,1,61.9999999999999,8|0,0:0|0:0,0:0:0:0:
121,265,22946,2,0,P|152:267|181:279,1,61.9999999999999,8|8,0:0|0:0,0:0:0:0:
232,313,23426,6,0,P|295:317|348:285,2,124,4|8|0,0:0|0:0|0:0,0:0:0:0:
261,192,24866,1,8,0:0:0:0:
335,93,25346,2,0,P|398:89|450:122,1,124,4|8,0:0|0:0,0:0:0:0:
499,233,26306,2,0,P|511:290|480:348,1,124,0|8,0:0|0:0,0:0:0:0:
359,365,27266,6,0,L|233:369,1,124,4|8,0:0|0:0,0:0:0:0:
168,264,28226,2,0,L|291:260,1,124,0|8,0:0|0:0,0:0:0:0:
256,192,29186,12,0,30626,0:0:0:0:
144,285,31586,5,8,0:0:0:0:
256,337,32066,1,0,0:0:0:0:
368,285,32546,1,8,0:0:0:0:
256,233,33026,2,0,B|164:161|164:161|160:85|224:53,2,248,4|0|4,0:0|0:0|0:0,0:0:0:0:
368,285,35426,5,0,0:0:0:0:
460,202,35906,2,0,P|457:112|405:32,1,186,0|8,0:0|0:0,0:0:0:0:
256,192,36866,12,4,38786,1:1:0:0:
150,129,46466,6,0,L|24:115,2,124,0|2|0,0:0|0:3|0:0,0:0:0:0:
256,192,47906,1,2,0:3:0:0:
362,129,48386,2,0,L|488:115,2,124,0|2|0,0:0|0:3|0:0,0:0:0:0:
256,192,49826,1,2,0:3:0:0:
141,238,50306,6,0,L|197:357,1,124,0|2,0:0|0:3,0:0:0:0:
317,350,51266,2,0,L|370:238,1,124,0|2,0:0|0:3,0:0:0:0:
432,130,52226,1,0,0:0:0:0:
311,98,52706,1,2,0:3:0:0:
248,202,53186,2,0,P|188:214|132:192,1,124,0|2,0:0|0:3,0:0:0:0:
30,120,54146,6,0,P|76:80|136:68,2,124,4|2|0,0:2|0:3|0:0,0:0:0:0:
132,192,55586,1,2,0:0:0:0:
30,264,56066,2,0,P|76:304|136:316,2,124,0|2|0,0:0|0:3|0:0,0:0:0:0:
132,192,57506,1,2,0:0:0:0:
244,244,57986,6,0,P|307:255|364:229,1,124,0|2,0:0|0:0,0:0:0:0:
416,120,58946,2,0,P|353:109|296:135,1,124,0|2,0:0|0:0,0:0:0:0:
244,244,59906,2,0,L|273:373,1,124,0|2,0:0|0:0,0:0:0:0:
157,316,60866,2,0,L|128:188,1,124,0|2,0:0|0:0,0:0:0:0:
24,131,61826,5,4,0:2:0:0:
95,29,62306,1,2,0:0:0:0:
197,97,62786,2,0,P|256:115|315:97,1,124,0|2,0:0|0:0,0:0:0:0:
417,29,63746,1,0,0:0:0:0:
488,131,64226,1,2,0:0:0:0:
382,195,64706,2,0,L|355:316,1,124,0|2,0:0|0:0,0:0:0:0:
249,250,65666,6,0,L|228:120,2,124,0|2|0,0:0|0:0|0:0,0:0:0:0:
192,360,67106,1,2,0:0:0:0:
72,328,67586,2,0,P|32:281|38:220,1,124,0|2,0:0|0:0,0:0:0:0:
123,132,68546,2,0,P|163:179|157:240,1,124,0|2,0:0|0:0,0:0:0:0:
72,328,69506,5,4,0:0:0:0:
193,361,69986,1,8,0:0:0:0:
312,327,70466,1,0,0:0:0:0:
354,210,70946,1,8,0:0:0:0:
290,104,71426,2,0,P|169:49|73:95,1,248,4|0,0:0|0:0,0:0:0:0:
137,200,72866,1,8,0:0:0:0:
14,204,73346,6,0,P|14:267|40:322,1,124,4|8,0:0|0:0,0:0:0:0:
157,361,74306,2,0,P|219:362|274:336,1,124,0|8,0:0|0:0,0:0:0:0:
349,237,75266,2,0,P|405:211|467:212,2,124,4|8|0,0:0|0:0|0:0,0:0:0:0:
274,336,76706,1,8,0:0:0:0:
163,279,77186,6,0,L|123:157,1,124,4|8,0:0|0:0,0:0:0:0:
26,84,78146,2,0,P|74:46|135:37,1,124,0|8,0:0|0:0,0:0:0:0:
238,111,79106,2,0,P|298:102|347:65,2,124,4|8|0,0:0|0:0|0:0,0:0:0:0:
135,37,80546,1,8,0:0:0:0:
48,131,81026,6,0,L|61:258,1,124,4|8,0:0|0:0,0:0:0:0:
165,321,81986,2,0,L|152:194,1,124,0|8,0:0|0:0,0:0:0:0:
236,105,82946,2,0,P|344:48|465:58,2,248,4|0|4,0:0|0:0|0:0,0:0:0:0:
118,66,85346,6,0,P|114:133|144:190,1,124,8|0,0:0|0:0,0:0:0:0:
255,219,86306,1,8,0:0:0:0:
373,183,86786,2,0,P|399:127|394:66,2,124,4|8|0,0:0|0:0|0:0,0:0:0:0:
255,219,88226,1,8,0:0:0:0:
150,285,88706,6,0,P|191:326|257:341,1,124,4|8,0:0|0:0,0:0:0:0:
369,296,89666,1,0,0:0:0:0:
436,191,90146,1,8,0:0:0:0:
377,83,90626,2,0,P|261:45|134:61,1,248,4|0,0:0|0:0,0:0:0:0:
42,139,92066,1,8,0:0:0:0:
159,179,92546,6,0,P|169:236|141:295,1,124,4|8,0:0|0:0,0:0:0:0:
21,359,93506,2,0,P|11:302|39:243,1,124,0|8,0:0|0:0,0:0:0:0:
159,179,94466,2,0,P|211:148|239:89,2,124,4|8|0,0:0|0:0|0:0,0:0:0:0:
44,130,95906,1,8,0:0:0:0:
256,192,96386,12,0,99266,0:0:0:0:
352,271,100226,6,0,L|485:249,2,124,4|0|0,0:0|0:0|0:0,0:0:0:0:
256,349,101666,1,0,0:0:0:0:
160,271,102146,2,0,L|27:249,2,124,0|0|0,0:0|0:0|0:0,0:0:0:0:
256,192,103586,1,0,0:0:0:0:
208,77,104066,6,0,P|152:50|91:57,1,124,0|0,0:0|0:0,0:0:0:0:
139,172,105027,2,0,P|194:197|255:192,1,124,0|0,0:0|0:0,0:0:0:0:
349,110,105986,1,0,0:0:0:0:
442,192,106466,1,0,0:0:0:0:
422,315,106946,1,0,0:0:0:0:
309,262,107426,2,0,L|277:202,2,61.9999999999999,0|8|4,0:0|0:0|0:0,0:0:0:0:
219,347,108386,6,0,P|158:359|96:351,1,124,8|0,0:0|0:0,0:0:0:0:
29,246,109346,2,0,P|90:234|152:242,1,124,8|0,0:0|0:0,0:0:0:0:
219,347,110306,2,0,P|280:359|342:351,2,124,8|0|8,0:0|0:0|0:0,0:0:0:0:
151,242,111746,5,0,0:0:0:0:
256,176,112226,1,8,0:0:0:0:
360,242,112706,1,0,0:0:0:0:
465,176,113186,1,8,0:0:0:0:
360,110,113666,2,0,P|409:63|465:58,2,124,0|8|0,0:0|0:0|0:0,0:0:0:0:
465,176,115106,2,0,L|447:300,1,124,2|4,0:0|0:0,0:0:0:0:
336,356,116066,5,8,0:0:0:0:
230,293,116546,2,0,P|168:286|113:313,2,124,0|8|0,0:0|0:0|0:0,0:0:0:0:
336,356,117986,1,8,0:0:0:0:
447,298,118466,2,0,L|465:176,2,124,0|8|4,0:0|0:0|0:0,0:0:0:0:
336,356,119906,2,0,L|265:356,2,61.9999999999999,8|0|0,0:0|0:0|0:0,0:0:0:0:
345,232,120866,1,0,0:0:0:0:
256,192,121106,12,0,122306,0:0:0:0:
190,312,123266,6,0,L|64:328,1,124,4|0,0:0|0:0,0:0:0:0:
121,215,124226,2,0,L|247:199,1,124,0|0,0:0|0:0,0:0:0:0:
344,126,125186,2,0,P|323:67|272:32,2,124,4|0|0,0:0|0:0|0:0,0:0:0:0:
294,239,126626,1,0,0:0:0:0:
194,312,127106,6,0,P|131:317|84:279,1,124,4|0,0:0|0:0,0:0:0:0:
52,161,128066,2,0,P|92:73|170:40,1,186,0|8,0:0|0:0,0:0:0:0:
256,192,129026,12,0,130466,0:0:0:0:
365,275,131426,5,0,0:0:0:0:
256,334,131906,2,0,P|193:356|136:354,2,124,0|0|4,0:0|0:0|0:0,0:0:0:0:
365,275,133346,2,0,P|428:253|485:255,2,124,0|0|0,0:0|0:0|0:0,0:0:0:0:
256,334,134786,6,0,P|242:269|260:213,1,124,4|0,0:0|0:0,0:0:0:0:
344,129,135746,1,0,0:0:0:0:
255,42,136226,1,0,0:0:0:0:
168,129,136706,2,0,L|42:129,1,124,4|0,0:0|0:0,0:0:0:0:
43,254,137666,2,0,L|168:254,1,124,0|0,0:0|0:0,0:0:0:0:
274,192,138626,6,0,L|403:192,2,124,4|0|4,0:0|0:0|0:0,0:0:0:0:
187,103,140066,2,0,P|162:127|147:156,1,61.9999999999999,0|0,0:0|0:0,0:0:0:0:
154,212,140546,2,0,P|144:273|108:323,2,124,4|0|4,0:0|0:0|0:0,0:0:0:0:
60,130,141986,1,0,0:0:0:0:
154,212,142466,6,0,L|280:212,1,124,4|0,0:0|0:0,0:0:0:0:
373,133,143426,1,4,0:0:0:0:
480,70,143906,2,0,P|494:96|494:129,1,61.9999999999999,0|0,0:0|0:0,0:0:0:0:
465,183,144386,2,0,P|452:244|455:316,2,124,4|0|4,0:0|0:0|0:0,0:0:0:0:
378,94,145826,2,0,P|332:76|286:83,1,92.9999999999999,0|0,0:0|0:0,0:0:0:0:
