osu file format v12

[General]
AudioFilename: Kimi to no Nakushi Mono.mp3
AudioLeadIn: 0
PreviewTime: 59270
Countdown: 0
SampleSet: Normal
StackLeniency: 0.7
Mode: 0
LetterboxInBreaks: 0
WidescreenStoryboard: 1

[Editor]
DistanceSpacing: 1
BeatDivisor: 2
GridSize: 8

[Metadata]
Title:Kimi to no Nakushi Mono (TV Size)
TitleUnicode:君とのなくしもの (TV Size)
Artist:Kitazawa Ayaka
ArtistUnicode:北沢綾香
Creator:kjwkjw
Version:Easy
Source:Little Busters! ~Refrain~
Tags:key anime ed ending jerry
BeatmapID:312965
BeatmapSetID:120650

[Difficulty]
HPDrainRate:2
CircleSize:3
OverallDifficulty:2
ApproachRate:3
SliderMultiplier:0.999999999999999
SliderTickRate:1

[Events]
//Background and Video events
0,0,"bg.jpg",0,0
Video,0,"vid.avi"
//Break Periods
//Storyboard Layer 0 (Background)
//Storyboard Layer 1 (Fail)
//Storyboard Layer 2 (Pass)
//Storyboard Layer 3 (Foreground)
//Storyboard Sound Samples
//Background Colour Transformations
3,100,163,162,255

[TimingPoints]
390.153908712227,447.761194029851,4,2,0,50,1,0
29046,-100,4,2,0,60,0,0
43375,-100,4,1,0,60,0,0
50539,-100,4,1,0,60,0,0
59494,-100,4,1,0,75,0,1
84569,-100,4,1,0,75,0,0

[HitObjects]
104,192,390,1,0,0:0:0:0:
264,72,1285,1,0,0:0:0:0:
424,192,2181,2,0,P|472:216|480:280,2,99.9999999999999,0|0|2,0:0|0:0|0:0,0:0:0:0:
256,240,3972,6,0,L|256:340,2,99.9999999999999,0|0|2,0:0|0:0|0:0,0:0:0:0:
96,192,5763,2,0,P|56:168|32:120,1,99.9999999999999
96,40,6658,2,0,P|136:64|160:112,1,99.9999999999999
200,200,7554,5,4,0:0:0:0:
248,112,8002,2,8,P|320:48|424:48,1,200
424,248,9793,2,8,P|353:316|256:322,1,200
168,280,11136,5,0,0:0:0:0:
72,320,11584,2,8,P|80:224|168:176,1,200
256,192,12927,12,4,14718,0:0:0:0:
96,200,15614,5,0,0:0:0:0:
96,104,16061,2,8,P|192:64|296:64,1,200
376,104,17405,1,0,0:0:0:0:
440,176,17852,1,8,0:0:0:0:
376,248,18300,6,0,P|384:304|344:336,1,99.9999999999999,0|8,0:0|0:0,0:0:0:0:
256,328,19196,1,0,0:0:0:0:
112,184,20091,2,0,P|64:160|40:120,1,99.9999999999999,0|8,0:0|0:0,0:0:0:0:
120,56,20987,2,0,P|168:80|192:120,1,99.9999999999999,0|8,0:0|0:0,0:0:0:0:
256,192,21882,5,4,0:0:0:0:
432,88,22778,1,0,0:0:0:0:
464,184,23225,2,8,P|456:264|352:320,1,200
272,272,24569,1,0,0:0:0:0:
184,320,25017,1,8,0:0:0:0:
96,272,25464,6,0,P|72:256|48:192,1,99.9999999999999,0|8,0:0|0:0,0:0:0:0:
72,96,26360,1,0,0:0:0:0:
256,24,27255,2,0,L|256:128,3,99.9999999999999,0|8|0|8,0:0|0:0|0:0|0:0,0:0:0:0:
368,152,29046,5,4,0:0:0:0:
440,224,29494,2,0,P|448:296|424:328,2,99.9999999999999,8|0|8,0:0|0:0|0:0,0:0:0:0:
352,272,30837,1,0,0:0:0:0:
264,320,31285,2,0,P|216:336|160:312,2,99.9999999999999,8|0|8,0:0|0:0|0:0,0:0:0:0:
216,232,32628,5,0,0:0:0:0:
56,112,33524,1,0,0:0:0:0:
144,72,33972,2,8,P|232:40|344:40,1,200
432,64,35315,1,0,0:0:0:0:
488,144,35763,1,8,0:0:0:0:
432,224,36211,5,4,0:0:0:0:
360,296,36658,2,0,P|416:328|464:320,2,99.9999999999999,8|0|8,0:0|0:0|0:0,0:0:0:0:
288,224,38002,1,0,0:0:0:0:
216,296,38449,2,0,P|160:328|112:320,2,99.9999999999999,8|0|8,0:0|0:0|0:0,0:0:0:0:
144,232,39793,5,4,0:0:0:0:
56,48,40688,1,4,0:0:0:0:
256,48,41584,2,0,P|304:64|352:48,3,99.9999999999999,0|8|0|8,0:0|0:0|0:0|0:0,0:0:0:0:
448,48,43375,6,0,P|480:120|440:232,1,200,4|0,0:0|0:0,0:0:0:0:
376,304,44718,1,0,0:0:0:0:
328,320,44942,2,0,P|256:280|192:296,3,150
96,312,47405,5,0,0:0:0:0:
56,224,47852,2,0,P|48:176|64:128,1,99.9999999999999,8|0,0:0|0:0,0:0:0:0:
136,64,48748,2,0,P|200:40|280:64,2,150,2|2|4,0:0|0:0|0:0,0:0:0:0:
208,136,50539,1,0,0:0:0:0:
304,160,50987,6,0,P|344:144|368:88,1,99.9999999999999,8|0,0:0|0:0,0:0:0:0:
432,24,51882,1,8,0:0:0:0:
464,120,52330,2,0,P|440:192|328:256,1,200
240,256,53673,2,0,L|176:256,1,50,8|4,0:0|0:0,0:0:0:0:
88,256,54345,6,0,L|88:176,1,50,0|8,0:0|0:0,0:0:0:0:
88,104,55017,2,0,P|112:80|176:56,1,99.9999999999999,0|8,0:0|0:0,0:0:0:0:
272,56,55912,2,0,P|312:88|360:112,3,99.9999999999999,0|8|0|8,0:0|0:0|0:0|0:0,0:0:0:0:
256,192,57703,12,4,59494,0:0:0:0:
72,192,60390,5,0,0:0:0:0:
120,104,60837,1,8,0:0:0:0:
168,192,61285,2,0,P|224:216|312:184,2,150,0|0|8,0:0|0:0|0:0,0:0:0:0:
236,120,63076,5,0,0:0:0:0:
424,56,63972,2,0,P|448:120|448:160,1,99.9999999999999,0|8,0:0|0:0,0:0:0:0:
432,248,64867,2,0,P|392:288|344:312,3,99.9999999999999,0|8|0|8,0:0|0:0|0:0|0:0,0:0:0:0:
256,312,66658,5,4,0:0:0:0:
96,200,67554,1,0,0:0:0:0:
96,96,68002,2,0,P|136:64|192:64,1,99.9999999999999,8|0,0:0|0:0,0:0:0:0:
280,88,68897,2,0,P|320:120|376:120,1,99.9999999999999,8|0,0:0|0:0,0:0:0:0:
464,104,69793,1,8,0:0:0:0:
464,200,70240,6,0,P|432:296|288:352,1,250,4|0,0:0|0:0,0:0:0:0:
200,352,71808,2,0,P|64:320|56:136,1,350,4|8,0:0|0:0,0:0:0:0:
128,64,73822,6,0,P|184:56|240:80,1,99.9999999999999,4|8,0:0|0:0,0:0:0:0:
320,104,74718,1,0,0:0:0:0:
408,64,75166,1,8,0:0:0:0:
440,160,75614,2,0,P|464:232|432:304,2,150,0|0|8,0:0|0:0|0:0,0:0:0:0:
368,232,77405,5,0,0:0:0:0:
288,296,77852,1,8,0:0:0:0:
224,224,78300,2,0,P|176:224|128:264,1,99.9999999999999,0|8,0:0|0:0,0:0:0:0:
72,328,79196,2,0,P|40:272|80:184,1,150,0|2,0:0|0:0,0:0:0:0:
128,112,80315,1,2,0:0:0:0:
216,64,80763,6,0,P|344:56|432:144,1,250,4|0,0:0|0:0,0:0:0:0:
472,224,82330,1,8,0:0:0:0:
416,304,82778,2,0,P|384:328|320:320,3,99.9999999999999,0|8|0|8,0:0|0:0|0:0|0:0,0:0:0:0:
256,192,84569,12,0,87703,0:0:0:0:
