osu file format v12

[General]
AudioFilename: LB Refrain ED.mp3
AudioLeadIn: 0
PreviewTime: 57707
Countdown: 0
SampleSet: Soft
StackLeniency: 0.3
Mode: 0
LetterboxInBreaks: 0
WidescreenStoryboard: 0

[Editor]
Bookmarks: 7558,87931
DistanceSpacing: 0.5
BeatDivisor: 4
GridSize: 4

[Metadata]
Title:Kimi to no Nakushi Mono (TV Size)
TitleUnicode:君とのなくしもの (TV Size)
Artist:Kitazawa Ayaka
ArtistUnicode:北沢綾香
Creator:Momochikun
Version:Insane
Source:リトルバスターズ!~Refrain~
Tags:ending key j.c.staff Little Busters! ~Refrain~
BeatmapID:321356
BeatmapSetID:126480

[Difficulty]
HPDrainRate:7
CircleSize:4
OverallDifficulty:8
ApproachRate:8
SliderMultiplier:1.7
SliderTickRate:1

[Events]
//Background and Video events
0,0,"ED BG.jpg",0,0
Video,0,"video.avi"
//Break Periods
//Storyboard Layer 0 (Background)
//Storyboard Layer 1 (Fail)
//Storyboard Layer 2 (Pass)
//Storyboard Layer 3 (Foreground)
//Storyboard Sound Samples
//Background Colour Transformations
3,100,255,128,255

[TimingPoints]
394,447.761194029851,4,2,1,60,1,0
7558,-125,4,2,3,65,0,0
7782,-125,4,2,2,50,0,0
11140,-125,4,2,3,65,0,0
11252,-125,4,2,2,55,0,0
14722,-111.111111111111,4,2,2,55,0,0
14946,-111.111111111111,4,2,2,50,0,0
29050,-100,4,2,1,65,0,0
43379,-125,4,2,1,60,0,0
50543,-100,4,2,1,65,0,0
57707,-133.333333333333,4,2,1,55,0,0
59050,-125,4,2,1,65,0,0
59274,-125,4,2,1,55,0,0
59498,-100,4,2,1,75,0,1
73602,-100,4,2,1,65,0,0
73826,-100,4,2,1,75,0,1
84461,-100,4,2,1,75,0,0
84573,-100,4,2,1,75,0,1
84685,-100,4,2,1,60,0,0

[Colours]
Combo1 : 255,255,128
Combo2 : 128,255,128
Combo3 : 255,128,255
Combo4 : 255,128,128

[HitObjects]
136,152,7558,1,2,1:2:0:0:
240,120,7782,1,0,0:0:0:0:
292,212,8005,1,2,0:0:0:0:
240,120,8229,5,0,0:0:0:0:
332,60,8453,1,2,0:0:0:0:
428,112,8677,1,0,0:0:0:0:
332,60,8901,5,2,0:0:0:0:
400,248,9125,1,2,0:0:0:0:
400,248,9237,1,0,0:0:0:0:
400,248,9349,6,0,L|388:320,1,68,2|0,0:0|0:0,0:0:0:0:
292,212,9796,2,0,L|304:144,1,68,2|0,0:0|0:0,0:0:0:0:
144,160,10244,1,0,0:0:0:0:
144,160,10356,1,2,0:0:0:0:
144,160,10468,2,0,P|184:164|216:152,1,68,0|2,0:0|0:0,0:0:0:0:
292,116,10916,1,0,0:0:0:0:
172,56,11140,6,0,P|141:47|104:52,1,68,2|0,1:2|0:0,0:0:0:0:
24,96,11588,1,2,3:2:0:0:
172,56,11811,5,0,0:0:0:0:
24,96,12035,1,2,3:2:0:0:
80,196,12259,1,0,3:2:0:0:
144,292,12483,1,2,3:2:0:0:
80,196,12707,1,0,0:0:0:0:
192,224,12931,6,0,P|224:228|264:212,1,68,2|0,3:2|1:0,0:0:0:0:
284,204,13267,1,0,3:0:0:0:
344,80,13491,2,0,L|336:132,1,34,0|0,1:0|3:0,0:0:0:0:
292,272,13826,5,0,3:0:0:0:
284,296,13938,1,0,1:0:0:0:
276,320,14050,1,0,0:0:0:0:
188,128,14274,1,0,3:0:0:0:
180,104,14386,1,0,1:0:0:0:
172,80,14498,1,0,0:0:0:0:
96,224,14722,5,4,1:0:0:0:
208,240,14946,1,0,0:0:0:0:
312,196,15170,2,0,P|388:188|464:164,1,152.999995330811,2|0,0:0|0:0,0:0:0:0:
440,280,15841,2,0,L|364:296,1,76.4999976654053,2|0,0:0|0:0,0:0:0:0:
312,196,16289,6,0,P|284:124|240:60,1,152.999995330811,2|2,0:0|0:0,0:0:0:0:
352,96,16961,2,0,P|366:60|388:28,1,76.4999976654053,0|2,0:0|0:0,0:0:0:0:
464,156,17408,2,0,P|485:187|499:223,1,76.4999976654053,0|2,0:0|0:0,0:0:0:0:
464,332,17856,1,0,0:0:0:0:
312,288,18080,6,0,P|256:284|156:336,1,152.999995330811,2|0,0:0|0:0,0:0:0:0:
322,191,18752,2,0,P|378:195|478:143,1,152.999995330811,2|0,0:0|0:0,0:0:0:0:
464,156,19423,1,2,0:0:0:0:
404,58,19647,1,0,0:0:0:0:
280,108,19871,6,0,B|231:113|231:113|185:94|185:94|125:105,1,152.999995330811,2|0,0:0|0:0,0:0:0:0:
47,182,20543,1,0,0:0:0:0:
153,238,20767,2,0,P|171:166|131:103,1,152.999995330811,2|0,0:0|0:0,0:0:0:0:
229,43,21438,2,0,L|386:54,1,152.999995330811,2|4,0:0|1:0,0:0:0:0:
478,116,22110,5,0,0:0:0:0:
372,161,22334,2,0,P|313:187|238:236,1,152.999995330811,2|0,0:0|0:0,0:0:0:0:
238,235,23005,1,2,0:0:0:0:
299,332,23229,1,0,0:0:0:0:
311,217,23453,6,0,P|285:158|236:83,1,152.999995330811,2|0,0:0|0:0,0:0:0:0:
148,157,24125,2,0,P|160:186|185:223,1,76.4999976654053,2|0,0:0|0:0,0:0:0:0:
121,320,24573,2,0,P|147:339|186:359,1,76.4999976654053,2|0,0:0|0:0,0:0:0:0:
299,332,25020,1,2,0:0:0:0:
389,228,25244,1,0,0:0:0:0:
319,138,25468,6,0,P|273:145|243:147,1,76.4999976654053,2|0,1:2|0:0,0:0:0:0:
158,225,25916,2,0,P|252:239|314:243,1,152.999995330811,2|0,0:0|0:0,0:0:0:0:
423,222,26588,2,0,L|410:303,1,76.4999976654053,2|0,0:0|0:0,0:0:0:0:
488,158,27035,1,2,0:0:0:0:
341,91,27259,6,0,L|425:77,1,76.4999976654053,0|2,1:0|3:2,0:0:0:0:
228,178,27707,2,0,L|303:190,1,76.4999976654053,0|2,3:2|0:0,0:0:0:0:
413,332,28155,2,0,P|432:271|419:212,1,114.749996498108,0|4,1:0|1:3,0:0:0:0:
406,194,28602,1,0,1:3:0:0:
272,79,28826,1,0,1:0:0:0:
80,216,29050,6,0,P|139:232|228:177,1,170,4|0,1:0|1:0,0:0:0:0:
140,128,29722,1,2,0:0:0:0:
188,244,29946,2,0,L|172:332,1,85,0|2,1:0|0:0,0:0:0:0:
308,300,30394,2,0,L|323:216,1,85,0|2,1:0|0:0,0:0:0:0:
404,156,30841,6,0,P|408:112|392:72,1,85,0|2,1:0|0:0,0:0:0:0:
420,32,31177,1,0,0:0:0:0:
420,32,31289,2,0,L|504:20,1,85,0|0,1:0|0:0,0:0:0:0:
332,124,31737,2,0,L|248:136,1,85,2|0,1:2|0:0,0:0:0:0:
148,108,32185,1,0,1:0:0:0:
56,260,32408,2,0,P|58:217|76:179,1,85,2|0,0:0|1:0,0:0:0:0:
148,108,32856,5,0,0:0:0:0:
284,182,33080,2,0,P|219:242|135:235,1,170,2|0,1:2|1:0,0:0:0:0:
234,282,33752,2,0,P|262:318|268:364,1,85,2|0,0:0|1:0,0:0:0:0:
141,238,34199,1,2,0:0:0:0:
89,150,34423,6,0,P|97:108|123:76,2,85,0|2|0,1:0|0:0|1:0,0:0:0:0:
141,238,35095,1,2,0:0:0:0:
213,162,35319,1,0,1:0:0:0:
320,200,35543,1,2,0:0:0:0:
277,20,35767,2,0,L|267:109,1,85,0|0,1:0|1:0,0:0:0:0:
336,300,36214,6,0,P|280:286|246:251,1,85,4|2,1:0|0:0,0:0:0:0:
364,232,36662,2,0,P|412:276|400:336,1,127.5,0|0,1:0|0:2,0:0:0:0:
364,364,37110,1,2,1:2:0:0:
266,241,37334,2,0,P|262:199|284:163,1,85,0|0,0:0|1:2,0:0:0:0:
361,96,37782,1,2,0:0:0:0:
420,178,38005,6,0,L|506:171,1,85,0|2,1:0|0:0,0:0:0:0:
361,96,38453,1,0,1:0:0:0:
269,50,38677,2,0,P|263:101|279:150,1,85,2|0,0:0|1:0,0:0:0:0:
304,172,39013,1,0,0:0:0:0:
336,212,39125,2,0,P|295:225|263:252,1,85,2|0,0:0|1:0,0:0:0:0:
392,328,39573,1,2,0:0:0:0:
444,192,39796,6,0,P|452:150|445:108,1,85,4|2,1:0|0:0,0:0:0:0:
349,71,40244,2,0,P|289:75|200:52,1,127.5,0|0,1:0|3:0,0:0:0:0:
160,32,40692,1,4,1:0:0:0:
136,143,40916,2,0,P|166:141|221:153,1,85,2|0,0:0|1:0,0:0:0:0:
297,218,41364,1,2,0:0:0:0:
436,125,41588,5,4,1:0:0:0:
394,308,41811,1,0,1:0:0:0:
297,218,42035,1,0,1:0:0:0:
183,339,42259,1,0,1:0:0:0:
66,190,42483,5,0,1:0:0:0:
58,170,42594,1,0,1:0:0:0:
55,149,42706,1,0,1:0:0:0:
57,127,42818,1,0,1:0:0:0:
63,107,42930,1,0,1:0:0:0:
73,89,43042,1,0,1:0:0:0:
87,73,43154,1,0,1:0:0:0:
104,60,43266,1,0,1:0:0:0:
124,52,43379,6,0,P|181:49|256:80,1,136,8|2,1:3|0:0,0:0:0:0:
316,156,44050,1,0,0:0:0:0:
400,224,44274,2,0,P|428:228|472:212,1,68,0|0,3:0|0:0,0:0:0:0:
344,288,44722,1,2,0:0:0:0:
244,248,44946,6,0,P|193:240|104:264,1,136,4|2,1:0|0:0,0:0:0:0:
344,288,45617,2,0,P|394:295|476:272,1,136,4|2,1:0|3:2,0:0:0:0:
404,152,46289,2,0,L|424:16,1,136,4|2,1:0|0:0,0:0:0:0:
304,176,46961,6,0,L|296:244,1,68,4|0,1:0|0:0,0:0:0:0:
228,324,47408,1,2,0:0:0:0:
136,268,47632,1,0,0:0:0:0:
28,284,47856,1,0,3:0:0:0:
136,268,48080,1,2,1:2:0:0:
216,168,48304,1,0,3:0:0:0:
228,156,48416,1,0,3:0:0:0:
240,144,48528,6,0,P|252:88|220:16,1,136,4|0,1:0|0:0,0:0:0:0:
72,220,49199,2,0,P|60:276|96:348,1,136,4|0,1:0|3:0,0:0:0:0:
136,176,49871,2,0,L|128:104,1,68,0|8,1:0|0:3,0:0:0:0:
8,256,50319,1,0,1:0:0:0:
152,296,50543,6,0,P|188:300|240:276,1,85,4|0,1:0|0:0,0:0:0:0:
328,192,50991,2,0,P|369:188|408:205,1,85,2|0,3:2|0:0,0:0:0:0:
352,288,51438,1,8,0:0:0:0:
328,192,51662,1,2,0:0:0:0:
356,92,51886,1,0,3:0:0:0:
328,192,52110,1,0,0:0:0:0:
204,228,52334,6,0,P|156:228|112:208,1,85,10|0,0:0|0:0,0:0:0:0:
24,184,52782,2,0,L|12:272,1,85,0|2,3:0|0:0,0:0:0:0:
120,88,53229,1,8,0:0:0:0:
204,228,53453,1,2,0:0:0:0:
198,270,53564,1,0,3:0:0:0:
192,312,53676,1,0,3:0:0:0:
304,248,53901,6,4,B|384:260|384:260|436:240,1,127.5,4|0,0:0|3:0,0:0:0:0:
476,224,54349,2,0,L|484:320,1,85,8|0,0:0|3:0,0:0:0:0:
372,168,54796,2,0,L|364:83,1,85,2|8,0:0|0:0,0:0:0:0:
256,32,55244,1,0,3:0:0:0:
256,32,55356,1,0,3:0:0:0:
256,32,55468,1,8,0:0:0:0:
212,220,55692,6,0,P|140:216|100:176,1,127.5,4|0,0:0|3:0,0:0:0:0:
68,120,56140,1,8,0:0:0:0:
200,68,56364,1,0,3:0:0:0:
288,160,56588,6,0,P|304:200|300:248,1,85,2|8,0:0|0:0,0:0:0:0:
224,320,57035,1,2,0:0:0:0:
424,212,57259,1,0,3:0:0:0:
284,84,57483,1,0,3:0:0:0:
252,88,57595,1,0,3:0:0:0:
224,92,57707,6,0,L|116:108,1,95.6250036478044,8|8,0:0|0:0,0:0:0:0:
56,88,58155,2,0,P|48:52|52:20,1,63.7500024318696,0|8,3:0|0:0,0:0:0:0:
136,200,58602,2,0,P|138:231|130:262,1,63.7500024318696,8|0,0:0|0:0,0:0:0:0:
16,216,59050,1,8,0:3:0:0:
192,136,59274,5,2,0:0:0:0:
296,272,59498,2,0,P|344:268|380:244,1,85,4|2,1:0|0:0,0:0:0:0:
456,136,59946,2,0,P|419:115|377:113,1,85,0|2,3:0|0:0,0:0:0:0:
236,200,60394,2,0,P|193:197|157:177,1,85,8|2,0:0|0:0,0:0:0:0:
100,92,60841,1,0,3:0:0:0:
208,40,61065,1,0,0:0:0:0:
60,112,61289,6,0,B|72:172|72:172|44:196|48:232,1,127.5,10|0,0:0|0:0,0:0:0:0:
60,252,61737,1,0,3:0:0:0:
160,280,61961,2,0,P|176:320|172:360,1,85,2|8,0:0|0:0,0:0:0:0:
208,208,62408,2,0,L|292:196,1,85,2|0,0:0|3:0,0:0:0:0:
364,128,62856,1,2,0:0:0:0:
316,308,63080,6,0,P|308:260|320:212,1,85,8|2,0:0|0:0,0:0:0:0:
336,200,63416,1,0,0:0:0:0:
336,200,63528,2,0,P|372:204|424:176,1,85,0|0,3:0|0:0,0:0:0:0:
272,56,63976,2,0,L|264:140,1,85,10|0,0:0|0:0,0:0:0:0:
224,240,64423,1,0,3:0:0:0:
44,304,64647,6,0,P|96:300|132:276,1,85,2|8,0:0|0:0,0:0:0:0:
156,232,64983,1,0,0:0:0:0:
156,232,65095,2,0,L|148:148,1,85,2|0,0:0|3:0,0:0:0:0:
244,292,65543,1,2,0:0:0:0:
312,176,65767,1,8,0:0:0:0:
244,80,65991,1,2,0:0:0:0:
344,236,66214,2,0,P|384:244|472:188,1,127.5,0|0,3:0|3:0,0:0:0:0:
500,184,66662,6,0,L|496:276,1,85,4|2,1:0|0:0,0:0:0:0:
436,108,67110,1,0,3:0:0:0:
312,176,67334,1,2,0:0:0:0:
300,188,67446,1,0,0:0:0:0:
288,200,67558,2,0,P|248:204|204:180,1,85,8|0,0:0|0:0,0:0:0:0:
112,80,68005,1,0,3:0:0:0:
48,200,68229,6,0,L|56:300,1,85,2|8,0:0|0:0,0:0:0:0:
200,344,68677,2,0,L|193:259,1,85,2|0,0:0|3:0,0:0:0:0:
264,185,69125,1,2,0:0:0:0:
371,110,69349,1,8,0:0:0:0:
387,238,69573,1,0,0:0:0:0:
387,238,69685,1,0,3:0:0:0:
387,238,69796,1,0,3:0:0:0:
272,88,70020,1,2,0:0:0:0:
192,260,70244,6,0,P|136:226|72:214,1,127.5,4|0,1:0|0:0,0:0:0:0:
32,220,70692,1,0,3:0:0:0:
209,142,70916,1,0,0:0:0:0:
78,324,71140,1,8,0:0:0:0:
255,244,71364,1,10,0:0:0:0:
99,130,71588,1,0,3:0:0:0:
190,327,71811,6,0,B|230:354|268:324|268:324|326:330,1,127.5,4|0,0:0|3:0,0:0:0:0:
361,334,72259,1,2,0:0:0:0:
439,202,72483,1,0,3:0:0:0:
393,84,72707,1,2,0:0:0:0:
388,64,72819,1,8,0:0:0:0:
384,44,72931,1,0,3:0:0:0:
296,196,73155,1,0,3:0:0:0:
240,56,73379,1,8,0:0:0:0:
88,76,73602,5,2,0:0:0:0:
152,272,73826,2,0,P|164:224|156:172,1,85,4|2,1:0|0:0,0:0:0:0:
72,320,74274,1,0,3:0:0:0:
204,348,74498,2,0,P|236:356|284:336,1,85,2|8,0:0|0:0,0:0:0:0:
328,244,74946,1,2,0:0:0:0:
440,332,75170,1,0,3:0:0:0:
464,180,75394,1,0,0:0:0:0:
332,68,75617,6,0,P|276:100|280:164,1,127.5,10|0,0:0|0:0,0:0:0:0:
308,200,76065,1,0,3:0:0:0:
188,140,76289,2,0,L|176:56,1,85,2|8,0:0|0:0,0:0:0:0:
92,208,76737,2,0,L|104:292,1,85,2|0,0:0|3:0,0:0:0:0:
208,344,77185,1,2,0:0:0:0:
308,272,77408,5,8,0:0:0:0:
188,140,77632,1,2,0:0:0:0:
328,80,77856,1,0,3:0:0:0:
229,183,78080,1,2,0:0:0:0:
291,27,78304,1,8,0:0:0:0:
300,192,78528,1,2,0:0:0:0:
226,22,78752,1,0,3:0:0:0:
140,200,78976,6,0,L|144:288,1,85,2|8,0:0|0:0,0:0:0:0:
64,148,79423,1,8,0:0:0:0:
244,88,79647,1,0,3:0:0:0:
344,216,79871,6,0,P|388:228|424:252,1,85,4|0,0:0|0:0,0:0:0:0:
172,124,80319,2,0,P|128:112|92:88,1,85,4|0,0:0|0:0,0:0:0:0:
304,16,80767,6,0,P|348:56|336:120,1,127.5,4|0,0:0|0:0,0:0:0:0:
296,144,81214,1,8,0:0:0:0:
440,84,81438,1,0,3:0:0:0:
376,228,81662,5,2,0:0:0:0:
488,300,81886,1,8,0:0:0:0:
316,344,82110,1,8,3:2:0:0:
296,340,82222,1,0,3:0:0:0:
280,336,82334,1,0,3:0:0:0:
208,200,82558,5,12,0:0:0:0:
220,188,82670,1,0,0:0:0:0:
232,176,82782,2,0,P|236:136|232:88,1,85,2|8,0:0|0:0,0:0:0:0:
136,32,83229,1,0,3:0:0:0:
220,188,83453,5,10,0:0:0:0:
40,112,83677,1,8,0:0:0:0:
100,236,83901,1,0,3:0:0:0:
110,254,84012,1,0,3:0:0:0:
121,272,84124,1,0,3:0:0:0:
272,128,84349,5,0,3:0:0:0:
282,109,84461,1,0,3:0:0:0:
293,91,84573,2,0,P|384:108|460:148,1,170,4|0,1:0|3:0,0:0:0:0:
508,228,85244,1,0,0:0:0:0:
344,192,85468,2,0,P|253:209|177:249,1,170,10|0,0:0|3:0,0:0:0:0:
132,332,86140,1,0,0:0:0:0:
252,212,86364,6,0,P|252:164|232:112,1,85,10|0,0:0|0:0,0:0:0:0:
320,68,86811,2,0,L|416:48,1,85,0|2,3:0|0:0,0:0:0:0:
240,128,87259,2,0,L|198:136,2,42.5,0|8|8,3:0|0:0|0:2,0:0:0:0:
384,164,87707,1,0,3:0:0:0:
404,159,87818,1,8,3:2:0:0:
425,155,87930,1,2,0:0:0:0:
