osu file format v14

[General]
AudioFilename: Kitazawa Ayaka - kimi to no nakushi mono.mp3
AudioLeadIn: 1000
PreviewTime: 59277
Countdown: 0
SampleSet: Soft
StackLeniency: 0.7
Mode: 0
LetterboxInBreaks: 0
WidescreenStoryboard: 0

[Editor]
DistanceSpacing: 1.1
BeatDivisor: 4
GridSize: 4
TimelineZoom: 1

[Metadata]
Title:Kimi to no Nakushi Mono (TV Size)
TitleUnicode:君とのなくしもの (TV Size)
Artist:Kitazawa Ayaka
ArtistUnicode:北沢綾香
Creator:Kawaiwkyik
Version:Hard
Source:Little Busters! ~Refrain~
Tags:リトルバスターズ! ending wkyik
BeatmapID:322051
BeatmapSetID:126785

[Difficulty]
HPDrainRate:5
CircleSize:4
OverallDifficulty:6
ApproachRate:7
SliderMultiplier:1.60000002384186
SliderTickRate:1

[Events]
//Background and Video events
0,0,"bg.jpg",0,0
Video,0,"vdo.avi"
//Break Periods
//Storyboard Layer 0 (Background)
//Storyboard Layer 1 (Fail)
//Storyboard Layer 2 (Pass)
//Storyboard Layer 3 (Foreground)
//Storyboard Sound Samples

[TimingPoints]
397,447.761194029851,4,2,1,45,1,0
844,-100,4,2,1,25,0,0
1068,-100,4,2,1,45,0,0
1740,-100,4,2,1,25,0,0
1964,-100,4,2,1,45,0,0
2859,-100,4,2,1,30,0,0
3195,-100,4,2,1,35,0,0
3531,-100,4,2,1,40,0,0
3979,-100,4,2,1,35,0,0
4091,-100,4,2,1,45,0,0
4650,-100,4,2,1,35,0,0
4986,-100,4,2,1,35,0,0
5322,-100,4,2,1,40,0,0
7561,-100,4,1,1,30,0,0
11143,-100,4,2,1,50,0,0
14725,-100,4,1,1,45,0,0
29053,-100,4,2,1,55,0,0
39128,-100,4,2,1,25,0,0
39576,-100,4,2,1,55,0,0
42934,-100,4,2,1,45,0,0
43382,-125,4,2,0,55,0,0
43494,-125,4,2,1,45,0,0
50098,-125,4,2,0,45,0,0
50322,-125,4,2,1,45,0,0
50546,-100,4,2,1,55,0,0
59053,-100,4,2,0,40,0,0
59501,-100,4,2,1,60,0,1
73717,-100,4,2,1,60,0,0
73829,-100,4,2,1,60,0,1
87486,-100,4,2,1,40,0,1
87710,-100,4,2,1,60,0,0

[Colours]
Combo1 : 0,0,121
Combo2 : 0,128,255
Combo3 : 255,128,192
Combo4 : 255,236,0
Combo5 : 128,0,0
Combo6 : 255,255,255

[HitObjects]
203,153,397,6,0,P|156:168|108:160,2,80.000001192093,2|0|0,0:0|0:0|0:0,0:0:0:0:
272,116,1068,1,2,0:0:0:0:
320,180,1292,2,0,L|332:264,2,80,0|2|0,0:0|0:0|0:0,0:0:0:0:
352,108,1964,1,0,0:0:0:0:
352,108,2076,1,2,0:0:0:0:
352,108,2188,5,0,0:0:0:0:
400,172,2411,1,2,0:0:0:0:
240,188,2635,1,0,0:0:0:0:
272,116,2859,1,2,0:0:0:0:
320,180,3083,2,0,L|324:236,1,40,0|2,0:0|0:0,0:0:0:0:
288,336,3531,1,0,0:0:0:0:
212,360,3755,1,0,0:0:0:0:
196,356,3867,1,2,0:0:0:0:
180,352,3979,6,0,P|144:332|88:336,1,80,0|2,0:0|0:0,0:0:0:0:
92,228,4426,2,0,P|128:248|184:244,1,80,0|2,0:0|0:0,0:0:0:0:
240,220,4874,1,0,0:0:0:0:
240,220,4986,2,0,B|256:192|312:188|344:204|344:204|376:180,1,120,2|0,0:0|0:0,0:0:0:0:
420,144,5546,1,0,0:0:0:0:
420,144,5658,1,2,0:0:0:0:
420,144,5770,6,0,P|424:188|444:236,1,80,0|2,0:0|0:0,0:0:0:0:
496,168,6217,2,0,P|492:124|472:76,1,80,0|0,0:0|0:0,0:0:0:0:
392,64,6665,1,0,0:0:0:0:
268,104,6889,1,0,0:0:0:0:
284,112,7001,1,2,0:0:0:0:
300,120,7113,1,0,0:0:0:0:
340,188,7337,1,0,0:0:0:0:
276,236,7561,6,0,L|192:240,1,80
272,156,8008,2,0,L|356:152,1,80,8|0,0:0|0:0,0:0:0:0:
264,264,8456,2,0,L|180:268,1,80
284,128,8904,2,0,L|368:124,1,80,8|0,0:0|0:0,0:0:0:0:
363,124,9240,1,0,0:0:0:0:
363,124,9352,5,0,0:0:0:0:
412,208,9576,1,0,0:0:0:0:
316,208,9799,1,8,0:0:0:0:
456,124,10023,1,0,0:0:0:0:
492,288,10247,2,0,L|500:348,2,40
364,296,10695,2,0,P|332:320|276:320,1,80,8|0,0:0|0:0,0:0:0:0:
216,304,11143,5,8,0:0:0:0:
148,248,11367,2,0,L|100:252,2,40,8|8|8,0:0|0:0|0:0,0:0:0:0:
264,192,11814,2,0,L|312:196,2,40,0|0|8,0:0|0:0|0:0,0:0:0:0:
144,148,12262,1,8,0:0:0:0:
212,108,12486,1,8,0:0:0:0:
140,68,12710,1,8,0:0:0:0:
212,32,12934,5,8,0:0:0:0:
328,100,13158,1,0,0:0:0:0:
328,100,13382,2,0,P|376:88|420:80,1,80.000001192093,8|8,0:0|0:0,0:0:0:0:
400,224,13829,1,8,0:0:0:0:
400,232,13941,1,0,0:0:0:0:
400,240,14053,1,8,0:0:0:0:
312,204,14277,1,8,0:0:0:0:
312,196,14389,1,0,0:0:0:0:
312,188,14501,1,8,0:0:0:0:
383,123,14725,6,0,P|304:92|237:127,1,160,4|8,0:0|0:0,0:0:0:0:
148,256,15620,1,0,0:0:0:0:
200,316,15844,1,2,0:0:0:0:
280,304,16068,1,8,0:0:0:0:
308,228,16292,2,0,P|313:149|270:83,1,160.000002384186,2|0,0:0|0:0,0:0:0:0:
192,68,16964,1,8,0:0:0:0:
120,104,17188,1,2,0:0:0:0:
84,176,17411,2,0,P|96:220|100:264,2,80,0|0|8,0:0|0:0|0:0,0:0:0:0:
12,192,18083,2,0,P|76:216|176:184,1,160.000002384186,2|0,0:0|0:0,0:0:0:0:
208,128,18755,6,0,L|227:299,1,160.000002384186,10|0,0:0|0:0,0:0:0:0:
296,324,19426,1,2,0:0:0:0:
364,284,19650,1,8,0:0:0:0:
352,204,19874,2,0,P|336:152|372:40,1,160.000002384186,2|0,0:0|0:0,0:0:0:0:
436,24,20546,1,8,0:0:0:0:
508,60,20770,2,0,P|524:112|488:224,1,160.000002384186,2|0,0:0|0:0,0:0:0:0:
404,280,21441,2,0,L|236:276,1,160.000002384186,10|4,0:0|0:0,0:0:0:0:
172,240,22113,1,2,0:0:0:0:
132,172,22337,5,0,0:0:0:0:
256,64,22785,1,0,0:0:0:0:
192,112,23008,1,2,0:0:0:0:
256,160,23232,1,8,0:0:0:0:
320,112,23456,2,0,P|388:92|488:128,1,160.000002384186,2|0,0:0|0:0,0:0:0:0:
468,240,24128,1,8,0:0:0:0:
409,304,24352,1,2,0:0:0:0:
339,344,24576,2,0,P|263:364|187:343,1,160.000002384186,0|8,0:0|0:0,0:0:0:0:
140,276,25247,1,2,0:0:0:0:
128,196,25471,5,4,3:0:0:0:
384,196,25919,1,10,0:0:0:0:
256,100,26367,1,0,0:0:0:0:
196,152,26591,1,2,0:0:0:0:
256,204,26814,1,8,0:0:0:0:
316,152,27038,1,2,0:0:0:0:
420,272,27486,6,0,P|360:284|328:304,1,80.000001192093,2|8,0:0|0:0,0:0:0:0:
272,332,27934,1,0,0:0:0:0:
200,292,28158,2,0,P|215:239|231:207,1,80.000001192093,8|0,3:0|0:0,0:0:0:0:
226,217,28494,1,0,0:0:0:0:
226,217,28605,1,10,3:0:0:0:
292,172,28829,1,8,3:0:0:0:
128,256,29053,6,0,L|48:264,1,80.000001192093,4|0,0:0|0:0,0:0:0:0:
148,172,29501,2,0,L|68:180,1,80.000001192093,0|0,0:0|0:0,0:0:0:0:
208,228,29949,1,0,0:0:0:0:
228,152,30173,2,0,P|236:108|224:72,2,80.000001192093,0|2|0,0:0|0:0|0:0,0:0:0:0:
208,228,30844,6,0,P|252:240|300:228,1,80.000001192093,2|0,0:0|0:0,0:0:0:0:
389,166,31292,2,0,P|351:154|312:160,1,80.000001192093
285,234,31740,1,0,0:0:0:0:
296,316,31964,1,0,0:0:0:0:
220,348,32188,1,2,0:0:0:0:
172,284,32411,1,0,0:0:0:0:
208,212,32635,5,2,0:0:0:0:
128,212,32859,2,0,L|40:208,1,80.000001192093
60,128,33307,1,0,0:0:0:0:
80,52,33531,2,0,P|120:80|136:136,1,80.000001192093
168,180,33979,1,2,0:0:0:0:
152,260,34202,2,0,P|200:312|288:292,1,160.000002384186,2|0,0:0|0:0,0:0:0:0:
312,228,34874,1,0,0:0:0:0:
312,228,35098,2,0,L|372:56,1,160.000002384186,2|0,0:0|0:0,0:0:0:0:
436,112,35770,2,0,P|460:172|440:272,1,160.000002384186,2|6,0:0|0:0,0:0:0:0:
388,324,36441,5,0,0:0:0:0:
388,324,36665,2,0,L|280:312,1,80.000001192093
228,312,37113,2,0,P|192:308|144:324,1,80.000001192093
76,348,37561,1,2,0:0:0:0:
16,296,37785,2,0,P|0:244|28:144,1,160.000002384186,2|0,0:0|0:0,0:0:0:0:
88,96,38456,2,0,P|96:48|80:4,1,80.000001192093
168,88,38904,2,0,L|256:92,1,80.000001192093,0|8,0:0|0:0,0:0:0:0:
256,116,39240,1,8,0:0:0:0:
264,140,39352,2,0,L|352:144,1,80.000001192093,10|0,0:0|0:0,0:0:0:0:
424,144,39799,5,14,0:0:0:0:
444,304,40247,1,0,0:0:0:0:
292,356,40695,1,12,0:0:0:0:
272,196,41143,1,0,0:0:0:0:
172,324,41591,6,0,P|136:340|88:336,1,80.000001192093,12|0,0:0|0:0,0:0:0:0:
44,276,42038,2,0,P|80:260|128:264,1,80.000001192093,12|0,0:0|0:0,0:0:0:0:
188,216,42486,2,0,L|192:136,1,80.000001192093,12|0,0:0|0:0,0:0:0:0:
112,84,42934,2,0,L|108:164,1,80.000001192093,12|0,0:0|0:0,0:0:0:0:
24,148,43382,5,12,0:0:0:0:
160,232,43829,2,0,P|200:240|252:232,1,64.0000009536744
296,184,44277,2,0,P|320:140|264:72,1,128.000001907349,12|0,0:0|0:0,0:0:0:0:
208,64,44949,2,0,L|80:84,1,128.000001907349,12|0,0:0|0:0,0:0:0:0:
132,152,45620,2,0,L|195:142,1,64.0000009536744,12|0,0:0|0:0,0:0:0:0:
260,184,46068,1,8,0:0:0:0:
284,256,46292,2,0,P|284:304|220:368,1,128.000001907349,4|0,0:0|0:0,0:0:0:0:
172,320,46964,5,12,0:0:0:0:
96,200,47411,1,0,0:0:0:0:
56,140,47635,1,0,0:0:0:0:
92,80,47859,2,0,L|160:64,1,64.0000009536744,8|8,0:0|0:0,0:0:0:0:
204,136,48307,1,8,0:0:0:0:
204,136,48419,1,8,0:0:0:0:
204,136,48531,2,0,P|240:144|272:136,1,64.0000009536744,12|0,0:0|0:0,0:0:0:0:
376,72,49202,5,8,0:0:0:0:
376,72,49426,1,8,0:0:0:0:
376,72,49650,2,0,L|380:160,1,64.0000009536744,8|0,0:0|0:0,0:0:0:0:
454,175,50098,2,0,L|452:112,1,64.0000009536744,8|0,0:0|0:0,0:0:0:0:
308,160,50546,6,0,P|264:168|216:164,1,80.000001192093,4|0,0:0|0:0,0:0:0:0:
160,124,50994,1,8,0:0:0:0:
148,44,51217,1,0,0:0:0:0:
240,116,51441,2,0,P|244:156|232:204,1,80.000001192093
104,264,51889,2,0,P|160:252|256:296,2,160.000002384186,8|0|8,0:0|0:0|0:0,0:0:0:0:
32,300,53008,2,0,L|40:124,1,160.000002384186
20,64,53680,1,8,0:0:0:0:
20,64,53904,1,4,0:0:0:0:
176,36,54352,5,0,0:0:0:0:
176,36,54576,1,8,0:0:0:0:
176,36,54799,1,0,0:0:0:0:
248,68,55023,2,0,P|268:104|256:232,1,160.000002384186,0|8,0:0|0:0,0:0:0:0:
200,312,55695,2,0,L|364:308,1,160.000002384186,4|0,0:0|0:0,0:0:0:0:
416,220,56367,2,0,L|336:221,1,80.000001192093,8|0,0:0|0:0,0:0:0:0:
248,152,56814,5,8,0:0:0:0:
268,76,57038,1,0,0:0:0:0:
336,36,57262,1,8,0:0:0:0:
416,36,57486,1,0,0:0:0:0:
476,88,57710,1,12,0:0:0:0:
256,192,57822,12,8,59053,0:0:0:0:
168,236,59501,6,0,P|128:240|76:224,1,80.000001192093,4|0,0:0|0:0,0:0:0:0:
28,180,59949,1,8,0:0:0:0:
184,144,60173,2,0,P|224:160|248:284,1,160.000002384186
256,360,60844,2,0,P|300:352|336:316,1,80.000001192093,8|0,0:0|0:0,0:0:0:0:
440,252,61292,2,0,P|476:172|448:76,1,160.000002384186,0|8,0:0|0:0,0:0:0:0:
328,80,61964,2,0,P|292:160|320:256,1,160.000002384186,0|0,0:0|0:0,0:0:0:0:
348,332,62635,2,0,P|296:324|252:328,1,80.000001192093,8|0,0:0|0:0,0:0:0:0:
160,348,63083,5,0,0:0:0:0:
80,340,63307,1,0,0:0:0:0:
52,264,63531,1,8,0:0:0:0:
92,196,63755,2,0,P|104:156|96:116,2,80.000001192093
52,264,64426,1,8,0:0:0:0:
80,340,64650,2,0,B|116:316|164:320|164:320|188:352|188:352|216:320,1,160.000002384186
264,268,65322,2,0,B|272:224|272:224|252:184,1,80.000001192093,8|0,0:0|0:0,0:0:0:0:
352,280,65770,2,0,L|368:368,2,80.000001192093,0|0|8,0:0|0:0|0:0,0:0:0:0:
436,144,66665,5,4,0:0:0:0:
368,104,66889,2,0,L|372:48,2,40.0000005960465,0|0|8,0:0|0:0|0:0,0:0:0:0:
304,152,67337,1,0,0:0:0:0:
292,164,67449,1,0,0:0:0:0:
276,172,67561,2,0,P|244:180|192:164,1,80.000001192093
240,100,68008,1,8,0:0:0:0:
304,52,68232,6,0,B|344:68|384:64|384:64|408:152,1,160.000002384186
464,192,68904,1,8,0:0:0:0:
404,244,69128,2,0,B|384:320|384:320|344:316|304:332,1,160.000002384186
224,348,69799,2,0,P|184:354|144:350,1,80.000001192093,8|0,0:0|0:0,0:0:0:0:
80,300,70247,5,4,0:0:0:0:
56,224,70471,1,0,0:0:0:0:
104,160,70695,1,8,0:0:0:0:
80,84,70919,1,0,0:0:0:0:
152,8,71143,5,0,0:0:0:0:
256,4,71367,1,0,0:0:0:0:
344,60,71591,1,8,0:0:0:0:
368,160,71814,6,0,L|372:332,1,160.000002384186,4|0,0:0|0:0,0:0:0:0:
300,356,72486,1,8,0:0:0:0:
264,284,72710,1,0,0:0:0:0:
368,160,73158,2,0,P|384:200|384:240,1,80.000001192093,0|8,0:0|0:0,0:0:0:0:
340,304,73605,1,0,0:0:0:0:
264,284,73829,6,0,P|216:272|104:308,1,160.000002384186,4|8,0:0|0:0,0:0:0:0:
52,248,74501,1,0,0:0:0:0:
4,184,74725,2,0,L|12:96,1,80.000001192093
108,92,75173,2,0,L|100:171,1,80.000001192093,8|0,0:0|0:0,0:0:0:0:
140,244,75620,6,0,P|172:264|296:216,1,160.000002384186,0|8,0:0|0:0,0:0:0:0:
352,168,76292,2,0,L|362:327,1,160.000002384186
508,360,76964,2,0,L|502:280,1,80.000001192093,8|0,0:0|0:0,0:0:0:0:
476,200,77411,5,0,0:0:0:0:
428,136,77635,1,0,0:0:0:0:
444,56,77859,1,8,0:0:0:0:
364,40,78083,1,0,0:0:0:0:
348,120,78307,2,0,P|348:160|320:208,1,80.000001192093
172,240,78755,1,8,0:0:0:0:
180,328,78979,2,0,P|252:298|329:318,1,160.000002384186
400,356,79650,1,8,0:0:0:0:
480,280,79874,6,12,L|484:108,2,160.000002384186
296,232,81217,2,0,P|304:288|316:332,1,80.000001192093,8|8,0:0|0:0,0:0:0:0:
240,352,81665,2,0,P|176:360|108:276,1,160.000002384186
136,220,82337,2,0,L|136:132,1,80.000001192093,8|4,0:0|0:0,0:0:0:0:
148,120,82673,1,0,0:0:0:0:
164,100,82785,6,0,P|232:68|324:108,1,160.000002384186,0|8,0:0|0:0,0:0:0:0:
384,68,83456,2,0,P|352:108|360:220,1,160.000002384186,0|4,0:0|0:0,0:0:0:0:
316,284,84128,2,0,P|276:276|240:293,1,80.000001192093,12|0,0:0|0:0,0:0:0:0:
156,288,84576,6,0,L|140:196,1,80.000001192093,4|0,0:0|0:0,0:0:0:0:
176,132,85023,2,0,P|240:100|320:160,1,160.000002384186,8|0,0:0|0:0,0:0:0:0:
316,220,85695,2,0,L|320:320,2,80.000001192093,0|8|0,0:0|0:0|0:0,0:0:0:0:
360,152,86367,6,0,L|460:148,1,80.000001192093,2|0,0:0|0:0,0:0:0:0:
416,72,86814,2,0,L|336:75,1,80.000001192093,8|0,0:0|0:0,0:0:0:0:
280,132,87262,1,8,0:0:0:0:
280,132,87486,1,8,0:0:0:0:
204,240,87710,2,0,L|197:279,2,40.0000005960465,8|0|2,0:0|0:0|0:0,0:0:0:0:
