osu file format v14

[General]
AudioFilename: Kitazawa Ayaka - kimi to no nakushi mono.mp3
AudioLeadIn: 1000
PreviewTime: 59277
Countdown: 0
SampleSet: Soft
StackLeniency: 0.7
Mode: 0
LetterboxInBreaks: 0
WidescreenStoryboard: 0

[Editor]
DistanceSpacing: 1
BeatDivisor: 4
GridSize: 4
TimelineZoom: 1

[Metadata]
Title:Kimi to no Nakushi Mono (TV Size)
TitleUnicode:君とのなくしもの (TV Size)
Artist:Kitazawa Ayaka
ArtistUnicode:北沢綾香
Creator:Kawaiwkyik
Version:Easy
Source:Little Busters! ~Refrain~
Tags:リトルバスターズ! ending wkyik
BeatmapID:322147
BeatmapSetID:126785

[Difficulty]
HPDrainRate:1
CircleSize:3
OverallDifficulty:1
ApproachRate:3
SliderMultiplier:1
SliderTickRate:1

[Events]
//Background and Video events
Video,0,"vdo.avi"
0,0,"bg2.jpg",0,0
//Break Periods
//Storyboard Layer 0 (Background)
//Storyboard Layer 1 (Fail)
//Storyboard Layer 2 (Pass)
//Storyboard Layer 3 (Foreground)
//Storyboard Sound Samples

[TimingPoints]
397,447.761194029851,4,2,1,45,1,0
3195,-100,4,2,1,35,0,0
3531,-100,4,2,1,40,0,0
4986,-100,4,2,1,35,0,0
5322,-100,4,2,1,40,0,0
7561,-100,4,1,1,30,0,0
11143,-100,4,2,1,50,0,0
14725,-100,4,2,1,45,0,0
29053,-100,4,2,1,55,0,0
42934,-100,4,2,1,45,0,0
43382,-100,4,2,0,60,0,0
43494,-100,4,2,1,45,0,0
50098,-100,4,2,0,45,0,0
50546,-100,4,2,1,55,0,0
50994,-100,4,1,1,55,0,0
51441,-100,4,2,1,55,0,0
52785,-100,4,1,1,55,0,0
53232,-100,4,2,1,55,0,0
53680,-100,4,1,1,55,0,0
53904,-100,4,2,1,55,0,0
59053,-100,4,2,0,40,0,0
59501,-100,4,2,1,60,0,1
63531,-100,4,1,1,60,0,1
63979,-100,4,2,1,60,0,1
67113,-100,4,1,1,60,0,1
67561,-100,4,2,1,60,0,1
68904,-100,4,1,1,60,0,1
69352,-100,4,2,1,60,0,1
70695,-100,4,1,1,60,0,1
71143,-100,4,2,1,60,0,1
73717,-100,4,2,1,60,0,0
73829,-100,4,2,1,60,0,1
74277,-100,4,1,1,60,0,1
75173,-100,4,2,1,60,0,1
76068,-100,4,1,1,60,0,1
76964,-100,4,2,1,60,0,1
83232,-100,4,1,1,60,0,1
83680,-100,4,2,1,60,0,1
85023,-100,4,1,1,60,0,1
85471,-100,4,2,1,60,0,1
86367,-100,4,1,1,60,0,1
87710,-100,4,2,1,60,0,0

[Colours]
Combo1 : 0,0,121
Combo2 : 0,128,255
Combo3 : 255,128,192
Combo4 : 255,236,0
Combo5 : 128,0,0
Combo6 : 255,255,255

[HitObjects]
16,192,397,5,2,0:2:0:0:
72,276,844,2,0,L|188:272,2,100,0|2|0,0:0|0:0|0:0,0:0:0:0:
16,192,2188,2,0,P|128:92|272:128,1,300
212,208,3979,6,0,P|353:235|459:137,1,300,0|0,0:0|0:0,0:0:0:0:
372,88,5770,2,0,P|344:229|442:335,1,300
508,260,7561,5,4,0:0:0:0:
332,356,8456,2,0,L|216:364,2,100,0|8|0,0:0|0:0|0:0,0:0:0:0:
376,160,10247,2,0,L|492:152,2,100,0|8|8,0:0|0:0|0:0,0:0:0:0:
176,160,12038,5,8,0:0:0:0:
124,352,12934,2,0,L|24:358,1,100,8|8,0:0|0:0,0:0:0:0:
52,264,13829,2,0,L|151:257,1,100,8|8,0:0|0:0,0:0:0:0:
188,164,14725,6,0,P|264:104|392:228,1,300,4|0,0:0|0:0,0:0:0:0:
372,316,16516,2,0,B|340:356|272:364|216:328|216:328|168:296|124:296|72:320,1,300,2|0,0:0|0:0,0:0:0:0:
32,232,18307,6,0,B|20:172|20:172|12:72|80:28|140:56|168:124,1,300,2|0,0:0|0:0,0:0:0:0:
124,204,20098,2,0,B|136:284|224:328|328:300|364:228,1,300,2|0,0:0|0:0,0:0:0:0:
372,140,21889,6,0,P|448:208|424:308,1,200,4|0,0:0|0:0,0:0:0:0:
356,236,23232,1,0,0:0:0:0:
280,172,23680,2,0,P|224:132|104:160,1,200,2|0,0:0|0:0,0:0:0:0:
52,248,25023,1,0,0:0:0:0:
76,344,25471,6,0,L|292:356,1,200,4|0,0:0|0:0,0:0:0:0:
352,292,26814,1,0,0:0:0:0:
308,204,27262,2,0,L|92:192,2,200,2|0|4,0:0|0:0|0:0,0:0:0:0:
400,248,29501,6,0,P|402:297|383:343,1,100
284,364,30397,2,0,L|176:368,2,100,2|2|0,0:0|0:0|0:0,0:0:0:0:
256,268,31740,2,0,L|364:264,2,100,0|2|2,0:0|0:0|0:0,0:0:0:0:
168,220,33083,5,0,0:0:0:0:
192,124,33531,2,0,P|236:84|368:128,1,200,0|2,0:0|0:0,0:0:0:0:
412,200,34874,1,0,0:0:0:0:
372,292,35322,2,0,P|324:324|260:320,1,100,0|2,0:0|0:0,0:0:0:0:
188,300,36217,6,0,B|148:284|96:292|60:336|60:336|-4:328,2,200,6|0|2,0:0|0:0|0:0,0:0:0:0:
280,340,38456,1,0,0:0:0:0:
376,308,38904,1,0,0:0:0:0:
384,208,39352,1,2,0:0:0:0:
304,148,39799,6,0,B|256:128|204:136|168:200|168:200|188:256,2,200,14|12|12,0:0|0:0|0:0,0:0:0:0:
368,224,42038,2,0,L|376:324,2,100,12|12|12,0:0|0:0|0:0,0:0:0:0:
396,128,43382,5,12,0:0:0:0:
196,112,44277,2,0,L|172:276,2,150,12|12|12,0:0|0:0|0:0,0:0:0:0:
296,92,46068,2,0,P|404:92|432:188,1,200,12|12,0:0|0:0,0:0:0:0:
352,352,47859,6,0,L|232:352,2,100,8|8|0,0:0|0:0|0:0,0:0:0:0:
404,264,49202,2,0,P|424:220|412:160,1,100,12|8,0:0|0:0,0:0:0:0:
348,96,50098,1,8,0:0:0:0:
248,112,50546,6,0,P|164:132|44:112,1,200,4|0,0:0|0:0,0:0:0:0:
20,208,51889,1,8,0:0:0:0:
48,304,52337,2,0,B|84:344|140:352|196:312|196:312|280:336|400:304,1,350,0|12,0:0|0:0,0:0:0:0:
416,216,54352,2,0,L|424:152,2,50,8|8|8,0:0|0:0|0:0,0:0:0:0:
256,192,55023,12,4,57710,0:0:0:0:
92,104,59053,6,0,L|204:104,1,100,8|4,0:0|0:0,0:0:0:0:
280,152,59949,2,0,P|304:200|224:324,2,200,8|8|8,0:0|0:0|0:0,0:0:0:0:
184,124,62188,2,0,P|144:136|80:120,1,100,0|8,0:0|0:0,0:0:0:0:
136,36,63083,6,0,B|192:16|264:36|280:108|280:108|296:236,1,300,0|8,0:0|0:0,0:0:0:0:
224,296,64874,1,0,0:0:0:0:
124,328,65322,2,0,P|72:320|24:332,2,100,8|0|8,0:0|0:0|0:0,0:0:0:0:
220,348,66665,6,0,P|308:356|384:176,1,300,4|8,0:0|0:0,0:0:0:0:
324,116,68456,2,0,B|288:96|240:88|192:116|192:116|140:144|96:148|32:124,1,300,0|8,0:0|0:0,0:0:0:0:
20,224,70247,6,0,P|40:304|216:252,1,300,4|8,0:0|0:0,0:0:0:0:
228,172,72038,2,0,L|340:164,1,100,0|8,0:0|0:0,0:0:0:0:
428,176,72934,2,0,P|447:221|441:270,1,100,0|8,0:0|0:0,0:0:0:0:
364,336,73829,6,0,P|308:356|160:308,1,200,4|0,0:0|0:0,0:0:0:0:
128,236,75173,1,8,0:0:0:0:
110,139,75620,2,0,B|167:134|167:134|192:52|276:52,1,200
264,152,76964,1,8,0:0:0:0:
336,220,77411,6,0,P|344:252|332:324,1,100,0|8,0:0|0:0,0:0:0:0:
240,348,78307,2,0,P|232:316|244:244,1,100,0|8,0:0|0:0,0:0:0:0:
264,152,79202,2,0,L|144:156,1,100,0|8,0:0|0:0,0:0:0:0:
132,116,79874,2,0,P|152:76|304:64,1,200,12|4,0:0|0:0,0:0:0:0:
304,152,81217,6,0,L|372:144,2,50,8|0|8,0:0|0:0|0:0,0:0:0:0:
184,60,82337,1,8,0:0:0:0:
88,92,82785,6,8,P|64:168|212:308,1,300,4|8,0:0|0:0,0:0:0:0:
304,308,84576,2,0,P|426:234|419:92,2,300,4|8|0,0:0|0:0|0:0,0:0:0:0:
204,300,87710,2,0,L|192:248,1,50,8|2,0:0|0:0,0:0:0:0:
