osu file format v14

[General]
AudioFilename: audio.mp3
AudioLeadIn: 0
PreviewTime: 46059
Countdown: 0
SampleSet: Soft
StackLeniency: 0.7
Mode: 0
LetterboxInBreaks: 0
WidescreenStoryboard: 0

[Editor]
Bookmarks: 1330,3492,12140,20789,29438,38086,46735,55384,64032,72681,85654
DistanceSpacing: 1.2
BeatDivisor: 6
GridSize: 4
TimelineZoom: 1.3

[Metadata]
Title:Vivace!
TitleUnicode:ヴィヴァーチェ!
Artist:Kitauji Quartet
ArtistUnicode:北宇治カルテット
Creator:Azure
Version:Normal
Source:響け! ユーフォニアム2
Tags:Hibike! Sound! Euphonium ed ending ZAQ TV Size
BeatmapID:1102189
BeatmapSetID:518360

[Difficulty]
HPDrainRate:4
CircleSize:3
OverallDifficulty:4
ApproachRate:5
SliderMultiplier:0.7
SliderTickRate:1

[Events]
//Background and Video events
0,0,"viva.jpg",0,0
Video,1985,"Video.avi"
//Break Periods
//Storyboard Layer 0 (Background)
//Storyboard Layer 1 (Fail)
//Storyboard Layer 2 (Pass)
//Storyboard Layer 3 (Foreground)
//Storyboard Sound Samples

[TimingPoints]
3333,270.27027027027,4,2,1,60,1,0
3492,270.27027027027,4,2,1,60,1,0
11329,-100,4,2,2,60,0,0
11600,-100,4,2,1,60,0,0
12140,-100,4,2,2,60,0,0
18627,-100,4,2,1,60,0,0
20789,-100,4,2,1,60,0,0
25383,-100,4,2,3,45,0,0
25654,-100,4,2,1,60,0,0
26464,-100,4,2,3,45,0,0
26735,-100,4,2,1,60,0,0
42681,-100,4,2,3,45,0,0
42951,-100,4,2,1,60,0,0
46735,-100,4,2,1,60,0,1
51329,-100,4,2,3,45,0,1
51600,-100,4,2,1,60,0,1
51870,-100,4,2,3,45,0,1
52140,-100,4,2,1,60,0,1
55654,-100,4,2,3,45,0,1
55924,-100,4,2,1,60,0,1
57275,-100,4,2,3,45,0,1
57546,-100,4,2,1,60,0,1
61059,-100,4,2,3,45,0,1
61329,-100,4,2,1,60,0,1
62951,-100,4,2,1,75,0,1
64032,-100,4,2,1,60,0,1
68627,-100,4,2,3,45,0,1
68897,-100,4,2,1,60,0,1
70789,-100,4,2,3,45,0,1
71059,-100,4,2,1,60,0,1
72951,-100,4,2,3,45,0,1
73221,-100,4,2,1,60,0,1
74032,-100,4,2,3,45,0,1
74302,-100,4,2,1,60,0,1
75113,-100,4,2,3,45,0,1
75383,-100,4,2,1,60,0,1
77275,-100,4,2,3,45,0,1
77546,-100,4,2,1,60,0,1
78086,-100,4,2,1,60,0,0
79167,-100,4,2,1,60,0,1
81600,-100,4,2,3,45,0,1
81870,-100,4,2,1,60,0,1
84302,-100,4,2,3,45,0,1
84573,-100,4,2,1,60,0,1
85383,-100,4,2,3,45,0,1
85654,-100,4,2,1,60,0,1
87185,-100,4,2,1,5,0,1
87275,-100,4,2,1,60,0,1
87546,-100,4,2,1,60,0,0
87816,-100,4,2,1,40,0,0
88356,-100,4,2,1,30,0,0
88897,-100,4,2,1,20,0,0
89437,-100,4,2,1,10,0,0
89978,-100,4,2,1,5,0,0

[Colours]
Combo1 : 234,157,106
Combo2 : 240,98,101
Combo3 : 133,188,243
Combo4 : 219,136,190
Combo5 : 255,220,115
Combo6 : 132,213,125

[HitObjects]
152,140,3333,5,0,0:0:0:0:
152,140,3492,2,0,P|145:198|175:242,2,105,6|2|2,0:0|0:0|0:0,0:0:0:0:
228,176,4573,2,0,B|328:192|328:192|372:184,1,140,2|2,0:0|0:0,0:0:0:0:
428,132,5383,1,2,0:0:0:0:
444,216,5654,6,0,L|448:332,2,105,2|0|2,0:0|0:0|0:0,0:0:0:0:
428,132,6735,1,2,0:0:0:0:
408,52,7005,1,0,3:3:0:0:
408,52,7275,2,0,L|316:44,1,70,4|4,3:3|3:3,0:0:0:0:
256,44,7816,6,0,P|224:52|176:48,1,70,0|0,3:0|1:0,0:0:0:0:
104,44,8356,2,0,L|92:140,1,70,0|0,1:0|3:0,0:0:0:0:
68,280,9167,1,0,1:0:0:0:
132,336,9437,2,0,L|288:320,1,140,0|0,1:0|3:0,0:0:0:0:
440,340,10519,6,0,P|440:304|448:264,1,70
396,205,11059,1,8,1:2:0:0:
444,136,11329,2,0,P|452:108|440:48,2,70,0|0|0,1:0|1:0|1:0,0:0:0:0:
368,96,12140,5,0,3:0:0:0:
236,312,12951,1,0,3:0:0:0:
160,348,13221,2,0,L|68:344,1,70,0|0,0:0|3:0,0:0:0:0:
24,292,13762,2,0,P|12:228|40:160,1,140
84,88,14573,5,0,3:0:0:0:
164,64,14843,2,0,L|316:56,1,140
384,24,15654,1,0,3:0:0:0:
452,72,15924,2,0,P|464:108|456:164,2,70,0|0|0,0:0|3:0|0:0,0:0:0:0:
380,120,16735,5,0,3:0:0:0:
404,200,17005,2,0,P|392:268|400:352,1,140
316,356,17816,1,0,3:0:0:0:
240,320,18086,2,0,L|148:336,1,70,0|0,0:0|3:0,0:0:0:0:
92,360,18627,5,0,1:0:0:0:
256,216,19708,1,0,3:0:0:0:
172,208,19978,2,0,L|96:196,2,70,0|0|0,1:0|1:0|1:0,0:0:0:0:
220,140,20789,6,0,P|228:100|220:48,1,70,4|0,1:2|1:0,0:0:0:0:
304,48,21329,1,0,3:0:0:0:
304,48,21600,2,0,B|365:7|444:44,1,140,0|0,1:0|1:0,0:0:0:0:
484,112,22410,1,0,0:0:0:0:
448,188,22681,1,0,1:0:0:0:
484,264,22951,6,0,L|500:344,2,70,0|0|0,3:0|1:0|3:0,0:0:0:0:
400,260,23762,2,0,P|364:256|316:260,1,70,0|8,1:0|0:2,0:0:0:0:
250,283,24302,1,10,0:2:0:0:
200,216,24573,1,8,0:2:0:0:
250,147,24843,1,10,1:2:0:0:
332,172,25113,6,0,L|464:160,1,116.666666666667,0|0,3:0|0:0,0:0:0:0:
508,68,25924,1,0,1:0:0:0:
428,36,26194,2,0,L|292:48,1,116.666666666667,0|0,3:0|0:0,0:0:0:0:
204,12,27005,1,0,1:0:0:0:
124,40,27275,6,0,P|92:56|28:60,1,70,0|0,0:0|1:0,0:0:0:0:
24,140,27816,2,0,P|53:159|89:213,1,70,0|0,3:0|1:0,0:0:0:0:
124,256,28356,2,0,L|120:312,1,35,2|2,3:2|3:2,0:0:0:0:
224,364,28897,2,0,L|226:329,1,35,8|0,1:2|1:0,0:0:0:0:
288,220,29437,5,0,3:0:0:0:
352,276,29708,2,0,P|412:288|484:260,1,140,0|0,1:0|1:0,0:0:0:0:
508,180,30519,1,0,3:0:0:0:
468,108,30789,2,0,L|480:28,2,70,0|0|0,1:0|3:0|1:0,0:0:0:0:
384,112,31600,6,0,P|344:108|312:96,1,70,0|0,3:0|1:0,0:0:0:0:
312,180,32140,2,0,P|274:165|246:145,1,70,0|0,3:0|1:0,0:0:0:0:
224,228,32681,2,0,P|191:204|169:178,1,70,0|0,3:0|1:0,0:0:0:0:
92,200,33221,2,0,L|96:120,1,70,0|0,3:0|1:0,0:0:0:0:
92,48,33762,5,0,3:0:0:0:
168,84,34032,2,0,P|232:64|304:72,1,140,0|0,1:0|1:0,0:0:0:0:
380,108,34843,1,0,3:0:0:0:
432,176,35113,2,0,L|448:316,1,140,0|0,1:0|1:0,0:0:0:0:
376,360,35924,5,2,3:3:0:0:
300,328,36194,2,0,L|208:328,1,70,0|0,1:0|3:0,0:0:0:0:
152,296,36735,1,0,1:0:0:0:
68,312,37005,2,0,P|52:280|44:236,1,70,0|0,1:0|1:0,0:0:0:0:
64,208,37410,2,0,P|68:152|52:88,1,105,0|2,1:0|3:3,0:0:0:0:
128,56,38086,6,0,L|216:48,1,70,4|0,0:0|1:0,0:0:0:0:
280,72,38627,2,0,P|316:76|360:76,1,70,0|0,3:0|1:0,0:0:0:0:
432,68,39167,2,0,L|440:144,1,70,0|0,3:0|1:0,0:0:0:0:
472,216,39708,2,0,P|471:252|476:292,1,70,0|0,3:0|1:0,0:0:0:0:
416,344,40248,6,0,P|377:347|336:352,1,70,0|0,3:0|1:0,0:0:0:0:
264,332,40789,2,0,P|228:336|180:336,1,70,0|0,3:0|1:0,0:0:0:0:
116,312,41329,1,0,3:0:0:0:
44,267,41600,1,0,1:0:0:0:
65,185,41870,1,0,3:0:0:0:
148,180,42140,1,0,1:0:0:0:
216,228,42410,6,0,L|372:236,1,140,0|0,3:0|3:0,0:0:0:0:
436,212,43221,1,0,1:0:0:0:
468,136,43492,2,0,P|472:96|464:60,1,70,0|0,3:0|1:0,0:0:0:0:
392,24,44032,1,0,1:0:0:0:
392,24,44302,1,0,1:0:0:0:
308,40,44573,6,0,P|272:47|228:48,1,70,0|4,3:0|3:3,0:0:0:0:
156,68,45113,2,0,L|56:56,2,70,2|0|4,3:3|1:0|0:0,0:0:0:0:
284,168,46194,1,0,0:0:0:0:
284,168,46464,1,0,1:0:0:0:
284,168,46735,6,0,L|360:172,1,70,4|0,0:0|1:0,0:0:0:0:
428,212,47275,2,0,P|436:252|428:292,1,70,0|0,3:0|1:0,0:0:0:0:
376,344,47816,2,0,L|300:360,1,70,0|0,3:0|1:0,0:0:0:0:
232,328,48356,1,0,3:0:0:0:
148,348,48627,1,0,1:0:0:0:
68,324,48897,6,0,P|56:288|56:248,1,70,0|0,3:0|1:0,0:0:0:0:
120,200,49437,2,0,P|119:161|112:128,1,70,0|0,3:0|1:0,0:0:0:0:
68,60,49978,1,0,3:0:0:0:
140,20,50248,2,0,L|280:24,1,140,0|0,1:0|1:0,0:0:0:0:
364,32,51059,6,0,P|416:68|420:144,2,140,0|0|0,3:0|3:0|3:0,0:0:0:0:
344,112,52410,2,0,L|336:192,2,70,0|0|0,1:0|1:0|1:0,0:0:0:0:
284,52,53221,6,0,L|220:52,1,46.6666666666667,0|4,3:0|0:0,0:0:0:0:
128,80,53762,2,0,P|116:120|120:152,1,70,0|0,1:0|3:3,0:0:0:0:
164,216,54302,1,0,3:0:0:0:
244,188,54573,2,0,P|247:241|180:300,1,140,0|0,1:0|1:0,0:0:0:0:
236,368,55383,6,0,P|304:352|380:364,1,140,4|0,0:0|3:0,0:0:0:0:
452,332,56194,1,0,1:0:0:0:
472,252,56464,2,0,L|468:176,1,70,0|0,3:0|1:0,0:0:0:0:
436,104,57005,6,0,P|368:104|316:152,1,140,0|0,3:0|3:0,0:0:0:0:
276,224,57816,1,0,1:0:0:0:
200,260,58086,2,0,P|164:264|124:256,1,70,0|0,3:0|1:0,0:0:0:0:
76,196,58627,1,2,3:3:0:0:
68,112,58897,2,0,L|56:24,2,70,0|0|0,1:0|1:0|1:0,0:0:0:0:
144,144,59708,6,0,L|216:140,1,70,0|0,3:0|1:0,0:0:0:0:
292,112,60248,2,0,P|296:76|288:36,1,70,0|8,3:0|1:2,0:0:0:0:
376,32,60789,2,0,P|376:92|408:168,1,140,0|0,3:0|3:0,0:0:0:0:
472,220,61600,1,0,1:0:0:0:
440,296,61870,6,0,L|356:288,1,70,0|0,3:0|1:0,0:0:0:0:
296,332,62410,2,0,L|212:324,1,70,0|0,3:0|1:0,0:0:0:0:
144,324,62951,2,0,L|74:330,2,70,0|0|0,3:0|3:0|3:0,0:0:0:0:
188,252,63762,1,0,3:0:0:0:
260,208,64032,6,0,P|264:168|252:124,1,70,4|0,0:0|1:0,0:0:0:0:
220,64,64573,1,0,3:0:0:0:
140,84,64843,2,0,B|72:72|18:85|18:85|28:108,1,140,0|0,1:0|1:0,0:0:0:0:
68,172,65654,2,0,L|64:264,1,70,0|0,3:0|1:0,0:0:0:0:
100,320,66194,5,0,3:0:0:0:
180,296,66464,2,0,P|251:290|328:304,1,140,0|0,1:0|1:0,0:0:0:0:
392,344,67275,1,0,3:0:0:0:
464,300,67546,2,0,L|468:224,1,70,0|0,1:0|3:0,0:0:0:0:
436,152,68086,1,0,1:0:0:0:
352,148,68356,6,0,P|288:96|292:32,1,140,0|0,3:0|3:0,0:0:0:0:
368,64,69167,2,0,L|452:60,2,70,0|0|0,1:0|3:0|1:0,0:0:0:0:
287,43,69978,1,0,1:0:0:0:
287,43,70248,1,0,1:0:0:0:
220,92,70519,6,0,B|196:108|196:108|140:104|84:68,1,140,0|0,3:0|3:0,0:0:0:0:
28,128,71329,2,0,P|32:172|16:212,1,70,0|0,1:0|3:0,0:0:0:0:
104,344,72140,2,0,L|196:332,1,70,0|0,1:0|1:0,0:0:0:0:
236,280,72681,6,0,P|288:316|384:320,1,140,0|0,3:0|0:0,0:0:0:0:
448,336,73492,1,0,1:0:0:0:
484,260,73762,2,0,P|500:192|496:112,1,140,0|0,3:0|3:0,0:0:0:0:
456,48,74573,1,0,1:0:0:0:
376,72,74843,6,0,L|224:60,1,140,0|0,3:0|3:0,0:0:0:0:
152,44,75654,1,0,1:0:0:0:
76,80,75924,2,0,P|85:119|84:172,1,70,0|0,3:0|1:0,0:0:0:0:
132,220,76464,2,0,P|122:259|124:312,1,70,0|0,3:0|1:0,0:0:0:0:
184,348,77005,6,0,P|248:352|320:320,1,140,2|0,3:3|1:0,0:0:0:0:
372,260,77816,1,0,1:0:0:0:
432,204,78086,2,0,L|424:56,1,140,4|8,0:0|3:2,0:0:0:0:
344,40,78897,2,0,L|348:136,1,70,0|4,1:0|0:0,0:0:0:0:
284,168,79438,5,0,1:0:0:0:
216,120,79708,2,0,P|180:128|124:124,1,70,2|0,3:2|1:0,0:0:0:0:
72,92,80248,2,0,L|56:16,2,70,0|0|0,3:0|1:0|3:0,0:0:0:0:
68,176,81059,1,0,1:0:0:0:
56,260,81329,6,0,P|84:324|152:340,1,140,0|0,3:0|3:0,0:0:0:0:
216,292,82140,1,0,1:0:0:0:
288,332,82410,2,0,L|376:324,1,70,0|0,3:0|1:0,0:0:0:0:
368,244,82951,2,0,L|456:236,2,70,0|0|0,3:0|1:0|3:0,0:0:0:0:
288,216,83762,5,0,1:0:0:0:
208,188,84032,2,0,P|180:124|200:56,1,140,0|0,3:0|3:0,0:0:0:0:
276,28,84843,1,0,1:0:0:0:
356,56,85113,2,0,L|376:196,1,140,0|0,3:0|1:0,0:0:0:0:
404,276,85924,1,0,1:0:0:0:
344,336,86194,6,0,P|304:340|272:352,1,70,0|0,1:0|1:0,0:0:0:0:
193,364,86735,2,0,P|141:351|93:293,1,116.666666666667,0|0,3:0|3:0,0:0:0:0:
85,281,87275,2,0,L|76:200,1,70,0|4,3:0|0:0,0:0:0:0:
256,192,87636,12,0,89978,0:0:0:0:
