osu file format v14

[General]
AudioFilename: audio.mp3
AudioLeadIn: 0
PreviewTime: 46059
Countdown: 0
SampleSet: Soft
StackLeniency: 0.7
Mode: 0
LetterboxInBreaks: 0
WidescreenStoryboard: 0

[Editor]
Bookmarks: 1330,3492,12140,20789,29438,38086,46059,46735,55384,64032,72681,85654
DistanceSpacing: 1.2
BeatDivisor: 6
GridSize: 4
TimelineZoom: 3.499999

[Metadata]
Title:Vivace!
TitleUnicode:ヴィヴァーチェ!
Artist:Kitauji Quartet
ArtistUnicode:北宇治カルテット
Creator:Azure
Version:Euphonium
Source:響け! ユーフォニアム2
Tags:Hibike! Sound! Euphonium ed ending ZAQ TV Size
BeatmapID:1101215
BeatmapSetID:518360

[Difficulty]
HPDrainRate:8
CircleSize:4
OverallDifficulty:7
ApproachRate:9
SliderMultiplier:1.1
SliderTickRate:1

[Events]
//Background and Video events
0,0,"viva.jpg",0,0
Video,1985,"Video.avi"
//Break Periods
//Storyboard Layer 0 (Background)
//Storyboard Layer 1 (Fail)
//Storyboard Layer 2 (Pass)
//Storyboard Layer 3 (Foreground)
//Storyboard Sound Samples

[TimingPoints]
3333,270.27027027027,4,2,1,60,1,0
3492,270.27027027027,4,2,1,60,1,0
11329,-100,4,2,2,40,0,0
11510,-100,4,2,1,60,0,0
12140,-100,4,2,2,60,0,0
18627,-100,4,2,1,60,0,0
20789,-100,4,2,1,60,0,0
46735,-83.3333333333333,4,2,1,60,0,1
62951,-100,4,2,1,70,0,1
63131,-100,4,2,1,60,0,1
63221,-100,4,2,1,70,0,1
63401,-100,4,2,1,60,0,1
63492,-100,4,2,1,70,0,1
64032,-83.3333333333333,4,2,1,60,0,1
78086,-100,4,2,1,60,0,0
79167,-83.3333333333333,4,2,1,70,0,1
79437,-83.3333333333333,4,2,1,60,0,1
82951,-83.3333333333333,4,2,1,75,0,1
83762,-83.3333333333333,4,2,1,60,0,1
87546,-100,4,2,1,60,0,0
87816,-100,4,2,1,40,0,0
88356,-100,4,2,1,30,0,0
88897,-100,4,2,1,20,0,0
89437,-100,4,2,1,10,0,0
89978,-100,4,2,1,5,0,0

[Colours]
Combo1 : 234,157,106
Combo2 : 240,98,101
Combo3 : 133,188,243
Combo4 : 219,136,190
Combo5 : 255,220,115
Combo6 : 132,213,125

[HitObjects]
52,136,3333,6,0,L|100:128,1,36.6666666666667,2|2,0:0|0:0,0:0:0:0:
120,144,3492,2,0,P|152:228|120:296,2,165,6|0|2,0:0|0:0|0:0,0:0:0:0:
44,220,4573,2,0,B|92:260|144:244|144:244|204:220|248:264,1,220,2|2,0:0|0:0,0:0:0:0:
344,316,5383,1,2,0:0:0:0:
448,304,5654,6,0,P|496:248|476:144,2,165,2|0|2,0:0|0:0|0:0,0:0:0:0:
388,212,6735,1,0,0:0:0:0:
400,104,7005,2,0,P|436:72|504:64,1,110,2|4,0:0|3:3,0:0:0:0:
485,166,7546,1,4,3:3:0:0:
308,48,7816,5,0,0:0:0:0:
232,124,8086,1,0,1:0:0:0:
232,124,8176,1,0,1:0:0:0:
232,124,8266,1,8,1:2:0:0:
232,124,8356,2,0,L|104:116,1,110,0|4,0:0|3:0,0:0:0:0:
32,216,9077,5,0,3:0:0:0:
60,240,9167,2,0,L|176:232,1,110,6|2,3:3|3:3,0:0:0:0:
264,196,9618,1,0,3:0:0:0:
292,220,9708,2,0,P|304:272|280:328,1,110,8|0,3:2|3:0,0:0:0:0:
180,264,10248,5,0,0:0:0:0:
98,133,10519,1,0,0:0:0:0:
197,15,10789,1,0,0:0:0:0:
340,73,10969,1,0,1:0:0:0:
340,73,11059,1,0,0:0:0:0:
329,226,11329,2,0,P|368:232|421:222,1,73.3333333333333,0|0,3:0|1:0,0:0:0:0:
464,208,11600,2,0,P|439:238|421:289,1,73.3333333333333,0|0,1:0|1:0,0:0:0:0:
408,332,11870,2,0,P|393:295|358:254,1,73.3333333333333,0|0,3:0|0:0,0:0:0:0:
329,226,12140,5,0,3:0:0:0:
252,284,12951,1,0,3:0:0:0:
140,356,13221,2,0,P|100:360|64:348,1,73.3333333333333
28,332,13492,2,0,L|20:216,2,110,0|0|0,3:0|0:0|3:0,0:0:0:0:
252,284,14302,5,0,0:0:0:0:
320,340,14482,1,0,0:0:0:0:
320,340,14573,2,0,P|356:344|404:332,1,73.3333333333333,0|0,3:0|0:0,0:0:0:0:
432,324,14843,2,0,L|452:236,1,73.3333333333333
472,216,15113,1,0,3:0:0:0:
428,92,15383,1,0,0:0:0:0:
328,180,15654,1,0,3:0:0:0:
296,96,15834,1,0,0:0:0:0:
296,96,15924,2,0,L|180:88,2,110,0|0|0,0:0|3:0|0:0,0:0:0:0:
376,60,16645,5,0,0:0:0:0:
376,60,16735,2,0,P|380:124|348:168,1,110,0|0,3:0|0:0,0:0:0:0:
256,252,17275,1,0,3:0:0:0:
168,152,17546,1,0,0:0:0:0:
84,172,17726,1,0,0:0:0:0:
84,172,17816,2,0,L|96:296,1,110,0|0,3:0|0:0,0:0:0:0:
164,336,18266,1,0,0:0:0:0:
164,336,18356,2,0,P|216:318|272:328,1,110,0|0,3:0|3:0,0:0:0:0:
284,316,19708,5,0,0:0:0:0:
404,368,19978,2,0,P|428:344|444:288,1,73.3333333333333,0|0,1:0|1:0,0:0:0:0:
484,248,20248,2,0,L|476:164,1,73.3333333333333,4|4,1:3|3:3,0:0:0:0:
416,136,20519,2,0,L|424:52,1,73.3333333333333,4|2,3:3|3:3,0:0:0:0:
480,16,20789,6,0,P|432:40|364:36,1,110,4|0,1:2|1:0,0:0:0:0:
264,108,21329,2,0,L|172:80,1,73.3333333333333,0|0,3:0|0:0,0:0:0:0:
156,148,21600,2,0,L|76:100,1,73.3333333333333,0|0,1:0|0:0,0:0:0:0:
32,68,21870,2,0,P|36:108|24:164,1,73.3333333333333,0|0,3:0|0:0,0:0:0:0:
20,168,22140,1,0,1:0:0:0:
56,320,22320,1,0,0:0:0:0:
56,320,22410,2,0,L|152:312,1,73.3333333333333,0|0,3:0|0:0,0:0:0:0:
156,328,22681,1,0,1:0:0:0:
156,196,22951,6,0,P|136:144|148:80,2,110,0|0|0,3:0|1:0|3:0,0:0:0:0:
268,128,23762,2,0,L|256:224,1,73.3333333333333,0|8,1:0|0:0,0:0:0:0:
228,264,24032,2,0,P|256:252|304:260,1,73.3333333333333,0|8,3:0|0:0,0:0:0:0:
368,252,24302,2,0,P|364:282|333:319,1,73.3333333333333,0|0,1:0|3:0,0:0:0:0:
308,380,24573,2,0,P|283:361|266:316,1,73.3333333333333,0|8,3:0|0:0,0:0:0:0:
297,256,24843,1,0,1:0:0:0:
444,228,25023,1,0,1:0:0:0:
444,228,25113,6,0,L|436:356,2,110,0|0|0,3:0|1:0|3:0,0:0:0:0:
464,108,25834,1,0,0:0:0:0:
464,108,25924,2,0,P|408:112|340:96,1,110,0|0,1:0|3:0,0:0:0:0:
244,28,26464,2,0,P|208:52|188:88,1,73.3333333333333,0|0,1:0|0:0,0:0:0:0:
120,84,26735,2,0,L|128:212,1,110,0|0,3:0|1:0,0:0:0:0:
88,328,27185,1,0,1:0:0:0:
88,328,27275,6,0,P|140:316|212:316,1,110,4|0,3:2|1:0,0:0:0:0:
324,352,27816,2,0,P|360:356|416:344,1,73.3333333333333,0|0,1:0|1:0,0:0:0:0:
456,312,28086,2,0,P|460:272|460:232,1,73.3333333333333,0|0,1:0|3:0,0:0:0:0:
424,176,28356,2,0,L|424:112,1,55,2|2,0:0|0:0,0:0:0:0:
392,108,28897,2,0,L|392:188,1,73.3333333333333,0|0,1:0|1:0,0:0:0:0:
384,208,29167,1,2,3:3:0:0:
260,340,29437,6,0,L|136:336,1,110,4|0,3:2|1:0,0:0:0:0:
128,320,29798,2,0,P|103:321|76:320,1,36.6666666666667,0|0,1:0|3:0,0:0:0:0:
164,160,30248,1,0,1:0:0:0:
48,224,30519,2,0,P|44:140|36:100,1,110,0|0,3:0|1:0,0:0:0:0:
64,96,30879,2,0,P|62:72|68:46,1,36.6666666666667,0|0,1:0|3:0,0:0:0:0:
232,8,31329,1,0,1:0:0:0:
348,68,31600,6,0,P|392:88|460:72,1,110,0|0,3:0|1:0,0:0:0:0:
476,92,31960,2,0,P|457:110|448:128,1,36.6666666666667,0|0,1:0|3:0,0:0:0:0:
300,212,32410,1,0,1:0:0:0:
420,264,32681,2,0,P|423:320|392:372,1,110,0|0,3:0|1:0,0:0:0:0:
368,368,33041,2,0,L|320:364,1,36.6666666666667,0|0,1:0|3:0,0:0:0:0:
196,252,33492,1,0,1:0:0:0:
80,316,33762,6,0,P|64:264|76:200,1,110,0|0,3:0|1:0,0:0:0:0:
56,184,34122,2,0,P|80:184|104:172,1,36.6666666666667,0|0,1:0|3:0,0:0:0:0:
52,8,34573,1,0,1:0:0:0:
176,56,34843,2,0,L|300:48,1,110,0|0,3:0|1:0,0:0:0:0:
276,76,35203,2,0,P|296:72|332:76,1,36.6666666666667,0|0,1:0|3:0,0:0:0:0:
480,112,35654,2,0,L|468:188,1,73.3333333333333,0|2,1:0|3:0,0:0:0:0:
400,200,35924,6,0,L|416:328,1,110,0|0,3:0|1:0,0:0:0:0:
440,300,36284,2,0,L|436:356,1,36.6666666666667,0|0,1:0|3:0,0:0:0:0:
264,352,36735,2,0,L|252:268,1,73.3333333333333,0|0,1:0|1:0,0:0:0:0:
232,212,37005,2,0,P|200:192|140:200,1,73.3333333333333,4|0,0:0|0:0,0:0:0:0:
136,200,37275,1,0,1:0:0:0:
44,252,37455,2,0,P|32:180|72:120,1,146.666666666667,0|4,3:0|3:3,0:0:0:0:
100,104,37906,1,2,3:3:0:0:
128,116,37996,1,2,3:3:0:0:
156,128,38086,6,0,L|288:116,1,110,4|0,0:0|1:0,0:0:0:0:
380,52,38537,1,0,0:0:0:0:
380,52,38627,2,0,P|368:92|388:136,1,73.3333333333333,2|0,0:0|0:0,0:0:0:0:
436,160,38897,2,0,P|448:192|436:240,1,73.3333333333333,0|0,1:0|0:0,0:0:0:0:
384,272,39167,2,0,P|384:328|424:380,1,110,2|0,0:0|1:0,0:0:0:0:
304,304,39618,1,0,0:0:0:0:
304,304,39708,2,0,L|220:296,1,73.3333333333333,2|0,0:0|0:0,0:0:0:0:
168,332,39978,2,0,L|84:350,1,73.3333333333333,0|0,1:0|0:0,0:0:0:0:
28,324,40248,6,0,P|8:272|24:216,1,110,2|0,0:0|1:0,0:0:0:0:
68,96,40789,2,0,L|160:116,1,73.3333333333333,2|0,0:0|0:0,0:0:0:0:
212,112,41059,2,0,P|220:74|212:32,1,73.3333333333333,0|0,1:0|0:0,0:0:0:0:
292,44,41329,2,0,P|344:48|412:24,1,110,2|0,0:0|1:0,0:0:0:0:
276,198,41870,2,0,P|253:150|198:104,1,110,2|0,0:0|1:0,0:0:0:0:
412,124,42410,6,0,P|382:167|369:237,1,110,6|0,0:0|1:0,0:0:0:0:
492,216,42861,1,0,0:0:0:0:
492,216,42951,2,0,L|496:312,1,73.3333333333333,2|0,0:0|0:0,0:0:0:0:
448,344,43221,2,0,P|412:352|360:340,1,73.3333333333333,0|0,1:0|0:0,0:0:0:0:
312,320,43492,2,0,P|252:312|180:336,1,110,2|0,0:0|1:0,0:0:0:0:
40,344,44032,2,0,L|-12:340,2,36.6666666666667,0|0|0,1:0|1:0|1:0,0:0:0:0:
96,296,44302,2,0,L|148:292,2,36.6666666666667,0|0|0,1:0|1:0|1:0,0:0:0:0:
28,272,44573,6,0,P|16:224|32:164,1,110,0|4,3:0|3:3,0:0:0:0:
60,56,45023,1,2,3:3:0:0:
64,60,45113,1,2,3:3:0:0:
132,136,45293,1,8,0:0:0:0:
136,140,45383,1,8,1:2:0:0:
30,166,45564,1,0,3:0:0:0:
32,172,45654,2,0,P|18:224|26:258,1,73.3333333333333,0|0,1:0|1:0,0:0:0:0:
144,308,46194,5,2,0:0:0:0:
176,292,46284,1,2,0:0:0:0:
208,276,46374,1,2,0:0:0:0:
240,292,46465,5,2,1:2:0:0:
272,276,46555,1,2,1:2:0:0:
304,260,46644,1,2,1:2:0:0:
336,276,46735,6,0,P|380:288|416:328,1,87.9999973144532,4|0,0:0|0:0,0:0:0:0:
472,284,47005,2,0,P|460:239|477:188,1,87.9999973144532,0|0,1:0|0:0,0:0:0:0:
484,128,47275,2,0,P|468:72|404:44,1,131.99999597168,0|0,3:0|1:0,0:0:0:0:
296,124,47726,1,0,0:0:0:0:
296,124,47816,6,0,L|188:104,1,87.9999973144532,0|0,3:0|0:0,0:0:0:0:
136,100,48086,2,0,L|172:203,1,87.9999973144532,2|0,1:2|0:0,0:0:0:0:
92,188,48356,2,0,L|175:259,1,87.9999973144532,2|0,3:2|0:0,0:0:0:0:
88,268,48627,2,0,L|195:287,1,87.9999973144532,2|0,1:2|0:0,0:0:0:0:
192,300,48897,5,0,3:0:0:0:
331,345,49077,1,0,0:0:0:0:
331,345,49167,1,0,1:0:0:0:
416,227,49347,1,0,0:0:0:0:
416,227,49437,2,0,L|428:116,1,87.9999973144532,0|0,3:0|0:0,0:0:0:0:
400,72,49708,2,0,P|352:40|264:64,1,131.99999597168,0|0,1:0|3:0,0:0:0:0:
192,154,50158,5,0,0:0:0:0:
192,154,50248,1,0,1:0:0:0:
331,110,50428,1,0,0:0:0:0:
331,110,50519,2,0,P|320:64|272:24,1,87.9999973144532,0|0,3:0|0:0,0:0:0:0:
228,8,50789,2,0,P|181:8|140:36,1,87.9999973144532,0|0,1:0|0:0,0:0:0:0:
120,96,51059,2,0,P|76:116|0:92,1,131.99999597168,0|0,3:0|1:0,0:0:0:0:
208,96,51600,6,0,L|224:196,1,87.9999973144532,0|0,3:0|0:0,0:0:0:0:
264,240,51870,2,0,P|320:248|380:208,1,131.99999597168,0|0,1:0|3:0,0:0:0:0:
148,176,52320,1,8,1:2:0:0:
144,184,52410,5,8,1:2:0:0:
160,216,52501,1,0,1:0:0:0:
176,248,52591,1,0,1:0:0:0:
152,272,52681,5,8,1:2:0:0:
168,304,52772,1,0,1:0:0:0:
184,336,52862,1,0,1:0:0:0:
208,372,52951,5,8,1:2:0:0:
256,352,53041,1,0,1:0:0:0:
304,328,53131,1,0,1:0:0:0:
352,304,53221,6,0,L|364:208,1,87.9999973144532,0|4,3:0|0:0,0:0:0:0:
456,76,53672,1,0,0:0:0:0:
452,84,53762,2,0,L|462:171,1,87.9999973144532,0|0,1:0|3:3,0:0:0:0:
352,48,54212,1,0,3:0:0:0:
348,56,54302,2,0,L|358:143,1,87.9999973144532,4|0,0:0|1:0,0:0:0:0:
362,216,54573,2,0,P|320:224|272:204,1,87.9999973144532,0|0,1:0|3:0,0:0:0:0:
240,272,54843,2,0,P|212:236|212:184,1,87.9999973144532
256,140,55113,1,0,1:0:0:0:
188,0,55383,6,0,P|152:12|108:64,1,87.9999973144532,6|0,0:0|0:0,0:0:0:0:
104,116,55654,2,0,P|60:128|12:120,1,87.9999973144532,2|0,1:2|0:0,0:0:0:0:
60,184,55924,2,0,P|72:228|64:276,1,87.9999973144532,2|0,3:2|0:0,0:0:0:0:
118,323,56194,6,0,L|214:315,1,87.9999973144532,0|0,1:0|0:0,0:0:0:0:
264,272,56464,2,0,L|351:279,1,87.9999973144532,0|0,3:0|0:0,0:0:0:0:
400,332,56735,2,0,L|490:299,1,87.9999973144532,0|0,1:0|0:0,0:0:0:0:
500,232,57005,6,0,P|508:188|496:136,1,87.9999973144532,2|0,3:2|0:0,0:0:0:0:
432,128,57275,2,0,P|420:84|448:36,1,87.9999973144532,2|0,1:2|0:0,0:0:0:0:
372,80,57546,2,0,P|332:92|272:72,1,87.9999973144532,2|0,3:2|0:0,0:0:0:0:
220,108,57816,6,0,L|184:24,1,87.9999973144532,0|0,1:0|0:0,0:0:0:0:
124,68,58086,2,0,L|89:148,1,87.9999973144532,0|0,3:0|0:0,0:0:0:0:
76,180,58356,1,0,1:0:0:0:
124,0,58627,1,2,3:3:0:0:
168,184,58807,5,0,1:0:0:0:
174,189,58897,1,8,1:2:0:0:
152,222,58987,1,0,1:0:0:0:
144,261,59077,1,0,1:0:0:0:
152,299,59167,1,8,1:2:0:0:
174,332,59257,1,0,1:0:0:0:
207,354,59347,1,0,1:0:0:0:
246,362,59437,1,8,1:2:0:0:
285,354,59527,1,0,1:0:0:0:
317,332,59617,1,0,1:0:0:0:
340,300,59708,6,0,L|484:308,1,131.99999597168,0|0,3:0|1:0,0:0:0:0:
241,263,60248,2,0,P|236:224|259:176,1,87.9999973144532,0|0,3:0|0:0,0:0:0:0:
316,140,60519,2,0,P|324:96|304:52,1,87.9999973144532,0|0,1:0|0:0,0:0:0:0:
244,28,60789,2,0,L|100:20,2,131.99999597168,0|0|0,3:0|1:0|3:0,0:0:0:0:
404,84,61510,1,0,0:0:0:0:
404,84,61600,2,0,P|392:128|408:176,1,87.9999973144532,0|0,1:0|0:0,0:0:0:0:
452,220,61870,6,0,P|448:292|400:336,1,131.99999597168,0|0,3:0|1:0,0:0:0:0:
200,312,62320,1,4,3:3:0:0:
200,312,62410,1,0,1:0:0:0:
128,201,62591,1,4,3:3:0:0:
128,201,62681,1,0,1:0:0:0:
211,98,62861,1,0,1:0:0:0:
211,98,62951,6,0,L|288:84,1,73.3333333333333,0|2,3:0|0:0,0:0:0:0:
344,124,63221,2,0,L|421:110,1,73.3333333333333,0|2,3:0|0:0,0:0:0:0:
484,132,63492,1,0,3:2:0:0:
456,32,63672,2,0,L|333:54,1,110,0|0,1:0|1:0,0:0:0:0:
283,84,64032,6,0,P|240:64|208:16,1,87.9999973144532,4|0,3:2|0:0,0:0:0:0:
144,28,64302,2,0,P|104:48|48:44,1,87.9999973144532,0|0,1:0|0:0,0:0:0:0:
8,96,64573,2,0,L|24:240,1,131.99999597168,0|0,3:0|1:0,0:0:0:0:
120,316,65023,1,0,0:0:0:0:
120,316,65113,6,0,L|130:228,1,87.9999973144532,0|0,3:0|0:0,0:0:0:0:
168,168,65383,2,0,P|208:164|268:188,1,87.9999973144532,2|0,1:2|0:0,0:0:0:0:
300,232,65654,2,0,P|348:228|392:200,1,87.9999973144532,2|0,3:2|0:0,0:0:0:0:
408,144,65924,2,0,P|452:144|512:180,1,87.9999973144532,2|0,1:2|0:0,0:0:0:0:
504,196,66194,5,0,3:0:0:0:
416,272,66374,1,0,0:0:0:0:
416,272,66464,2,0,L|400:368,1,87.9999973144532,0|0,1:0|0:0,0:0:0:0:
332,340,66735,2,0,P|292:360|236:344,1,87.9999973144532,0|0,3:0|0:0,0:0:0:0:
192,312,67005,2,0,P|148:296|96:312,1,87.9999973144532,0|0,1:0|0:0,0:0:0:0:
80,324,67275,1,0,3:0:0:0:
280,272,67455,1,0,0:0:0:0:
280,272,67546,2,0,P|296:232|288:180,1,87.9999973144532,0|0,1:0|0:0,0:0:0:0:
232,152,67816,6,0,B|224:84|224:84|244:16,2,131.99999597168,0|0|0,3:0|1:0|3:0,0:0:0:0:
156,248,68627,2,0,P|112:248|60:216,1,87.9999973144532,0|0,1:0|0:0,0:0:0:0:
24,176,68897,2,0,P|12:132|16:84,1,87.9999973144532,0|0,3:0|0:0,0:0:0:0:
72,40,69167,2,0,B|140:44|140:44|212:28,2,131.99999597168,0|0|0,1:0|3:0|1:0,0:0:0:0:
136,164,69978,5,8,1:2:0:0:
180,176,70068,1,0,1:0:0:0:
220,188,70158,1,0,1:0:0:0:
256,160,70248,5,8,1:2:0:0:
300,172,70338,1,0,1:0:0:0:
340,184,70428,1,0,1:0:0:0:
372,156,70519,6,0,L|456:180,1,87.9999973144532,0|4,3:0|1:2,0:0:0:0:
424,308,70969,1,0,3:0:0:0:
424,308,71059,1,0,0:0:0:0:
312,256,71239,1,0,3:0:0:0:
312,256,71329,1,0,1:0:0:0:
224,344,71510,1,0,1:0:0:0:
224,344,71600,2,0,L|128:320,1,87.9999973144532,0|4,1:0|3:2,0:0:0:0:
48,208,72050,5,0,3:0:0:0:
48,208,72140,2,0,P|36:168|40:112,1,87.9999973144532,2|0,3:3|1:0,0:0:0:0:
108,104,72410,2,0,P|136:144|108:228,1,131.99999597168,0|4,1:0|0:0,0:0:0:0:
224,152,72951,2,0,L|324:160,1,87.9999973144532,0|2,3:0|0:3,0:0:0:0:
384,148,73221,6,0,P|416:96|392:24,1,131.99999597168,0|0,0:0|1:0,0:0:0:0:
280,12,73672,1,0,1:0:0:0:
280,12,73762,2,0,L|272:120,1,87.9999973144532,0|0,3:0|0:0,0:0:0:0:
224,152,74032,2,0,L|216:260,1,87.9999973144532,2|0,3:3|3:0,0:0:0:0:
172,296,74302,5,0,3:0:0:0:
280,340,74482,1,0,1:0:0:0:
280,340,74573,2,0,P|321:336|380:348,1,87.9999973144532,0|0,0:0|1:0,0:0:0:0:
440,368,74843,2,0,P|436:324|440:280,1,87.9999973144532,0|0,1:0|0:0,0:0:0:0:
492,228,75113,2,0,P|504:160|472:104,1,131.99999597168,2|0,3:3|0:0,0:0:0:0:
332,80,75654,6,0,P|284:76|224:64,1,87.9999973144532,0|0,1:0|0:0,0:0:0:0:
180,36,75924,1,0,3:0:0:0:
85,108,76194,1,8,1:2:0:0:
65,147,76284,1,0,1:0:0:0:
65,191,76374,1,0,1:0:0:0:
88,227,76465,5,4,3:3:0:0:
124,210,76555,1,4,3:3:0:0:
163,210,76645,1,4,3:3:0:0:
199,227,76735,1,2,3:3:0:0:
224,258,76825,1,2,3:3:0:0:
232,297,76915,1,2,3:3:0:0:
228,332,77005,1,0,3:0:0:0:
88,332,77185,5,0,1:0:0:0:
88,332,77275,1,8,1:2:0:0:
80,308,77365,1,0,1:0:0:0:
72,284,77455,1,0,1:0:0:0:
64,260,77546,1,8,1:2:0:0:
56,236,77636,1,0,1:0:0:0:
48,212,77726,1,0,1:0:0:0:
40,188,77816,1,8,1:2:0:0:
32,164,77906,1,0,1:0:0:0:
24,140,77996,1,0,1:0:0:0:
16,116,78086,6,0,P|60:44|144:76,1,183.333333333333,4|8,0:0|0:0,0:0:0:0:
188,128,78627,2,0,P|244:128|288:92,2,110,2|0|4,3:3|1:0|3:2,0:0:0:0:
208,24,79438,5,0,1:0:0:0:
336,16,79708,2,0,P|376:56|376:136,1,131.99999597168,2|0,3:2|1:0,0:0:0:0:
496,104,80158,1,0,0:0:0:0:
496,104,80248,2,0,L|480:208,1,87.9999973144532,2|0,3:2|0:0,0:0:0:0:
424,228,80519,2,0,L|440:332,1,87.9999973144532,0|0,1:0|0:0,0:0:0:0:
368,336,80789,2,0,P|320:368|248:364,1,131.99999597168,2|0,3:2|1:0,0:0:0:0:
88,324,81239,5,0,0:0:0:0:
88,324,81330,2,0,L|72:176,1,131.99999597168,2|0,3:2|1:0,0:0:0:0:
136,32,81870,2,0,L|148:140,1,87.9999973144532,2|0,3:2|0:0,0:0:0:0:
172,144,82140,1,0,1:0:0:0:
256,44,82320,1,0,0:0:0:0:
256,44,82411,2,0,P|300:36|348:44,1,87.9999973144532,2|0,3:2|0:0,0:0:0:0:
372,108,82681,2,0,P|416:112|468:96,1,87.9999973144532,0|8,1:0|0:0,0:0:0:0:
484,80,82951,5,8,0:0:0:0:
296,128,83131,1,0,3:0:0:0:
296,128,83221,1,0,1:0:0:0:
448,188,83401,1,8,0:0:0:0:
448,188,83492,2,0,L|464:324,1,131.99999597168,10|0,0:2|1:0,0:0:0:0:
328,368,84032,6,0,L|312:236,1,131.99999597168,2|0,3:2|1:0,0:0:0:0:
216,132,84482,1,0,0:0:0:0:
216,132,84573,2,0,P|176:116|124:124,1,87.9999973144532,2|0,3:2|0:0,0:0:0:0:
72,160,84843,2,0,L|82:66,1,87.9999973144532,0|4,1:0|0:0,0:0:0:0:
160,204,85293,1,0,3:0:0:0:
160,204,85383,1,8,1:2:0:0:
172,236,85473,1,0,1:0:0:0:
184,268,85563,1,0,1:0:0:0:
200,300,85654,6,0,L|336:296,1,131.99999597168,2|0,3:2|1:0,0:0:0:0:
448,336,86104,1,8,1:2:0:0:
448,336,86194,1,0,1:0:0:0:
452,300,86284,1,0,1:0:0:0:
456,264,86374,1,0,1:0:0:0:
460,228,86464,6,0,P|468:184|452:136,1,87.9999973144532,0|0,1:0|1:0,0:0:0:0:
400,96,86735,2,0,L|232:80,1,131.99999597168,4|0,0:0|3:0,0:0:0:0:
208,180,87185,1,0,3:0:0:0:
208,180,87275,2,0,L|76:192,1,131.99999597168,0|4,0:0|0:0,0:0:0:0:
256,192,87636,12,0,89978,0:0:0:0:
