osu file format v14

[General]
AudioFilename: Tutti.mp3
AudioLeadIn: 0
PreviewTime: 59060
Countdown: 0
SampleSet: Normal
StackLeniency: 0.8
Mode: 1
LetterboxInBreaks: 0
WidescreenStoryboard: 0

[Editor]
Bookmarks: 7874,16225,16534
DistanceSpacing: 0.5
BeatDivisor: 4
GridSize: 4
TimelineZoom: 1.3

[Metadata]
Title:Tutti!
TitleUnicode:トゥッティ!
Artist:Kitauji Quartet
ArtistUnicode:北宇治カルテット
Creator:Charlotte
Version:Inner Oni
Source:響け!ユーフォニアム
Tags:Hibike! Euphonium Nofool Nardoxyribonucleic JUDYDANNY
BeatmapID:817464
BeatmapSetID:373212

[Difficulty]
HPDrainRate:6
CircleSize:4
OverallDifficulty:6
ApproachRate:9.2
SliderMultiplier:1.4
SliderTickRate:1

[Events]
//Background and Video events
0,0,"hibike_euphonium_71.jpg",0,90
//Break Periods
//Storyboard Layer 0 (Background)
//Storyboard Layer 1 (Fail)
//Storyboard Layer 2 (Pass)
//Storyboard Layer 3 (Foreground)
//Storyboard Sound Samples

[TimingPoints]
916,309.278350515464,4,1,0,40,1,0
5400,-100,4,1,0,80,0,0
7410,-100,4,1,0,100,0,0
8338,-100,4,1,0,90,0,0
18235,-100,4,1,0,80,0,0
28132,-100,4,1,0,85,0,0
38029,-100,4,1,0,75,0,0
47926,-100,4,1,0,80,0,0
52874,-100,4,1,0,95,0,0
59060,-100,4,1,0,100,0,1
73905,-100,4,1,0,95,0,1
78854,-100,4,1,0,90,0,1
83802,-100,4,1,0,80,0,0
87823,-100,4,1,0,100,0,0

[Colours]
Combo1 : 128,0,255
Combo2 : 0,204,0
Combo3 : 0,92,206
Combo4 : 234,0,0

[HitObjects]
256,192,916,5,0,0:0:0:0:
256,192,1225,1,0,0:0:0:0:
256,192,1534,1,0,0:0:0:0:
256,192,1689,1,0,0:0:0:0:
256,192,1998,1,8,0:0:0:0:
256,192,2307,1,0,0:0:0:0:
256,192,2462,1,0,0:0:0:0:
256,192,2617,1,0,0:0:0:0:
256,192,2926,1,0,0:0:0:0:
256,192,3080,1,0,0:0:0:0:
256,192,3390,1,0,0:0:0:0:
256,192,3699,1,8,0:0:0:0:
256,192,4008,1,0,0:0:0:0:
256,192,4163,1,0,0:0:0:0:
256,192,4472,1,8,0:0:0:0:
256,192,4781,1,0,0:0:0:0:
256,192,5091,1,8,0:0:0:0:
256,192,5400,1,0,0:0:0:0:
256,192,5555,1,8,0:0:0:0:
256,192,5709,1,8,0:0:0:0:
256,192,5864,1,4,0:0:0:0:
256,192,6173,1,4,0:0:0:0:
256,192,6483,1,0,0:0:0:0:
256,192,6560,1,0,0:0:0:0:
256,192,6637,1,8,0:0:0:0:
256,192,6714,1,8,0:0:0:0:
256,192,6792,1,0,0:0:0:0:
256,192,6946,1,4,0:0:0:0:
256,192,7410,1,12,0:0:0:0:
256,192,7720,1,0,0:0:0:0:
256,192,7874,1,8,0:0:0:0:
256,192,7952,1,8,0:0:0:0:
256,192,8029,1,0,0:0:0:0:
256,192,8184,1,8,0:0:0:0:
256,192,8338,1,0,0:0:0:0:
256,192,8647,1,8,0:0:0:0:
256,192,8802,1,0,0:0:0:0:
256,192,8879,1,0,0:0:0:0:
256,192,8957,1,0,0:0:0:0:
256,192,9111,1,0,0:0:0:0:
256,192,9266,1,8,0:0:0:0:
256,192,9575,1,0,0:0:0:0:
256,192,9885,1,8,0:0:0:0:
256,192,10117,1,0,0:0:0:0:
256,192,10194,1,0,0:0:0:0:
256,192,10348,1,0,0:0:0:0:
256,192,10503,1,8,0:0:0:0:
256,192,10658,1,8,0:0:0:0:
256,192,10735,1,8,0:0:0:0:
256,192,10812,1,0,0:0:0:0:
256,192,11044,1,0,0:0:0:0:
256,192,11122,1,8,0:0:0:0:
256,192,11276,1,0,0:0:0:0:
256,192,11431,1,8,0:0:0:0:
256,192,11586,1,0,0:0:0:0:
256,192,11663,1,0,0:0:0:0:
256,192,11740,1,8,0:0:0:0:
256,192,11895,1,0,0:0:0:0:
256,192,12050,1,8,0:0:0:0:
256,192,12204,1,8,0:0:0:0:
256,192,12281,1,8,0:0:0:0:
256,192,12359,1,0,0:0:0:0:
256,192,12513,1,8,0:0:0:0:
256,192,12823,1,0,0:0:0:0:
256,192,12978,1,8,0:0:0:0:
256,192,13055,1,8,0:0:0:0:
256,192,13132,1,8,0:0:0:0:
256,192,13209,1,8,0:0:0:0:
256,192,13287,1,0,0:0:0:0:
256,192,13596,1,8,0:0:0:0:
256,192,13751,1,0,0:0:0:0:
256,192,13828,1,0,0:0:0:0:
256,192,13906,1,0,0:0:0:0:
256,192,14060,1,0,0:0:0:0:
256,192,14215,1,8,0:0:0:0:
256,192,14524,1,0,0:0:0:0:
256,192,14834,1,8,0:0:0:0:
256,192,15066,1,0,0:0:0:0:
256,192,15143,1,8,0:0:0:0:
256,192,15297,1,0,0:0:0:0:
256,192,15452,1,8,0:0:0:0:
256,192,15761,1,4,0:0:0:0:
256,192,16225,1,0,0:0:0:0:
256,192,16302,1,0,0:0:0:0:
256,192,16379,1,0,0:0:0:0:
256,192,16534,1,0,0:0:0:0:
256,192,16611,1,0,0:0:0:0:
256,192,16688,1,8,0:0:0:0:
256,192,16843,1,0,0:0:0:0:
256,192,16998,1,8,0:0:0:0:
256,192,17230,1,0,0:0:0:0:
256,192,17462,1,0,0:0:0:0:
256,192,17617,1,8,0:0:0:0:
256,192,17926,1,4,0:0:0:0:
256,192,18235,1,0,0:0:0:0:
256,192,18390,1,8,0:0:0:0:
256,192,18544,1,0,0:0:0:0:
256,192,18622,1,0,0:0:0:0:
256,192,18699,1,8,0:0:0:0:
256,192,18854,1,0,0:0:0:0:
256,192,19008,1,8,0:0:0:0:
256,192,19086,1,8,0:0:0:0:
256,192,19163,1,0,0:0:0:0:
256,192,19318,1,8,0:0:0:0:
256,192,19472,1,0,0:0:0:0:
256,192,19627,1,8,0:0:0:0:
256,192,19704,1,0,0:0:0:0:
256,192,19781,1,0,0:0:0:0:
256,192,19936,1,8,0:0:0:0:
256,192,20091,1,0,0:0:0:0:
256,192,20245,1,8,0:0:0:0:
256,192,20323,1,8,0:0:0:0:
256,192,20400,1,0,0:0:0:0:
256,192,20555,1,8,0:0:0:0:
256,192,20709,1,0,0:0:0:0:
256,192,20787,1,0,0:0:0:0:
256,192,20864,1,8,0:0:0:0:
256,192,20941,1,8,0:0:0:0:
256,192,21019,1,0,0:0:0:0:
256,192,21173,1,8,0:0:0:0:
256,192,21328,1,0,0:0:0:0:
256,192,21405,1,0,0:0:0:0:
256,192,21483,1,8,0:0:0:0:
256,192,21637,1,0,0:0:0:0:
256,192,21792,1,8,0:0:0:0:
256,192,21869,1,0,0:0:0:0:
256,192,21946,1,8,0:0:0:0:
256,192,22101,1,8,0:0:0:0:
256,192,22256,1,0,0:0:0:0:
256,192,22333,1,0,0:0:0:0:
256,192,22411,1,8,0:0:0:0:
256,192,22565,1,0,0:0:0:0:
256,192,22720,1,8,0:0:0:0:
256,192,22797,1,8,0:0:0:0:
256,192,22875,1,0,0:0:0:0:
256,192,23029,1,8,0:0:0:0:
256,192,23184,1,0,0:0:0:0:
256,192,23339,1,8,0:0:0:0:
256,192,23416,1,8,0:0:0:0:
256,192,23494,1,0,0:0:0:0:
256,192,23570,1,0,0:0:0:0:
256,192,23648,1,8,0:0:0:0:
256,192,23803,1,0,0:0:0:0:
256,192,23957,1,8,0:0:0:0:
256,192,24034,1,8,0:0:0:0:
256,192,24112,1,0,0:0:0:0:
256,192,24267,1,8,0:0:0:0:
256,192,24343,1,8,0:0:0:0:
256,192,24422,1,0,0:0:0:0:
256,192,24576,1,8,0:0:0:0:
256,192,24731,1,0,0:0:0:0:
256,192,24807,1,0,0:0:0:0:
256,192,24885,1,8,0:0:0:0:
256,192,25040,1,8,0:0:0:0:
256,192,25117,1,0,0:0:0:0:
256,192,25194,1,8,0:0:0:0:
256,192,25271,1,8,0:0:0:0:
256,192,25348,1,0,0:0:0:0:
256,192,25504,1,8,0:0:0:0:
256,192,25659,1,4,0:0:0:0:
256,192,25812,1,8,0:0:0:0:
256,192,25890,1,8,0:0:0:0:
256,192,25967,1,0,0:0:0:0:
256,192,26122,1,8,0:0:0:0:
256,192,26276,1,4,0:0:0:0:
256,192,26430,1,8,0:0:0:0:
256,192,26508,1,8,0:0:0:0:
256,192,26585,1,0,0:0:0:0:
256,192,26662,1,0,0:0:0:0:
256,192,26740,1,8,0:0:0:0:
256,192,26895,1,4,0:0:0:0:
256,192,27204,1,4,0:0:0:0:
256,192,27513,1,12,0:0:0:0:
256,192,27668,1,8,0:0:0:0:
256,192,27745,1,8,0:0:0:0:
256,192,27823,1,8,0:0:0:0:
256,192,27900,1,0,0:0:0:0:
256,192,27977,1,0,0:0:0:0:
256,192,28132,1,0,0:0:0:0:
256,192,28287,1,8,0:0:0:0:
256,192,28441,1,0,0:0:0:0:
256,192,28519,1,0,0:0:0:0:
256,192,28596,1,8,0:0:0:0:
256,192,28751,1,0,0:0:0:0:
256,192,28905,1,8,0:0:0:0:
256,192,28983,1,8,0:0:0:0:
256,192,29060,1,0,0:0:0:0:
256,192,29214,1,8,0:0:0:0:
256,192,29369,1,0,0:0:0:0:
256,192,29524,1,8,0:0:0:0:
256,192,29601,1,0,0:0:0:0:
256,192,29678,1,0,0:0:0:0:
256,192,29833,1,8,0:0:0:0:
256,192,29988,1,0,0:0:0:0:
256,192,30142,1,8,0:0:0:0:
256,192,30220,1,0,0:0:0:0:
256,192,30297,1,8,0:0:0:0:
256,192,30452,1,8,0:0:0:0:
256,192,30606,1,0,0:0:0:0:
256,192,30684,1,8,0:0:0:0:
256,192,30761,1,0,0:0:0:0:
256,192,30838,1,0,0:0:0:0:
256,192,30916,1,8,0:0:0:0:
256,192,31070,1,0,0:0:0:0:
256,192,31225,1,8,0:0:0:0:
256,192,31380,1,0,0:0:0:0:
256,192,31457,1,8,0:0:0:0:
256,192,31534,1,0,0:0:0:0:
256,192,31689,1,8,0:0:0:0:
256,192,31843,1,8,0:0:0:0:
256,192,31921,1,0,0:0:0:0:
256,192,31998,1,8,0:0:0:0:
256,192,32153,1,8,0:0:0:0:
256,192,32307,1,0,0:0:0:0:
256,192,32462,1,8,0:0:0:0:
256,192,32539,1,0,0:0:0:0:
256,192,32617,1,8,0:0:0:0:
256,192,32694,1,8,0:0:0:0:
256,192,32771,1,0,0:0:0:0:
256,192,32926,1,8,0:0:0:0:
256,192,33080,1,0,0:0:0:0:
256,192,33235,1,8,0:0:0:0:
256,192,33312,1,8,0:0:0:0:
256,192,33390,1,0,0:0:0:0:
256,192,33544,1,8,0:0:0:0:
256,192,33621,1,8,0:0:0:0:
256,192,33699,1,0,0:0:0:0:
256,192,33854,1,8,0:0:0:0:
256,192,34008,1,0,0:0:0:0:
256,192,34086,1,0,0:0:0:0:
256,192,34163,1,8,0:0:0:0:
256,192,34240,1,8,0:0:0:0:
256,192,34318,1,0,0:0:0:0:
256,192,34472,1,0,0:0:0:0:
256,192,34627,1,8,0:0:0:0:
256,192,34781,1,0,0:0:0:0:
256,192,34935,1,8,0:0:0:0:
256,192,35013,1,8,0:0:0:0:
256,192,35090,1,0,0:0:0:0:
256,192,35167,1,0,0:0:0:0:
256,192,35245,1,8,0:0:0:0:
256,192,35400,1,8,0:0:0:0:
256,192,35555,1,0,0:0:0:0:
256,192,35709,1,8,0:0:0:0:
256,192,36019,1,8,0:0:0:0:
256,192,36173,1,0,0:0:0:0:
256,192,36328,1,8,0:0:0:0:
256,192,36483,1,0,0:0:0:0:
256,192,36560,1,0,0:0:0:0:
256,192,36637,1,8,0:0:0:0:
256,192,36792,1,4,0:0:0:0:
256,192,36946,1,4,0:0:0:0:
256,192,37256,1,12,0:0:0:0:
256,192,37565,1,12,0:0:0:0:
256,192,38029,1,0,0:0:0:0:
256,192,38338,1,8,0:0:0:0:
256,192,38647,1,0,0:0:0:0:
256,192,38802,1,0,0:0:0:0:
256,192,38956,1,8,0:0:0:0:
256,192,39266,1,0,0:0:0:0:
256,192,39421,1,0,0:0:0:0:
256,192,39575,1,8,0:0:0:0:
256,192,39730,1,0,0:0:0:0:
256,192,39885,1,0,0:0:0:0:
256,192,40040,1,0,0:0:0:0:
256,192,40194,1,8,0:0:0:0:
256,192,40503,1,0,0:0:0:0:
256,192,40812,1,8,0:0:0:0:
256,192,40967,1,0,0:0:0:0:
256,192,41276,1,0,0:0:0:0:
256,192,41431,1,8,0:0:0:0:
256,192,41586,1,0,0:0:0:0:
256,192,41663,1,0,0:0:0:0:
256,192,41740,1,8,0:0:0:0:
256,192,41895,1,0,0:0:0:0:
256,192,42050,1,8,0:0:0:0:
256,192,42204,1,8,0:0:0:0:
256,192,42513,1,0,0:0:0:0:
256,192,42668,1,8,0:0:0:0:
256,192,42977,1,0,0:0:0:0:
256,192,43287,1,8,0:0:0:0:
256,192,43596,1,0,0:0:0:0:
256,192,43751,1,0,0:0:0:0:
256,192,43905,1,8,0:0:0:0:
256,192,44214,1,0,0:0:0:0:
256,192,44369,1,0,0:0:0:0:
256,192,44523,1,8,0:0:0:0:
256,192,44678,1,8,0:0:0:0:
256,192,44833,1,0,0:0:0:0:
256,192,44988,1,0,0:0:0:0:
256,192,45142,1,8,0:0:0:0:
256,192,45452,1,0,0:0:0:0:
256,192,45761,1,0,0:0:0:0:
256,192,45916,1,8,0:0:0:0:
256,192,46070,1,0,0:0:0:0:
256,192,46225,1,0,0:0:0:0:
256,192,46302,1,0,0:0:0:0:
256,192,46379,1,8,0:0:0:0:
256,192,46535,1,8,0:0:0:0:
256,192,46689,1,4,0:0:0:0:
256,192,46999,1,0,0:0:0:0:
256,192,47153,1,8,0:0:0:0:
256,192,47230,1,8,0:0:0:0:
256,192,47307,1,8,0:0:0:0:
256,192,47462,1,0,0:0:0:0:
256,192,47617,1,8,0:0:0:0:
256,192,47771,1,8,0:0:0:0:
256,192,47925,1,0,0:0:0:0:
256,192,48235,1,8,0:0:0:0:
256,192,48390,1,0,0:0:0:0:
256,192,48544,1,8,0:0:0:0:
256,192,48699,1,8,0:0:0:0:
256,192,48776,1,8,0:0:0:0:
256,192,48854,1,0,0:0:0:0:
256,192,49008,1,0,0:0:0:0:
256,192,49163,1,8,0:0:0:0:
256,192,49472,1,8,0:0:0:0:
256,192,49627,1,0,0:0:0:0:
256,192,49704,1,0,0:0:0:0:
256,192,49781,1,8,0:0:0:0:
256,192,49936,1,0,0:0:0:0:
256,192,50091,1,8,0:0:0:0:
256,192,50245,1,8,0:0:0:0:
256,192,50400,1,0,0:0:0:0:
256,192,50709,1,8,0:0:0:0:
256,192,51019,1,0,0:0:0:0:
256,192,51173,1,0,0:0:0:0:
256,192,51251,1,0,0:0:0:0:
256,192,51328,1,8,0:0:0:0:
256,192,51483,1,8,0:0:0:0:
256,192,51637,1,0,0:0:0:0:
256,192,51792,1,8,0:0:0:0:
256,192,51869,1,8,0:0:0:0:
256,192,51946,1,0,0:0:0:0:
256,192,52024,1,0,0:0:0:0:
256,192,52101,1,8,0:0:0:0:
256,192,52256,1,0,0:0:0:0:
256,192,52410,1,8,0:0:0:0:
256,192,52565,1,8,0:0:0:0:
256,192,52874,1,4,0:0:0:0:
256,192,53029,1,4,0:0:0:0:
256,192,53338,1,4,0:0:0:0:
256,192,53647,1,4,0:0:0:0:
256,192,53957,1,12,0:0:0:0:
256,192,54266,1,8,0:0:0:0:
256,192,54421,1,0,0:0:0:0:
256,192,54498,1,0,0:0:0:0:
256,192,54575,1,0,0:0:0:0:
256,192,54730,1,8,0:0:0:0:
256,192,54885,1,0,0:0:0:0:
256,192,55039,1,8,0:0:0:0:
256,192,55117,1,8,0:0:0:0:
256,192,55194,1,8,0:0:0:0:
256,192,55348,1,0,0:0:0:0:
256,192,55658,1,0,0:0:0:0:
256,192,55812,1,8,0:0:0:0:
256,192,55890,1,8,0:0:0:0:
256,192,55967,1,8,0:0:0:0:
256,192,56044,1,8,0:0:0:0:
256,192,56122,1,0,0:0:0:0:
256,192,56199,1,0,0:0:0:0:
256,192,56276,1,8,0:0:0:0:
256,192,56431,1,0,0:0:0:0:
256,192,56586,1,8,0:0:0:0:
256,192,56740,1,4,0:0:0:0:
256,192,56895,1,4,0:0:0:0:
256,192,57204,1,12,0:0:0:0:
256,192,57359,1,12,0:0:0:0:
256,192,57668,1,4,0:0:0:0:
256,192,57823,1,4,0:0:0:0:
256,192,58132,1,12,0:0:0:0:
256,192,58287,1,12,0:0:0:0:
256,192,58596,1,8,0:0:0:0:
256,192,58673,1,8,0:0:0:0:
256,192,58751,1,8,0:0:0:0:
256,192,58905,1,8,0:0:0:0:
256,192,59060,1,4,0:0:0:0:
256,192,59214,1,8,0:0:0:0:
256,192,59292,1,8,0:0:0:0:
256,192,59369,1,0,0:0:0:0:
256,192,59524,1,8,0:0:0:0:
256,192,59678,1,0,0:0:0:0:
256,192,59756,1,0,0:0:0:0:
256,192,59833,1,8,0:0:0:0:
256,192,59910,1,8,0:0:0:0:
256,192,59988,1,0,0:0:0:0:
256,192,60142,1,8,0:0:0:0:
256,192,60297,1,0,0:0:0:0:
256,192,60452,1,0,0:0:0:0:
256,192,60529,1,0,0:0:0:0:
256,192,60606,1,8,0:0:0:0:
256,192,60761,1,0,0:0:0:0:
256,192,60916,1,8,0:0:0:0:
256,192,60993,1,8,0:0:0:0:
256,192,61070,1,0,0:0:0:0:
256,192,61147,1,0,0:0:0:0:
256,192,61225,1,8,0:0:0:0:
256,192,61379,1,0,0:0:0:0:
256,192,61534,1,8,0:0:0:0:
256,192,61689,1,0,0:0:0:0:
256,192,61766,1,0,0:0:0:0:
256,192,61843,1,8,0:0:0:0:
256,192,61998,1,0,0:0:0:0:
256,192,62075,1,0,0:0:0:0:
256,192,62152,1,8,0:0:0:0:
256,192,62307,1,0,0:0:0:0:
256,192,62462,1,8,0:0:0:0:
256,192,62617,1,8,0:0:0:0:
256,192,62694,1,0,0:0:0:0:
256,192,62771,1,8,0:0:0:0:
256,192,62926,1,8,0:0:0:0:
256,192,63080,1,0,0:0:0:0:
256,192,63235,1,8,0:0:0:0:
256,192,63313,1,8,0:0:0:0:
256,192,63390,1,0,0:0:0:0:
256,192,63544,1,0,0:0:0:0:
256,192,63622,1,0,0:0:0:0:
256,192,63699,1,8,0:0:0:0:
256,192,63854,1,0,0:0:0:0:
256,192,64008,1,8,0:0:0:0:
256,192,64086,1,0,0:0:0:0:
256,192,64163,1,0,0:0:0:0:
256,192,64240,1,8,0:0:0:0:
256,192,64318,1,8,0:0:0:0:
256,192,64472,1,0,0:0:0:0:
256,192,64627,1,8,0:0:0:0:
256,192,64704,1,8,0:0:0:0:
256,192,64781,1,0,0:0:0:0:
256,192,64859,1,0,0:0:0:0:
256,192,64936,1,8,0:0:0:0:
256,192,65091,1,8,0:0:0:0:
256,192,65168,1,0,0:0:0:0:
256,192,65245,1,8,0:0:0:0:
256,192,65400,1,0,0:0:0:0:
256,192,65477,1,0,0:0:0:0:
256,192,65555,1,8,0:0:0:0:
256,192,65709,1,0,0:0:0:0:
256,192,65787,1,0,0:0:0:0:
256,192,65864,1,8,0:0:0:0:
256,192,65941,1,8,0:0:0:0:
256,192,66019,1,0,0:0:0:0:
256,192,66173,1,8,0:0:0:0:
256,192,66483,1,4,0:0:0:0:
256,192,66637,1,0,0:0:0:0:
256,192,66792,1,8,0:0:0:0:
256,192,66946,1,8,0:0:0:0:
256,192,67101,1,0,0:0:0:0:
256,192,67410,1,8,0:0:0:0:
256,192,67565,1,4,0:0:0:0:
256,192,67874,1,8,0:0:0:0:
256,192,68029,1,8,0:0:0:0:
256,192,68184,1,0,0:0:0:0:
256,192,68338,1,8,0:0:0:0:
256,192,68416,1,0,0:0:0:0:
256,192,68493,1,0,0:0:0:0:
256,192,68571,1,0,0:0:0:0:
256,192,68647,1,8,0:0:0:0:
256,192,68725,1,8,0:0:0:0:
256,192,68802,1,8,0:0:0:0:
256,192,68879,1,8,0:0:0:0:
256,192,68957,1,0,0:0:0:0:
256,192,69111,1,8,0:0:0:0:
256,192,69189,1,8,0:0:0:0:
256,192,69266,1,0,0:0:0:0:
256,192,69421,1,8,0:0:0:0:
256,192,69575,1,0,0:0:0:0:
256,192,69653,1,8,0:0:0:0:
256,192,69730,1,8,0:0:0:0:
256,192,69807,1,8,0:0:0:0:
256,192,69885,1,0,0:0:0:0:
256,192,70039,1,8,0:0:0:0:
256,192,70194,1,0,0:0:0:0:
256,192,70349,1,0,0:0:0:0:
256,192,70426,1,0,0:0:0:0:
256,192,70503,1,8,0:0:0:0:
256,192,70658,1,0,0:0:0:0:
256,192,70813,1,8,0:0:0:0:
256,192,70890,1,0,0:0:0:0:
256,192,70967,1,8,0:0:0:0:
256,192,71044,1,0,0:0:0:0:
256,192,71122,1,0,0:0:0:0:
256,192,71276,1,8,0:0:0:0:
256,192,71431,1,0,0:0:0:0:
256,192,71586,1,8,0:0:0:0:
256,192,71663,1,8,0:0:0:0:
256,192,71740,1,0,0:0:0:0:
256,192,71895,1,0,0:0:0:0:
256,192,71972,1,8,0:0:0:0:
256,192,72050,1,0,0:0:0:0:
256,192,72204,1,8,0:0:0:0:
256,192,72359,1,0,0:0:0:0:
256,192,72436,1,0,0:0:0:0:
256,192,72513,1,8,0:0:0:0:
256,192,72591,1,8,0:0:0:0:
256,192,72668,1,0,0:0:0:0:
256,192,72823,1,0,0:0:0:0:
256,192,72977,1,8,0:0:0:0:
256,192,73132,1,0,0:0:0:0:
256,192,73441,1,0,0:0:0:0:
256,192,73596,1,8,0:0:0:0:
256,192,73751,1,0,0:0:0:0:
256,192,73828,1,0,0:0:0:0:
256,192,73905,1,8,0:0:0:0:
256,192,74060,1,8,0:0:0:0:
256,192,74137,1,8,0:0:0:0:
256,192,74214,1,0,0:0:0:0:
256,192,74369,1,0,0:0:0:0:
256,192,74524,1,8,0:0:0:0:
256,192,74678,1,0,0:0:0:0:
256,192,74756,1,0,0:0:0:0:
256,192,74833,1,8,0:0:0:0:
256,192,74988,1,0,0:0:0:0:
256,192,75142,1,8,0:0:0:0:
256,192,75297,1,8,0:0:0:0:
256,192,75374,1,0,0:0:0:0:
256,192,75451,1,0,0:0:0:0:
256,192,75606,1,8,0:0:0:0:
256,192,75761,1,0,0:0:0:0:
256,192,75915,1,8,0:0:0:0:
256,192,75993,1,8,0:0:0:0:
256,192,76070,1,8,0:0:0:0:
256,192,76225,1,8,0:0:0:0:
256,192,76379,1,4,0:0:0:0:
256,192,76534,1,4,0:0:0:0:
256,192,76843,1,8,0:0:0:0:
256,192,76998,1,0,0:0:0:0:
256,192,77153,1,0,0:0:0:0:
256,192,77230,1,0,0:0:0:0:
256,192,77307,1,8,0:0:0:0:
256,192,77462,1,0,0:0:0:0:
256,192,77617,1,8,0:0:0:0:
256,192,77771,1,0,0:0:0:0:
256,192,77848,1,8,0:0:0:0:
256,192,77926,1,0,0:0:0:0:
256,192,78080,1,8,0:0:0:0:
256,192,78235,1,0,0:0:0:0:
256,192,78390,1,8,0:0:0:0:
256,192,78467,1,8,0:0:0:0:
256,192,78545,1,8,0:0:0:0:
256,192,78699,1,8,0:0:0:0:
256,192,78854,1,0,0:0:0:0:
256,192,79163,1,0,0:0:0:0:
256,192,79318,1,8,0:0:0:0:
256,192,79395,1,0,0:0:0:0:
256,192,79472,1,0,0:0:0:0:
256,192,79627,1,0,0:0:0:0:
256,192,79781,1,8,0:0:0:0:
256,192,79936,1,0,0:0:0:0:
256,192,80013,1,0,0:0:0:0:
256,192,80091,1,8,0:0:0:0:
256,192,80245,1,0,0:0:0:0:
256,192,80400,1,8,0:0:0:0:
256,192,80555,1,8,0:0:0:0:
256,192,80632,1,8,0:0:0:0:
256,192,80709,1,0,0:0:0:0:
256,192,80864,1,8,0:0:0:0:
256,192,81019,1,0,0:0:0:0:
256,192,81173,1,8,0:0:0:0:
256,192,81251,1,0,0:0:0:0:
256,192,81328,1,8,0:0:0:0:
256,192,81483,1,0,0:0:0:0:
256,192,81637,1,8,0:0:0:0:
256,192,81792,1,8,0:0:0:0:
256,192,81869,1,0,0:0:0:0:
256,192,81946,1,0,0:0:0:0:
256,192,82101,1,8,0:0:0:0:
256,192,82256,1,0,0:0:0:0:
256,192,82410,1,8,0:0:0:0:
256,192,82488,1,8,0:0:0:0:
256,192,82565,1,0,0:0:0:0:
256,192,82720,1,8,0:0:0:0:
256,192,82797,1,8,0:0:0:0:
256,192,82874,1,0,0:0:0:0:
256,192,83029,1,8,0:0:0:0:
256,192,83106,1,8,0:0:0:0:
256,192,83184,1,0,0:0:0:0:
256,192,83338,1,0,0:0:0:0:
256,192,83416,1,0,0:0:0:0:
256,192,83493,1,8,0:0:0:0:
256,192,83802,1,4,0:0:0:0:
256,192,84111,1,8,0:0:0:0:
256,192,84420,1,0,0:0:0:0:
256,192,84575,1,0,0:0:0:0:
256,192,84884,1,8,0:0:0:0:
256,192,85193,1,0,0:0:0:0:
256,192,85348,1,8,0:0:0:0:
256,192,85503,1,0,0:0:0:0:
256,192,85812,1,0,0:0:0:0:
256,192,85967,1,8,0:0:0:0:
256,192,86121,1,8,0:0:0:0:
256,192,86276,1,4,0:0:0:0:
256,192,86585,1,4,0:0:0:0:
256,192,86895,1,0,0:0:0:0:
256,192,86972,1,0,0:0:0:0:
256,192,87049,1,8,0:0:0:0:
256,192,87126,1,8,0:0:0:0:
256,192,87204,1,0,0:0:0:0:
256,192,87358,1,4,0:0:0:0:
256,192,87823,1,12,0:0:0:0:
