osu file format v14

[General]
AudioFilename: Tutti.mp3
AudioLeadIn: 0
PreviewTime: 59060
Countdown: 0
SampleSet: Normal
StackLeniency: 0.8
Mode: 1
LetterboxInBreaks: 0
WidescreenStoryboard: 0

[Editor]
Bookmarks: 7874,16225,16534
DistanceSpacing: 0.5
BeatDivisor: 4
GridSize: 4
TimelineZoom: 1.3

[Metadata]
Title:Tutti!
TitleUnicode:トゥッティ!
Artist:Kitauji Quartet
ArtistUnicode:北宇治カルテット
Creator:Charlotte
Version:Futsuu
Source:響け!ユーフォニアム
Tags:Hibike! Euphonium Nofool Nardoxyribonucleic JUDYDANNY
BeatmapID:819996
BeatmapSetID:373212

[Difficulty]
HPDrainRate:7
CircleSize:4
OverallDifficulty:4
ApproachRate:9.2
SliderMultiplier:1.4
SliderTickRate:1

[Events]
//Background and Video events
0,0,"hibike_euphonium_71.jpg",0,90
//Break Periods
//Storyboard Layer 0 (Background)
//Storyboard Layer 1 (Fail)
//Storyboard Layer 2 (Pass)
//Storyboard Layer 3 (Foreground)
//Storyboard Sound Samples

[TimingPoints]
916,309.278350515464,4,1,0,40,1,0
5400,-100,4,1,0,80,0,0
7410,-100,4,1,0,100,0,0
8338,-100,4,1,0,90,0,0
18235,-100,4,1,0,80,0,0
28132,-100,4,1,0,85,0,0
38029,-100,4,1,0,75,0,0
47926,-100,4,1,0,80,0,0
52874,-100,4,1,0,95,0,0
59060,-100,4,1,0,100,0,1
73905,-100,4,1,0,95,0,1
78854,-100,4,1,0,90,0,1
83802,-100,4,1,0,80,0,0
87823,-100,4,1,0,100,0,0

[Colours]
Combo1 : 128,0,255
Combo2 : 0,204,0
Combo3 : 0,92,206
Combo4 : 234,0,0

[HitObjects]
256,192,916,5,0,0:0:0:0:
256,192,1225,1,0,0:0:0:0:
256,192,1534,1,0,0:0:0:0:
256,192,1998,1,8,0:0:0:0:
256,192,2307,1,0,0:0:0:0:
256,192,2617,1,0,0:0:0:0:
256,192,3080,1,0,0:0:0:0:
256,192,3390,1,0,0:0:0:0:
256,192,5555,1,0,0:0:0:0:
256,192,5709,1,0,0:0:0:0:
256,192,5864,1,8,0:0:0:0:
256,192,6173,1,8,0:0:0:0:
256,192,6483,1,8,0:0:0:0:
256,192,6946,1,4,0:0:0:0:
256,192,7410,1,12,0:0:0:0:
256,192,8338,1,4,0:0:0:0:
256,192,8647,1,8,0:0:0:0:
256,192,8957,1,0,0:0:0:0:
256,192,9111,1,0,0:0:0:0:
256,192,9266,1,8,0:0:0:0:
256,192,9575,1,0,0:0:0:0:
256,192,9885,1,8,0:0:0:0:
256,192,10194,1,8,0:0:0:0:
256,192,10812,1,0,0:0:0:0:
256,192,11122,1,8,0:0:0:0:
256,192,11431,1,0,0:0:0:0:
256,192,12050,1,0,0:0:0:0:
256,192,12359,1,8,0:0:0:0:
256,192,12823,1,0,0:0:0:0:
256,192,12977,1,8,0:0:0:0:
256,192,13287,1,0,0:0:0:0:
256,192,13596,1,8,0:0:0:0:
256,192,13905,1,0,0:0:0:0:
256,192,14060,1,0,0:0:0:0:
256,192,14214,1,8,0:0:0:0:
256,192,14524,1,0,0:0:0:0:
256,192,14833,1,8,0:0:0:0:
256,192,15142,1,8,0:0:0:0:
256,192,15761,1,12,0:0:0:0:
256,192,16998,1,0,0:0:0:0:
256,192,17617,1,12,0:0:0:0:
256,192,18235,1,8,0:0:0:0:
256,192,18544,1,0,0:0:0:0:
256,192,18854,1,0,0:0:0:0:
256,192,19318,1,8,0:0:0:0:
256,192,20091,1,8,0:0:0:0:
256,192,20400,1,8,0:0:0:0:
256,192,20709,1,0,0:0:0:0:
256,192,21019,1,0,0:0:0:0:
256,192,21328,1,8,0:0:0:0:
256,192,21946,1,8,0:0:0:0:
256,192,22101,1,8,0:0:0:0:
256,192,22410,1,8,0:0:0:0:
256,192,22720,1,0,0:0:0:0:
256,192,23184,1,12,0:0:0:0:
256,192,23802,1,0,0:0:0:0:
256,192,23957,1,0,0:0:0:0:
256,192,24266,1,0,0:0:0:0:
256,192,24575,1,0,0:0:0:0:
256,192,24885,1,8,0:0:0:0:
256,192,25658,1,8,0:0:0:0:
256,192,26122,1,0,0:0:0:0:
256,192,26276,1,8,0:0:0:0:
256,192,26740,1,0,0:0:0:0:
256,192,26895,1,12,0:0:0:0:
256,192,27204,1,12,0:0:0:0:
256,192,27513,1,12,0:0:0:0:
256,192,28132,1,8,0:0:0:0:
256,192,28441,1,0,0:0:0:0:
256,192,28751,1,0,0:0:0:0:
256,192,29214,1,8,0:0:0:0:
256,192,29988,1,0,0:0:0:0:
256,192,30142,1,0,0:0:0:0:
256,192,30297,1,8,0:0:0:0:
256,192,30606,1,0,0:0:0:0:
256,192,30916,1,0,0:0:0:0:
256,192,31225,1,8,0:0:0:0:
256,192,31843,1,8,0:0:0:0:
256,192,31998,1,8,0:0:0:0:
256,192,32307,1,8,0:0:0:0:
256,192,32617,1,0,0:0:0:0:
256,192,33080,1,0,0:0:0:0:
256,192,33235,1,8,0:0:0:0:
256,192,33544,1,8,0:0:0:0:
256,192,33854,1,8,0:0:0:0:
256,192,34163,1,0,0:0:0:0:
256,192,34627,1,8,0:0:0:0:
256,192,34781,1,8,0:0:0:0:
256,192,34936,1,0,0:0:0:0:
256,192,35245,1,8,0:0:0:0:
256,192,35555,1,0,0:0:0:0:
256,192,36173,1,0,0:0:0:0:
256,192,36792,1,0,0:0:0:0:
256,192,36946,1,0,0:0:0:0:
256,192,37256,1,4,0:0:0:0:
256,192,37565,1,12,0:0:0:0:
256,192,38029,1,0,0:0:0:0:
256,192,38647,1,0,0:0:0:0:
256,192,38957,1,8,0:0:0:0:
256,192,39266,1,0,0:0:0:0:
256,192,39421,1,0,0:0:0:0:
256,192,39575,1,8,0:0:0:0:
256,192,39885,1,0,0:0:0:0:
256,192,40194,1,8,0:0:0:0:
256,192,40503,1,0,0:0:0:0:
256,192,41122,1,0,0:0:0:0:
256,192,41431,1,8,0:0:0:0:
256,192,41740,1,0,0:0:0:0:
256,192,42050,1,8,0:0:0:0:
256,192,42204,1,8,0:0:0:0:
256,192,42668,1,8,0:0:0:0:
256,192,42977,1,0,0:0:0:0:
256,192,43596,1,0,0:0:0:0:
256,192,43905,1,8,0:0:0:0:
256,192,44214,1,0,0:0:0:0:
256,192,44369,1,0,0:0:0:0:
256,192,44524,1,8,0:0:0:0:
256,192,44833,1,0,0:0:0:0:
256,192,45142,1,8,0:0:0:0:
256,192,45452,1,0,0:0:0:0:
256,192,46070,1,0,0:0:0:0:
256,192,46379,1,8,0:0:0:0:
256,192,46689,1,12,0:0:0:0:
256,192,47307,1,8,0:0:0:0:
256,192,47462,1,8,0:0:0:0:
256,192,47617,1,8,0:0:0:0:
256,192,47926,1,4,0:0:0:0:
256,192,48544,1,0,0:0:0:0:
256,192,48699,1,0,0:0:0:0:
256,192,48854,1,8,0:0:0:0:
256,192,49163,1,0,0:0:0:0:
256,192,49472,1,8,0:0:0:0:
256,192,49781,1,0,0:0:0:0:
256,192,50091,1,8,0:0:0:0:
256,192,50400,1,0,0:0:0:0:
256,192,51019,1,0,0:0:0:0:
256,192,51328,1,8,0:0:0:0:
256,192,51483,1,8,0:0:0:0:
256,192,51637,1,0,0:0:0:0:
256,192,52256,1,0,0:0:0:0:
256,192,52565,1,0,0:0:0:0:
256,192,52874,1,12,0:0:0:0:
256,192,53029,1,12,0:0:0:0:
256,192,53338,1,4,0:0:0:0:
256,192,53647,1,4,0:0:0:0:
256,192,53957,1,12,0:0:0:0:
256,192,54421,1,0,0:0:0:0:
256,192,54730,1,8,0:0:0:0:
256,192,55039,1,8,0:0:0:0:
256,192,55348,1,0,0:0:0:0:
256,192,55967,1,0,0:0:0:0:
256,192,56586,1,8,0:0:0:0:
256,192,56740,12,0,58441,0:0:0:0:
256,192,59060,5,4,0:0:0:0:
256,192,59369,5,8,0:0:0:0:
256,192,59678,1,0,0:0:0:0:
256,192,59988,1,0,0:0:0:0:
256,192,60143,1,0,0:0:0:0:
256,192,60606,1,8,0:0:0:0:
256,192,60761,1,8,0:0:0:0:
256,192,61534,1,8,0:0:0:0:
256,192,61843,1,0,0:0:0:0:
256,192,62153,1,8,0:0:0:0:
256,192,62462,1,8,0:0:0:0:
256,192,62617,1,0,0:0:0:0:
256,192,62926,1,8,0:0:0:0:
256,192,63235,1,8,0:0:0:0:
256,192,64008,1,0,0:0:0:0:
256,192,64318,1,8,0:0:0:0:
256,192,64627,1,0,0:0:0:0:
256,192,64936,1,0,0:0:0:0:
256,192,65091,1,0,0:0:0:0:
256,192,65400,1,0,0:0:0:0:
256,192,65709,1,8,0:0:0:0:
256,192,66019,1,8,0:0:0:0:
256,192,66173,1,8,0:0:0:0:
256,192,66483,1,12,0:0:0:0:
256,192,66792,1,8,0:0:0:0:
256,192,66946,1,8,0:0:0:0:
256,192,67101,1,0,0:0:0:0:
256,192,67565,1,12,0:0:0:0:
256,192,67874,1,8,0:0:0:0:
256,192,68029,1,0,0:0:0:0:
256,192,68338,1,0,0:0:0:0:
256,192,68957,1,4,0:0:0:0:
256,192,69266,1,8,0:0:0:0:
256,192,69575,1,0,0:0:0:0:
256,192,69885,1,8,0:0:0:0:
256,192,70039,1,0,0:0:0:0:
256,192,70348,1,8,0:0:0:0:
256,192,70503,1,8,0:0:0:0:
256,192,70658,1,8,0:0:0:0:
256,192,71431,1,0,0:0:0:0:
256,192,71740,1,0,0:0:0:0:
256,192,72050,1,8,0:0:0:0:
256,192,72359,1,0,0:0:0:0:
256,192,72513,1,8,0:0:0:0:
256,192,72823,1,8,0:0:0:0:
256,192,73132,1,0,0:0:0:0:
256,192,73596,1,8,0:0:0:0:
256,192,73905,1,8,0:0:0:0:
256,192,74060,1,8,0:0:0:0:
256,192,74524,1,0,0:0:0:0:
256,192,75142,1,8,0:0:0:0:
256,192,75761,1,0,0:0:0:0:
256,192,76070,1,8,0:0:0:0:
256,192,76379,1,8,0:0:0:0:
256,192,76534,1,8,0:0:0:0:
256,192,76998,1,0,0:0:0:0:
256,192,77617,1,8,0:0:0:0:
256,192,78235,1,0,0:0:0:0:
256,192,78854,1,0,0:0:0:0:
256,192,79163,1,8,0:0:0:0:
256,192,79472,1,0,0:0:0:0:
256,192,79781,1,8,0:0:0:0:
256,192,79936,1,8,0:0:0:0:
256,192,80245,1,0,0:0:0:0:
256,192,80555,1,8,0:0:0:0:
256,192,80864,1,0,0:0:0:0:
256,192,81328,1,8,0:0:0:0:
256,192,81637,1,0,0:0:0:0:
256,192,81946,1,8,0:0:0:0:
256,192,82256,1,0,0:0:0:0:
256,192,82410,1,0,0:0:0:0:
256,192,82720,1,8,0:0:0:0:
256,192,83029,1,8,0:0:0:0:
256,192,83338,1,8,0:0:0:0:
256,192,83493,1,8,0:0:0:0:
256,192,83802,1,12,0:0:0:0:
256,192,84885,1,8,0:0:0:0:
256,192,85194,1,0,0:0:0:0:
256,192,85503,1,0,0:0:0:0:
256,192,85812,1,8,0:0:0:0:
256,192,85967,1,8,0:0:0:0:
256,192,86276,1,12,0:0:0:0:
256,192,86586,1,12,0:0:0:0:
256,192,86895,1,0,0:0:0:0:
256,192,87050,1,0,0:0:0:0:
256,192,87359,1,4,0:0:0:0:
256,192,87823,1,12,0:0:0:0:
