osu file format v12

[General]
AudioFilename: 1.mp3
AudioLeadIn: 0
PreviewTime: 798
Countdown: 0
SampleSet: Soft
StackLeniency: 0.5
Mode: 0
LetterboxInBreaks: 1
WidescreenStoryboard: 1

[Editor]
Bookmarks: 11132,21965,32465,44298,54798,76298,96632,108464,129798
DistanceSpacing: 1.6
BeatDivisor: 4
GridSize: 4

[Metadata]
Title:Kazahana koi
TitleUnicode:風華恋
Artist:Kitano Kie
ArtistUnicode:北乃きい
Creator:OrangeNeKo
Version:Neko.I
Source:
Tags:
BeatmapID:365571
BeatmapSetID:147676

[Difficulty]
HPDrainRate:7
CircleSize:4
OverallDifficulty:7
ApproachRate:9
SliderMultiplier:2.99999990463257
SliderTickRate:1

[Events]
//Background and Video events
0,0,"bg.jpg",0,0
//Break Periods
//Storyboard Layer 0 (Background)
//Storyboard Layer 1 (Fail)
//Storyboard Layer 2 (Pass)
//Storyboard Layer 3 (Foreground)
//Storyboard Sound Samples
//Background Colour Transformations
3,100,163,162,255

[TimingPoints]
-868,666.666666666667,4,2,2,20,1,0
22131,-100,4,2,3,20,0,0
22465,-100,4,2,3,30,0,0
22798,-100,4,2,1,70,0,0
23131,-100,4,2,3,70,0,0
23298,-100,4,2,1,70,0,0
27131,-100,4,2,3,70,0,0
27298,-100,4,2,1,70,0,0
32798,-100,4,2,3,30,0,0
33132,-100,4,2,1,70,0,0
44464,-100,4,2,3,70,0,0
44631,-100,4,2,1,70,0,0
65798,-100,4,2,3,70,0,0
65964,-100,4,2,1,70,0,0
68298,-100,4,2,3,30,0,0
68465,-100,4,2,1,70,0,0
73632,-100,4,2,3,30,0,0
73798,-100,4,2,1,70,0,0
84798,-100,4,2,3,30,0,0
84965,-100,4,2,1,70,0,0
87131,-80,4,2,3,70,0,1
87298,-80,4,2,3,20,0,1
87465,-80,4,2,3,30,0,1
87798,-80,4,2,1,70,0,1
98965,-80,4,2,3,30,0,1
99132,-80,4,2,1,70,0,1
100798,-80,4,2,3,30,0,1
100965,-80,4,2,1,70,0,1
101632,-80,4,2,3,30,0,1
101798,-80,4,2,1,70,0,1
103465,-80,4,2,3,30,0,1
103632,-80,4,2,1,70,0,1
105132,-133.333333333333,4,2,1,70,0,1
105798,-100,4,2,1,70,0,0
151131,-80,4,2,1,70,0,1
169798,-100,4,2,1,70,0,0
215131,-80,4,2,1,70,0,1
233798,-100,4,2,1,70,0,0
236464,-80,4,2,1,70,0,1
257798,-100,4,2,1,70,0,0

[Colours]
Combo1 : 255,0,0
Combo2 : 255,128,0
Combo3 : 255,255,0

[HitObjects]
256,192,797,1,0,0:0:0:0:
360,152,1131,1,0,0:0:0:0:
404,256,1464,1,0,0:0:0:0:
300,296,1798,2,0,B|344:280|308:240|308:240|280:304|176:336|176:336|144:328|108:280,1,299.999990463257,4|0,0:0|0:0,0:0:0:0:
68,220,2798,1,0,0:0:0:0:
108,200,2965,1,0,0:0:0:0:
152,196,3131,1,4,0:0:0:0:
256,232,3464,1,0,0:0:0:0:
312,136,3798,1,0,0:0:0:0:
200,136,4132,1,0,0:0:0:0:
256,40,4464,5,4,0:0:0:0:
144,40,4798,1,0,0:0:0:0:
132,88,4965,1,0,0:0:0:0:
368,88,5298,1,0,0:0:0:0:
380,136,5465,1,0,0:0:0:0:
256,196,5798,1,0,0:0:0:0:
160,256,6131,5,0,0:0:0:0:
264,216,6464,1,0,0:0:0:0:
368,256,6798,1,0,0:0:0:0:
472,216,7132,2,0,B|520:288|466:353|466:353|381:348|367:253,1,299.999990463257,4|0,0:0|0:0,0:0:0:0:
384,144,8131,1,0,0:0:0:0:
384,144,8298,1,0,0:0:0:0:
384,144,8464,1,4,0:0:0:0:
348,248,8798,1,0,0:0:0:0:
264,320,9131,1,0,0:0:0:0:
152,336,9464,1,0,0:0:0:0:
256,296,9798,5,4,0:0:0:0:
324,208,10132,1,0,0:0:0:0:
324,208,10298,2,0,P|240:196|172:224,1,149.999995231628,0|0,0:0|0:0,0:0:0:0:
140,236,10798,2,0,P|68:188|60:128,1,149.999995231628,0|0,0:0|0:0,0:0:0:0:
132,48,11464,5,0,0:0:0:0:
232,96,11798,1,0,0:0:0:0:
136,152,12131,1,0,0:0:0:0:
36,200,12465,2,0,B|84:296|204:248|204:248|224:284|224:312|224:312|212:340|180:344,1,299.999990463257,4|0,0:0|0:0,0:0:0:0:
96,336,13465,1,0,0:0:0:0:
112,292,13631,1,0,0:0:0:0:
148,264,13798,1,4,0:0:0:0:
380,336,14132,5,0,0:0:0:0:
280,288,14466,1,0,0:0:0:0:
376,232,14799,1,0,0:0:0:0:
476,184,15133,2,0,B|428:88|308:136|308:136|288:100|288:72|288:72|300:44|332:40,1,299.999990463257,0|0,0:0|0:0,0:0:0:0:
416,48,16133,1,0,0:0:0:0:
400,92,16299,1,0,0:0:0:0:
364,120,16466,5,0,0:0:0:0:
280,184,16798,1,0,0:0:0:0:
268,140,16964,1,0,0:0:0:0:
284,96,17131,1,0,0:0:0:0:
284,96,17798,6,0,B|260:168|192:204|192:204|188:112|128:68,1,299.999990463257,4|0,0:0|0:0,0:0:0:0:
24,56,18798,1,0,0:0:0:0:
76,156,19131,1,4,0:0:0:0:
72,268,19464,1,0,0:0:0:0:
72,268,19631,1,0,0:0:0:0:
72,268,19798,1,0,0:0:0:0:
160,336,20132,1,0,0:0:0:0:
256,280,20464,5,4,0:0:0:0:
256,192,20631,8,0,21798,0:0:0:0:
256,192,22132,6,0,L|228:216,3,37.4999988079071,4|0|0|0,0:0|0:0|0:0|0:0,0:0:0:0:
248,176,22465,2,0,L|211:182,3,37.4999988079071,4|0|0|0,0:0|0:0|0:0|0:0,0:0:0:0:
252,160,22798,2,0,P|260:124|288:88,1,74.9999976158142,4|0,0:0|0:0,0:0:0:0:
404,80,23132,2,0,P|396:116|368:152,1,74.9999976158142,4|0,0:0|0:0,0:0:0:0:
375,147,23631,5,2,0:0:0:0:
436,200,23798,2,0,P|404:219|359:225,1,74.9999976158142,12|0,0:0|0:0,0:0:0:0:
408,340,24132,1,6,0:0:0:0:
288,352,24298,2,0,P|292:315|316:276,1,74.9999976158142,4|4,0:0|0:0,0:0:0:0:
310,282,24798,6,0,P|268:308|252:328,1,74.9999976158142,6|0,0:0|0:0,0:0:0:0:
136,352,25132,2,0,P|116:284|116:276,1,74.9999976158142,12|0,0:0|0:0,0:0:0:0:
40,188,25465,1,4,0:0:0:0:
116,280,25632,5,0,0:0:0:0:
40,188,25798,2,0,P|112:164|188:180,1,149.999995231628,6|0,0:0|0:0,0:0:0:0:
256,84,26298,1,2,0:0:0:0:
183,178,26464,1,8,0:0:0:0:
140,108,26632,1,0,0:0:0:0:
256,84,26798,1,2,0:0:0:0:
240,88,27132,5,2,0:0:0:0:
224,92,27465,6,0,P|264:80|304:72,1,74.9999976158142,6|0,0:0|0:0,0:0:0:0:
404,128,27798,2,0,P|364:140|324:148,1,74.9999976158142,12|0,0:0|0:0,0:0:0:0:
312,188,28132,2,0,P|352:197|391:210,1,74.9999976158142,4|0,0:0|0:0,0:0:0:0:
449,309,28465,2,0,P|408:299|369:286,1,74.9999976158142,6|0,0:0|0:0,0:0:0:0:
376,288,28964,5,2,0:0:0:0:
352,284,29132,2,0,P|312:296|284:324,1,74.9999976158142,12|0,0:0|0:0,0:0:0:0:
180,264,29465,2,0,P|172:224|180:192,1,74.9999976158142,6|4,0:0|0:0,0:0:0:0:
220,168,29798,2,0,P|228:204|219:240,1,74.9999976158142,4|0,0:0|0:0,0:0:0:0:
100,260,30132,2,0,P|92:220|100:188,1,74.9999976158142,6|0,0:0|0:0,0:0:0:0:
172,92,30465,2,0,P|180:132|172:164,1,74.9999976158142,12|0,0:0|0:0,0:0:0:0:
56,124,30798,1,4,0:0:0:0:
164,76,30965,5,0,0:0:0:0:
228,180,31132,2,0,P|304:148|336:84,1,149.999995231628,6|0,0:0|0:0,0:0:0:0:
444,40,31631,1,2,0:0:0:0:
336,92,31798,2,0,P|292:92|260:88,1,74.9999976158142,8|0,0:0|0:0,0:0:0:0:
160,152,32131,1,6,0:0:0:0:
148,144,32465,1,0,0:0:0:0:
136,136,32798,6,0,P|136:116|140:96,3,37.4999988079071,6|0|0|0,0:0|0:0|0:0|0:0,0:0:0:0:
136,136,33132,2,0,P|100:152|72:176,1,74.9999976158142,12|0,0:0|0:0,0:0:0:0:
156,260,33465,2,0,P|132:291|120:326,1,74.9999976158142,4|0,0:0|0:0,0:0:0:0:
240,332,33798,2,0,P|308:328|376:280,1,149.999995231628,6|0,0:0|0:0,0:0:0:0:
464,200,34298,5,2,0:0:0:0:
380,200,34465,2,0,P|344:204|312:228,1,74.9999976158142,12|0,0:0|0:0,0:0:0:0:
208,168,34798,1,6,0:0:0:0:
313,226,34965,2,0,P|329:189|356:162,1,74.9999976158142,4|4,0:0|0:0,0:0:0:0:
464,124,35298,1,0,0:0:0:0:
348,88,35465,6,0,P|308:64|288:40,1,74.9999976158142,6|0,0:0|0:0,0:0:0:0:
168,36,35798,2,0,P|172:88|184:112,1,74.9999976158142,12|0,0:0|0:0,0:0:0:0:
168,36,36132,2,0,P|145:83|143:109,1,74.9999976158142,4|0,0:0|0:0,0:0:0:0:
24,100,36465,2,0,P|48:176|104:216,1,149.999995231628,6|0,0:0|0:0,0:0:0:0:
68,332,36964,5,2,0:0:0:0:
140,288,37132,2,0,P|168:272|212:264,1,74.9999976158142,12|0,0:0|0:0,0:0:0:0:
300,344,37465,1,6,0:0:0:0:
210,264,37632,1,4,0:0:0:0:
300,344,37798,2,0,P|320:319|336:277,1,74.9999976158142,4|0,0:0|0:0,0:0:0:0:
436,212,38131,1,2,0:0:0:0:
436,212,38465,6,0,P|396:216|360:200,1,74.9999976158142,12|0,0:0|0:0,0:0:0:0:
256,152,38798,1,0,0:0:0:0:
140,116,38965,1,0,0:0:0:0:
20,104,39132,2,0,B|60:92|60:92|88:32|144:36,1,149.999995231628,6|0,0:0|0:0,0:0:0:0:
256,72,39631,5,2,0:0:0:0:
372,36,39798,2,0,P|376:76|368:116,1,74.9999976158142,12|0,0:0|0:0,0:0:0:0:
256,72,40132,2,0,P|260:112|252:152,1,74.9999976158142,6|0,0:0|0:0,0:0:0:0:
140,348,40465,2,0,P|136:308|144:268,1,74.9999976158142,4|0,0:0|0:0,0:0:0:0:
256,312,40799,2,0,P|252:272|260:232,1,74.9999976158142,6|0,0:0|0:0,0:0:0:0:
368,284,41132,2,0,P|364:244|372:204,1,74.9999976158142,12|0,0:0|0:0,0:0:0:0:
380,92,41465,1,4,0:0:0:0:
272,148,41632,5,0,0:0:0:0:
100,56,41798,2,0,P|136:44|176:36,1,74.9999976158142,6|0,0:0|0:0,0:0:0:0:
156,156,42131,1,2,0:0:0:0:
40,184,42298,1,2,0:0:0:0:
100,288,42465,2,0,P|64:300|24:308,1,74.9999976158142,8|0,0:0|0:0,0:0:0:0:
132,248,42798,2,0,P|152:312|228:344,1,149.999995231628,2|8,0:0|0:0,0:0:0:0:
224,344,43465,6,0,P|240:316|248:272,1,74.9999976158142,2|4,0:0|0:0,0:0:0:0:
336,192,43797,1,8,0:0:0:0:
364,268,43964,1,4,0:0:0:0:
452,348,44131,1,4,0:0:0:0:
452,348,44465,6,0,P|440:300|444:268,1,74.9999976158143,4|0,0:0|0:0,0:0:0:0:
352,196,44798,1,4,0:0:0:0:
336,192,45132,1,4,0:0:0:0:
320,188,45465,6,0,P|332:236|328:268,1,74.9999976158143,2|0,0:0|0:0,0:0:0:0:
244,344,45798,1,4,0:0:0:0:
236,332,46132,1,4,0:0:0:0:
232,316,46465,1,12,0:0:0:0:
232,316,46798,5,0,0:0:0:0:
124,268,46965,1,0,0:0:0:0:
48,172,47132,2,0,P|37:220|36:252,1,74.9999976158143,6|0,0:0|0:0,0:0:0:0:
152,268,47465,2,0,P|162:219|164:188,1,74.9999976158143,4|0,0:0|0:0,0:0:0:0:
128,80,47798,1,4,0:0:0:0:
128,80,48132,6,0,L|208:72,1,74.9999976158143,2|0,0:0|0:0,0:0:0:0:
304,140,48464,1,4,0:0:0:0:
292,148,48798,1,4,0:0:0:0:
276,152,49131,1,12,0:0:0:0:
408,68,49631,5,4,0:0:0:0:
428,80,49798,2,0,P|432:120|428:168,1,74.9999976158143,6|0,0:0|0:0,0:0:0:0:
348,240,50132,1,4,0:0:0:0:
336,232,50465,1,4,0:0:0:0:
328,220,50798,6,0,P|324:260|328:308,1,74.9999976158143,2|0,0:0|0:0,0:0:0:0:
436,348,51132,2,0,P|440:308|436:260,1,74.9999976158143,4|0,0:0|0:0,0:0:0:0:
252,192,51465,2,0,P|244:272|252:344,1,149.999995231629,4|12,0:0|0:0,0:0:0:0:
251,340,52132,5,0,0:0:0:0:
132,328,52298,1,0,0:0:0:0:
64,232,52465,2,0,P|60:188|64:156,1,74.9999976158143,6|0,0:0|0:0,0:0:0:0:
160,84,52798,2,0,P|164:128|160:160,1,74.9999976158143,4|0,0:0|0:0,0:0:0:0:
196,276,53132,1,4,0:0:0:0:
180,276,53465,6,0,P|176:232|180:196,1,74.9999976158143,2|0,0:0|0:0,0:0:0:0:
276,132,53798,1,4,0:0:0:0:
276,148,54132,1,4,0:0:0:0:
276,164,54465,1,12,0:0:0:0:
124,56,54964,5,4,0:0:0:0:
148,56,55132,2,0,P|181:70|215:90,1,74.9999976158143,6|0,0:0|0:0,0:0:0:0:
112,152,55465,1,4,0:0:0:0:
96,152,55798,1,4,0:0:0:0:
80,152,56132,6,0,P|46:166|12:186,1,74.9999976158143,2|0,0:0|0:0,0:0:0:0:
120,244,56464,1,4,0:0:0:0:
136,244,56798,1,4,0:0:0:0:
152,248,57132,1,12,0:0:0:0:
152,248,57465,5,0,0:0:0:0:
256,312,57632,1,0,0:0:0:0:
356,248,57798,2,0,P|351:287|336:324,1,74.9999976158143,6|0,0:0|0:0,0:0:0:0:
288,208,58132,1,4,0:0:0:0:
408,192,58298,2,0,P|428:228|428:267,1,74.9999976158143,0|12,0:0|0:0,0:0:0:0:
432,260,58798,6,0,P|435:222|453:190,1,74.9999976158143,2|0,0:0|0:0,0:0:0:0:
420,76,59131,1,4,0:0:0:0:
408,84,59465,1,4,0:0:0:0:
392,88,59798,1,12,0:0:0:0:
392,88,60132,5,0,0:0:0:0:
276,52,60298,1,0,0:0:0:0:
160,88,60465,2,0,P|120:92|80:84,1,74.9999976158143,6|0,0:0|0:0,0:0:0:0:
176,168,60798,1,4,0:0:0:0:
190,164,61131,1,4,0:0:0:0:
203,156,61465,5,2,0:0:0:0:
112,232,61632,1,0,0:0:0:0:
232,232,61798,2,0,P|220:272|200:304,1,74.9999976158143,4|0,0:0|0:0,0:0:0:0:
312,248,62132,1,4,0:0:0:0:
314,233,62465,1,12,0:0:0:0:
312,218,62798,5,0,0:0:0:0:
352,332,62964,1,4,0:0:0:0:
396,220,63132,2,0,P|432:248|452:280,1,74.9999976158143,6|0,0:0|0:0,0:0:0:0:
444,152,63465,1,4,0:0:0:0:
444,152,63798,6,0,P|404:136|372:140,1,74.9999976158143,4|0,0:0|0:0,0:0:0:0:
304,40,64132,2,0,P|270:66|257:96,1,74.9999976158143,2|0,0:0|0:0,0:0:0:0:
136,96,64465,2,0,P|142:138|161:164,1,74.9999976158143,4|0,0:0|0:0,0:0:0:0:
256,236,64798,1,0,0:0:0:0:
140,268,64965,2,0,L|64:300,1,74.9999976158143,0|12,0:0|0:0,0:0:0:0:
312,296,65465,1,2,0:0:0:0:
432,88,65798,5,4,0:0:0:0:
396,204,65965,1,0,0:0:0:0:
276,184,66132,1,0,0:0:0:0:
156,172,66298,1,2,0:0:0:0:
36,152,66465,2,0,P|32:112|36:76,1,74.9999976158143,12|4,0:0|0:0,0:0:0:0:
144,24,66798,1,2,0:0:0:0:
144,24,67132,5,4,0:0:0:0:
256,64,67298,1,0,0:0:0:0:
376,68,67465,1,0,0:0:0:0:
488,112,67630,1,4,0:0:0:0:
388,180,67798,2,0,P|388:220|392:256,1,74.9999976158143,12|4,0:0|0:0,0:0:0:0:
392,256,68298,6,0,P|380:244|368:224,2,37.4999988079071,0|0|6,0:0|0:0|0:0,0:0:0:0:
508,224,68632,1,0,0:0:0:0:
468,336,68798,1,0,0:0:0:0:
348,356,68964,1,4,0:0:0:0:
232,328,69132,2,0,P|192:316|152:316,1,74.9999976158143,12|4,0:0|0:0,0:0:0:0:
49,265,69465,2,0,P|84:241|116:231,1,74.9999976158143,2|0,0:0|0:0,0:0:0:0:
233,213,69798,5,4,0:0:0:0:
140,136,69965,1,0,0:0:0:0:
20,124,70132,1,0,0:0:0:0:
140,112,70298,1,0,0:0:0:0:
256,76,70465,2,0,P|295:57|324:29,1,74.9999976158143,12|4,0:0|0:0,0:0:0:0:
420,96,70798,1,4,0:0:0:0:
420,96,71131,5,6,0:0:0:0:
448,212,71298,1,0,0:0:0:0:
408,324,71465,1,0,0:0:0:0:
296,368,71630,1,4,0:0:0:0:
400,308,71798,2,0,P|409:258|405:230,1,74.9999976158143,12|4,0:0|0:0,0:0:0:0:
346,129,72131,1,2,0:0:0:0:
347,129,72464,5,4,0:0:0:0:
228,155,72632,1,0,0:0:0:0:
148,244,72798,1,0,0:0:0:0:
124,360,72964,1,4,0:0:0:0:
112,240,73132,2,0,P|92:200|72:176,1,74.9999976158143,12|4,0:0|0:0,0:0:0:0:
72,176,73632,6,0,P|76:200|72:220,2,37.4999988079071,0|0|6,0:0|0:0|0:0,0:0:0:0:
140,76,73965,1,0,0:0:0:0:
200,180,74132,1,0,0:0:0:0:
292,256,74298,1,4,0:0:0:0:
376,172,74465,2,0,P|396:132|400:100,1,74.9999976158143,12|4,0:0|0:0,0:0:0:0:
280,88,74798,1,2,0:0:0:0:
376,172,74965,6,0,P|424:168|448:156,1,74.9999976158143,0|4,0:0|0:0,0:0:0:0:
380,256,75298,1,0,0:0:0:0:
296,344,75465,1,0,0:0:0:0:
256,232,75632,1,0,0:0:0:0:
144,272,75798,2,0,P|152:312|156:348,1,74.9999976158143,12|4,0:0|0:0,0:0:0:0:
40,320,76131,1,4,0:0:0:0:
40,320,76464,5,6,0:0:0:0:
144,272,76632,1,0,0:0:0:0:
216,176,76798,1,0,0:0:0:0:
236,60,76964,1,4,0:0:0:0:
124,104,77132,2,0,P|96:72|80:40,1,74.9999976158143,12|4,0:0|0:0,0:0:0:0:
16,144,77464,1,2,0:0:0:0:
16,144,77798,5,4,0:0:0:0:
128,188,77965,1,0,0:0:0:0:
248,176,78132,1,0,0:0:0:0:
308,72,78298,1,4,0:0:0:0:
424,44,78464,1,12,0:0:0:0:
468,116,78632,2,0,P|428:124|392:116,1,74.9999976158143,4|0,0:0|0:0,0:0:0:0:
396,116,79131,5,6,0:0:0:0:
356,136,79298,2,0,P|369:174|393:201,1,74.9999976158143,0|0,0:0|0:0,0:0:0:0:
500,248,79632,1,4,0:0:0:0:
460,268,79799,2,0,P|446:306|422:333,1,74.9999976158143,0|0,0:0|0:0,0:0:0:0:
304,352,80132,1,2,0:0:0:0:
344,332,80299,2,0,P|357:293|381:266,2,74.9999976158143,4|0|0,0:0|0:0|0:0,0:0:0:0:
244,268,80798,2,0,P|244:228|256:188,1,74.9999976158143,0|4,0:0|0:0,0:0:0:0:
356,136,81130,5,12,0:0:0:0:
380,216,81297,1,4,0:0:0:0:
456,120,81465,2,0,P|432:76|416:56,1,74.9999976158143,0|0,0:0|0:0,0:0:0:0:
296,60,81798,2,0,P|273:89|256:123,1,74.9999976158143,6|0,0:0|0:0,0:0:0:0:
136,136,82131,1,4,0:0:0:0:
188,28,82298,5,4,0:0:0:0:
108,52,82464,1,12,0:0:0:0:
40,152,82631,1,4,0:0:0:0:
64,268,82798,6,0,L|80:352,1,74.9999976158143,2|4,0:0|0:0,0:0:0:0:
160,252,83132,2,0,L|144:168,1,74.9999976158143,4|4,0:0|0:0,0:0:0:0:
256,220,83464,1,4,0:0:0:0:
304,332,83631,5,4,0:0:0:0:
376,236,83798,1,12,0:0:0:0:
312,264,83964,1,4,0:0:0:0:
324,144,84132,6,0,L|408:148,1,74.9999976158143,4|4,0:0|0:0,0:0:0:0:
488,64,84465,2,0,L|404:60,1,74.9999976158143,6|0,0:0|0:0,0:0:0:0:
324,144,84798,6,0,P|312:160|308:184,2,37.4999988079071,0|0|2,0:0|0:0|0:0,0:0:0:0:
204,140,85132,6,0,P|172:108|140:96,1,74.9999976158143,12|0,0:0|0:0,0:0:0:0:
308,244,85465,2,0,P|340:276|372:288,1,74.9999976158143,6|0,0:0|0:0,0:0:0:0:
204,244,85798,2,0,P|172:276|140:288,1,74.9999976158143,12|0,0:0|0:0,0:0:0:0:
367,97,86132,5,6,0:0:0:0:
367,286,86465,1,12,0:0:0:0:
144,286,86798,1,6,0:0:0:0:
143,97,87132,6,0,L|180:68,3,46.8749985098839,4|0|0|0,0:0|0:0|0:0|0:0,0:0:0:0:
184,128,87465,2,0,L|232:116,3,46.8749985098839,0|0|0|0,0:0|0:0|0:0|0:0,0:0:0:0:
208,176,87798,2,0,P|196:224|160:256,1,93.7499970197678,12|0,0:0|0:0,0:0:0:0:
36,176,88132,2,0,P|83:162|129:177,1,93.7499970197678,4|4,0:0|0:0,0:0:0:0:
128,324,88465,2,0,P|92:289|82:242,1,93.7499970197678,6|0,0:0|0:0,0:0:0:0:
429,247,88798,2,0,P|417:292|384:324,1,93.7499970197678,4|0,0:0|0:0,0:0:0:0:
256,244,89132,1,12,0:0:0:0:
430,247,89465,2,0,P|397:279|352:290,1,93.7499970197678,4|4,0:0|0:0,0:0:0:0:
280,160,89798,6,0,P|324:171|356:205,1,93.7499970197678,6|0,0:0|0:0,0:0:0:0:
484,124,90132,1,0,0:0:0:0:
368,32,90298,1,0,0:0:0:0:
220,20,90464,5,8,0:0:0:0:
304,84,90632,1,0,0:0:0:0:
344,228,90798,1,0,0:0:0:0:
348,212,91131,1,6,0:0:0:0:
348,192,91465,6,0,P|340:260|328:288,1,93.7499970197678,6|0,0:0|0:0,0:0:0:0:
164,192,91798,2,0,P|172:124|184:96,1,93.7499970197678,12|0,0:0|0:0,0:0:0:0:
240,240,92132,2,0,P|232:308|220:336,1,93.7499970197678,4|0,0:0|0:0,0:0:0:0:
84,276,92465,6,0,P|56:236|52:192,1,93.7499970197678,6|0,0:0|0:0,0:0:0:0:
144,72,92798,2,0,P|156:119|145:161,1,93.7499970197678,4|0,0:0|0:0,0:0:0:0:
196,220,93132,2,0,P|183:172|194:130,1,93.7499970197678,12|0,0:0|0:0,0:0:0:0:
256,16,93465,2,0,P|284:56|288:100,1,93.7499970197678,4|0,0:0|0:0,0:0:0:0:
196,220,93798,1,6,0:0:0:0:
196,220,94132,2,0,P|236:192|280:180,1,93.7499970197678,4|4,0:0|0:0,0:0:0:0:
428,196,94465,1,12,0:0:0:0:
428,196,94799,2,0,P|388:224|344:236,1,93.7499970197678,4|0,0:0|0:0,0:0:0:0:
340,84,95132,6,0,L|432:108,1,93.7499970197678,6|0,0:0|0:0,0:0:0:0:
308,196,95465,1,0,0:0:0:0:
256,336,95632,1,0,0:0:0:0:
128,256,95798,5,8,0:0:0:0:
384,128,96132,1,2,0:0:0:0:
84,144,96465,1,2,0:0:0:0:
428,240,96798,6,0,P|424:288|404:336,1,93.7499970197678,6|0,0:0|0:0,0:0:0:0:
284,244,97132,2,0,P|288:196|308:148,1,93.7499970197678,12|0,0:0|0:0,0:0:0:0:
384,128,97465,2,0,P|432:140|480:128,1,93.7499970197678,4|0,0:0|0:0,0:0:0:0:
340,60,97798,2,0,B|292:96|188:56|188:56|168:88,1,187.499994039536,6|0,0:0|0:0,0:0:0:0:
148,228,98298,5,2,0:0:0:0:
68,196,98465,2,0,L|56:104,1,93.7499970197678,12|0,0:0|0:0,0:0:0:0:
196,160,98798,1,4,0:0:0:0:
164,308,98965,2,0,L|108:320,2,46.8749985098839,4|0|6,0:0|0:0|0:0,0:0:0:0:
196,160,99465,6,0,P|224:196|228:248,1,93.7499970197678,4|0,0:0|0:0,0:0:0:0:
360,168,99798,2,0,P|342:210|299:239,1,93.7499970197678,12|0,0:0|0:0,0:0:0:0:
436,312,100132,2,0,P|390:318|343:295,1,93.7499970197678,4|0,0:0|0:0,0:0:0:0:
280,168,100464,1,6,0:0:0:0:
436,312,100798,6,0,P|452:296|464:272,2,46.8749985098839,0|0|2,0:0|0:0|0:0,0:0:0:0:
288,348,101132,2,0,P|292:296|312:256,1,93.7499970197678,12|0,0:0|0:0,0:0:0:0:
424,164,101464,1,6,0:0:0:0:
328,48,101632,2,0,P|352:32|372:28,2,46.8749985098839,4|0|6,0:0|0:0|0:0,0:0:0:0:
424,164,101965,1,0,0:0:0:0:
276,188,102131,1,2,0:0:0:0:
328,48,102465,6,0,P|344:100|344:140,1,93.7499970197678,12|0,0:0|0:0,0:0:0:0:
196,168,102798,2,0,P|180:116|180:76,1,93.7499970197678,0|0,0:0|0:0,0:0:0:0:
316,216,103132,2,0,P|330:260|332:306,1,93.7499970197678,6|0,0:0|0:0,0:0:0:0:
183,335,103465,6,0,P|169:291|168:276,2,46.8749985098839,0|0|2,0:0|0:0|0:0,0:0:0:0:
56,260,103798,1,12,0:0:0:0:
56,260,104132,6,0,P|76:244|140:220,1,93.7499970197678,6|0,0:0|0:0,0:0:0:0:
372,220,104465,2,0,P|417:233|456:260,1,93.7499970197678,6|0,0:0|0:0,0:0:0:0:
340,356,104798,2,0,P|295:342|256:316,1,93.7499970197678,6|4,0:0|0:0,0:0:0:0:
176,188,105132,6,0,P|192:152|208:136,1,56.2500003576279,12|0,0:0|0:0,0:0:0:0:
336,196,105465,2,0,P|320:232|304:248,1,56.2500003576279,4|0,0:0|0:0,0:0:0:0:
256,192,105798,5,6,0:0:0:0:
256,192,105965,8,0,108465,0:0:0:0:
