osu file format v9

[General]
AudioFilename: Marshmallow Justice.mp3
AudioLeadIn: 2000
PreviewTime: 59732
Countdown: 0
SampleSet: Soft
StackLeniency: 0.5
Mode: 0
LetterboxInBreaks: 0

[Editor]
DistanceSpacing: 1.5
BeatDivisor: 4
GridSize: 4

[Metadata]
Title:marshmallow justice (TV Size)
Artist:Kitamura Eri
Creator:Vicho-kun
Version:Hard
Source:Nisemonogatari
Tags:Araragi Karen Bee MONACA Kousaki Kotoru meg rock opening Netsukawa climbb65588 0OoMickeyoO0

[Difficulty]
HPDrainRate:6
CircleSize:4
OverallDifficulty:6
ApproachRate:7
SliderMultiplier:1.39
SliderTickRate:2

[Events]
//Background and Video events
Video,0,"Nisemonogatari op2.avi"
0,0,"BG.jpg"
//Break Periods
//Storyboard Layer 0 (Background)
//Storyboard Layer 1 (Fail)
//Storyboard Layer 2 (Pass)
//Storyboard Layer 3 (Foreground)
//Storyboard Sound Samples
//Background Colour Transformations
3,100,163,162,255

[TimingPoints]
669,340.909090909091,4,2,1,70,1,0
4589,331.491712707182,4,2,1,70,1,0
5782,340.909090909091,4,2,1,70,1,0
5782,-100,4,2,1,70,0,0
6123,340.909090909091,4,2,1,70,1,0
6464,-100,4,2,1,70,0,0
7316,-100,4,1,0,55,0,0
7657,-100,4,2,1,70,0,0
10043,-100,4,1,0,55,0,0
10384,-100,4,2,1,70,0,0
10725,-100,4,2,0,70,0,0
11066,-100,4,2,1,70,0,0
12770,-100,4,2,0,70,0,0
13111,-100,4,2,1,70,0,0
14816,-100,4,2,0,70,0,0
14986,-100,4,2,1,70,0,0
16179,-100,4,2,0,70,0,0
16520,-100,4,2,1,60,0,0
16776,-100,4,2,2,50,0,0
17032,-125,4,2,0,70,0,0
17202,-125,4,2,1,70,0,0
22486,-125,4,2,1,45,0,0
22827,-125,4,2,1,70,0,0
26748,-125,4,2,1,50,0,0
26918,-125,4,2,2,40,0,0
27088,-125,4,2,2,50,0,0
27429,-125,4,2,1,70,0,0
27941,-100,4,2,1,70,0,0
38850,-133.333333333333,4,2,1,70,0,0
43793,-133.333333333333,4,2,1,60,0,0
43963,-133.333333333333,4,2,2,55,0,0
44134,-133.333333333333,4,2,2,50,0,0
44304,-133.333333333333,4,2,0,70,0,0
44645,-133.333333333333,4,2,1,70,0,0
49248,-100,4,2,1,50,0,0
49503,-100,4,2,2,60,0,0
49759,-100,4,2,1,70,0,0
52486,-100,4,1,0,55,0,0
52827,-100,4,2,1,70,0,0
54958,-100,4,2,2,50,0,0
55213,-100,4,2,0,70,0,0
55384,-100,4,2,1,70,0,0
58878,-100,4,1,1,60,0,0
59134,-100,4,2,2,50,0,0
59304,-100,4,2,1,70,0,0
60668,-100,4,2,1,70,0,1
70895,-100,4,2,1,70,0,0
71577,-100,4,2,1,70,0,1
77032,-100,4,2,1,70,0,0
79759,-100,4,2,1,70,0,1
79844,-100,4,2,1,70,0,0
84958,-100,4,2,2,70,0,0
85213,-100,4,2,1,70,0,0
85299,-100,4,2,1,5,0,0
87770,-100,4,2,1,70,0,0

[Colours]
Combo1 : 255,226,28
Combo2 : 49,251,49
Combo3 : 128,128,128
Combo4 : 255,40,40
Combo5 : 255,150,0

[HitObjects]
84,316,669,2,0,B|160:304|192:228,1,139,4|8
148,88,1350,1,0
148,88,1521,1,0
212,140,1691,1,0
212,140,1862,2,0,B|284:160|340:108,1,139,8|0
356,24,2373,2,0,B|408:28|440:76|428:128,1,139,8|0
412,204,2884,2,0,B|436:272,1,69.5,0|8
388,340,3225,1,0
388,340,3311,1,0
388,340,3396,6,0,B|328:300|252:320,1,139,4|8
172,304,3907,1,0
120,240,4078,1,0
120,240,4248,1,0
108,60,4589,5,8
256,192,4920,1,8
404,60,5251,1,8
256,192,5583,1,0
292,272,5782,2,0,B|340:328|428:320,2,139,8|4|8
208,260,6634,6,0,B|180:280|160:312,1,69.5
40,312,6975,2,0,B|68:292|88:260,1,69.5,0|8
88,176,7316,2,0,B|36:120|60:44,1,139,4|0
144,36,7827,1,8
192,104,7998,2,0,B|252:144|328:116,1,139
400,80,8509,1,8
448,148,8679,1,0
448,148,8765,1,0
448,148,8850,5,4
408,220,9020,2,0,B|384:244|372:284,1,69.5,0|8
300,320,9361,2,0,B|272:296|233:289,1,69.5
156,268,9702,1,0
80,308,9873,1,8
84,224,10043,6,0,B|108:156|72:84,1,139,4|0
204,40,10554,1,8
204,40,10725,2,0,B|180:108|216:180,1,139,4|0
268,236,11236,1,8
332,184,11407,1,0
332,184,11492,1,0
332,184,11577,1,4
408,220,11748,6,0,B|440:236|456:268,2,69.5,0|8|0
400,136,12259,2,0,B|424:108|468:104,2,69.5,0|0|8
332,184,12770,2,0,B|260:168|232:96,1,139,4|0
80,124,13282,2,0,B|152:140|180:212,1,139,8|0
180,296,13793,1,0
248,344,13963,1,8
316,292,14134,1,0
400,296,14304,6,0,B|432:316|448:344,1,69.5,4|8
468,236,14645,2,0,B|436:216|420:188,1,69.5,8|4
340,40,15157,1,0
260,68,15328,1,8
260,68,15498,6,0,B|208:124|132:120,1,139,4|0
52,112,16009,1,8
44,196,16179,2,0,B|108:224|116:312,1,139,4|8
148,332,16605,2,0,B|184:344,5,34.75,8|8|2|2|2|2
264,328,17202,6,0,B|288:312|324:308,1,55.6,0|2
400,324,17543,1,0
452,260,17713,1,0
416,184,17884,2,0,B|368:152|364:84,1,111.2,2|0
292,48,18395,1,2
232,104,18566,2,0,B|208:120|176:124,1,55.6,0|0
136,196,18907,6,0,B|184:228|188:296,1,111.2,2|0
256,340,19418,1,2
312,280,19588,1,0
312,280,19674,1,0
312,280,19759,1,2
396,284,19929,2,0,B|424:292|444:308,2,55.6,0|2|0
312,280,20441,1,0
304,196,20611,6,0,B|332:140|388:124,1,111.2,2|0
252,96,21123,2,0,B|224:152|168:168,1,111.2,2|0
88,164,21634,2,0,B|140:184|156:252,1,111.2,2|0
156,332,22145,1,2
240,340,22316,1,0
240,340,22401,1,0
240,340,22486,2,0,B|272:336|288:312,1,55.6,4|2
272,232,22827,6,0,B|220:212|204:144,1,111.2,0|0
224,68,23338,1,0
300,100,23509,1,2
300,100,23679,2,0,B|348:132|408:116,1,111.2,0|0
480,156,24191,1,2
432,224,24361,2,0,B|388:256|384:324,1,111.2,0|0
304,352,24873,1,2
256,284,25043,1,0
176,256,25213,6,0,B|64:236,1,111.2,2|4
52,56,25895,2,0,B|164:76,1,111.2,2|4
284,192,26577,1,2
332,124,26748,1,0
332,124,26833,1,0
332,124,26918,1,0
412,144,27088,2,0,B|448:184|448:252,1,111.2,4|0
412,324,27600,1,8
328,312,27770,5,0
328,312,27855,1,8
328,312,27941,2,0,B|292:320|264:348,1,69.5,4|0
148,316,28282,2,0,B|184:308|212:280,1,69.5,8|0
236,204,28623,1,0
216,124,28793,1,0
216,124,28963,1,8
292,92,29134,6,0,B|368:100|424:48,1,139
492,92,29645,1,8
456,168,29816,2,0,B|412:220|420:304,1,139
340,344,30327,1,8
300,272,30498,1,0
300,272,30583,1,0
300,272,30668,1,0
216,280,30838,6,0,B|184:296|168:328,1,69.5,0|8
84,328,31179,1,0
72,244,31350,2,0,B|68:204|40:176,1,69.5
48,96,31691,1,8
132,92,31861,2,0,B|208:104|264:44,1,139
340,36,32373,1,8
396,96,32543,6,0,B|448:144|444:228,1,139
416,300,33054,1,8
336,324,33225,1,0
336,324,33310,1,0
336,324,33395,1,4
272,268,33566,6,0,B|244:244|204:244,1,69.5,0|8
132,280,33907,1,0
76,220,34077,2,0,B|88:144|32:85,1,139,0|8
144,32,34588,2,0,B|132:108|187:166,1,139
256,204,35100,1,8
329,160,35270,6,0,B|380:108|368:32,1,139
452,32,35782,2,0,B|492:88,1,69.5,8|0
464,168,36123,2,0,B|444:192|440:232,1,69.5,8|0
256,336,36634,1,0
72,232,36975,5,0
72,232,37060,1,0
72,232,37145,2,0,B|68:192|48:168,1,69.5,8|0
143,32,37657,2,0,B|132:108|182:160,1,139
182,160,38083,1,0
182,160,38168,1,8
256,200,38338,1,0
368,324,38679,5,0
368,324,38765,1,0
368,324,38850,2,0,B|384:272|436:240,1,104.249996893108,4|0
440,60,39532,2,0,B|424:112|372:144,1,104.249996893108,8|0
256,252,40213,5,0
176,232,40384,1,8
148,156,40554,2,8,B|124:104|68:88,2,104.249996893108,0|8|0
236,168,41407,1,0
236,168,41492,1,0
236,168,41577,6,0,B|288:144|304:88,1,104.249996893108
460,252,42259,2,0,B|408:276|392:332,1,104.249996893108,8|0
308,328,42770,1,0
308,328,42855,1,0
308,328,42941,6,0,B|204:312,1,104.249996893108
124,296,43452,1,2
104,216,43623,2,0,B|100:188|72:164,1,52.124998446554,4|8
48,96,43963,1,2
112,44,44134,1,2
176,96,44304,6,0,B|216:132|276:128,1,104.249996893108,4|0
376,260,44986,2,0,B|332:288|324:352,2,104.249996893108,8|0|0
444,212,45838,1,8
420,132,46009,2,0,B|364:120|340:64,1,104.249996893108,0|8
128,56,46691,5,0
76,120,46861,1,0
76,120,46946,1,0
76,120,47032,2,0,B|40:160|48:224,1,104.249996893108
256,328,47713,2,0,B|292:288|284:224,1,104.249996893108,8|0
268,148,48225,1,0
344,112,48395,6,0,B|396:120|432:168,1,104.249996893108,8|8
448,332,49077,1,8
364,336,49248,2,0,B|324:328,5,34.75,8|8|8|2|2|2
292,316,49759,6,0,B|224:280|220:196,1,139,4|8
172,136,50270,1,0
172,136,50441,2,0,B|212:104|272:116|295:162,1,139,0|8
356,212,50952,1,0
308,280,51123,2,0,B|180:340,1,139,0|8
56,288,51634,2,0,B|184:228,1,139
256,192,52145,1,8
256,192,52316,1,0
184,148,52486,6,0,B|120:108|124:20,2,139,4|8|0
256,192,53338,1,0
260,276,53509,1,8
260,276,53679,2,0,B|216:332|136:328,1,139
88,260,54191,5,8
104,180,54361,1,0
180,148,54532,2,0,B|212:132|228:92,1,69.5
276,32,54873,1,8
276,32,54958,1,0
276,32,55043,1,0
336,88,55213,5,4
416,108,55384,1,0
416,192,55554,2,0,B|416:228|440:256,1,69.5,8|0
396,328,55895,1,8
396,328,56066,1,0
312,336,56236,1,8
312,336,56407,2,0,B|232:336|192:272,1,139
220,196,56918,6,0,B|188:264|112:276,1,139,8|8
44,228,57429,1,0
68,148,57600,2,0,B|68:108|48:80,1,69.5,8|0
120,36,57941,2,0,B|168:84|252:72,1,139,4|8
328,44,58452,1,0
400,88,58623,2,0,B|440:124|440:188,1,104.25,8|0
440,224,58963,2,0,B|464:248,2,34.75
356,228,59304,5,8
356,228,59475,1,8
356,228,59645,1,8
288,276,59816,6,0,B|224:312,1,69.5,0|0
104,272,60157,2,0,B|168:236,1,69.5,0|8
212,168,60498,1,0
272,112,60668,6,0,B|352:112|396:172,1,139,4|8
420,300,61179,2,0,B|340:300|296:240,1,139,0|0
216,252,61691,1,8
140,288,61861,1,0
84,224,62032,2,0,B|48:84,1,139,0|8
181,118,62543,1,0
181,118,62713,2,0,B|217:258,1,139,0|8
272,316,63225,1,0
272,316,63310,5,0
272,316,63395,2,0,B|300:288|340:284,1,69.5,0|0
416,292,63736,1,12
376,216,63907,1,0
376,216,64077,2,0,B|308:180|300:92,1,139,0|12
140,88,64588,2,0,B|208:124|216:212,1,139
180,276,65100,1,12
96,268,65270,5,0
96,268,65355,1,0
96,268,65441,2,0,B|36:312,2,69.5,0|0|12
180,276,65952,1,0
240,332,66123,6,0,B|316:356|376:308,1,139,4|8
456,324,66634,2,0,B|466:278|428:231|377:229,1,139,0|0
296,248,67145,1,8
316,168,67316,1,0
316,168,67486,2,0,B|292:96,1,69.5
184,72,67827,2,0,B|208:144,1,69.5,8|0
184,220,68168,2,0,B|148:284|64:292,1,139,0|8
24,220,68679,1,0
24,220,68765,1,0
24,220,68850,6,0,B|72:168|56:88,1,139,4|8
124,40,69361,2,0,B|188:64,1,69.5
268,96,69702,1,0
268,96,69873,1,8
232,172,70043,2,0,B|176:212|176:300,1,139
232,356,70554,1,8
304,316,70725,5,0
388,320,70895,2,0,B|424:300,3,34.75,8|0|0|0
456,284,71236,2,0,B|496:296,4,34.75,8|0|0|0|4
428,52,71918,6,0,B|384:112|300:108,1,139,8|0
236,64,72429,1,0
164,108,72600,2,0,B|112:152|112:240,1,139,8|0
156,304,73111,1,0
236,280,73282,2,0,B|308:268|372:320,1,139,8|0
448,304,73793,1,0
416,228,73963,1,8
440,148,74134,1,0
440,148,74304,6,0,B|468:128|516:124,2,69.5,0|0|12
276,180,74986,1,0
220,244,75157,1,0
136,232,75327,2,0,B|104:212|88:172,1,69.5,12|0
84,96,75668,1,0
168,104,75838,1,0
168,104,75924,1,0
168,104,76009,1,12
236,56,76179,1,0
296,116,76350,6,0,B|349:161|438:135,1,139,0|8
427,138,76861,1,0
476,208,77032,1,8
432,276,77202,1,8
352,256,77373,2,0,B|288:280|260:368,1,139,8|0
108,296,78054,6,0,B|90:184,1,104.25,8|0
84,152,78395,1,8
68,68,78566,1,8
68,68,78736,1,8
316,40,79077,6,0,B|368:52|396:108,1,104.25
392,148,79418,1,8
344,216,79588,1,0
264,192,79759,6,0,B|200:220|176:304,1,139,4|8
100,328,80270,1,0
44,268,80441,1,0
72,188,80611,1,0
72,188,80696,1,0
72,188,80782,1,8
156,196,80952,6,0,B|232:204|284:140,1,139,4|0
316,72,81463,1,8
316,72,81634,2,0,B|292:140|340:208,1,139
396,264,82145,1,8
340,328,82316,1,0
340,328,82401,1,0
340,328,82486,5,4
244,284,82657,1,0
144,308,82827,1,8
88,220,82998,2,0,B|56:84,1,139,4|0
152,32,83509,1,8
152,32,83679,6,0,B|184:168,1,139,4|0
204,248,84191,1,8
228,328,84361,1,4
324,192,84702,6,0,B|360:192,4,34.75,8|8|8|2|2
256,140,85213,1,4
256,192,85299,12,8,87770
