osu file format v9

[General]
AudioFilename: yes.mp3
AudioLeadIn: 0
PreviewTime: 82343
Countdown: 1
SampleSet: Soft
StackLeniency: 0.7
Mode: 0
LetterboxInBreaks: 1

[Editor]
DistanceSpacing: 1.1
BeatDivisor: 3
GridSize: 8

[Metadata]
Title:Yes! (Short Ver.)
Artist:Kitamura Eri
Creator:Kazenari Tsubasa
Version:Insane
Source:Toradora
Tags:

[Difficulty]
HPDrainRate:6
CircleSize:5
OverallDifficulty:7
ApproachRate:8
SliderMultiplier:1.8
SliderTickRate:2

[Events]
//Background and Video events
0,0,"Konachan.com - 79790 kawashima_ami toradora.jpg"
//Break Periods
2,30166,37327
//Storyboard Layer 0 (Background)
//Storyboard Layer 1 (Fail)
//Storyboard Layer 2 (Pass)
//Storyboard Layer 3 (Foreground)
//Storyboard Sound Samples
//Background Colour Transformations
3,100,163,162,255

[TimingPoints]
8633,333.333333333333,4,2,0,100,1,0
83299,-100,4,2,0,100,0,1
93855,-100,4,2,0,100,0,0
93966,-100,4,2,0,100,0,1
104521,-100,4,2,0,100,0,0
104632,-100,4,2,0,100,0,1
115188,-100,4,2,0,100,0,0
115299,-100,4,2,0,100,0,1
125966,-100,4,2,0,100,0,0

[HitObjects]
456,192,7633,1,0
456,192,7744,1,0
336,192,7966,1,0
336,192,8077,1,0
216,192,8299,1,0
64,88,8633,1,0
96,264,8966,2,0,B|56:368,1,60
168,240,9299,2,0,B|200:168,1,60
277,100,9633,1,0
277,100,9744,1,0
392,144,9966,2,0,B|408:232|320:320,1,180
272,336,10410,1,0
240,216,10633,2,0,B|320:176,1,60
176,168,10966,2,0,B|96:216,1,60
40,112,11299,1,0
40,112,11410,6,0,B|96:48|216:72,1,180
304,136,11966,2,0,B|400:136,1,60
472,280,12410,1,0
304,136,12744,6,0,B|216:176|104:136,1,180
56,184,13299,1,0
56,184,13410,1,0
8,248,13632,1,0
8,248,13744,1,0
96,328,13966,2,0,B|184:360|296:320,1,180
333,302,14410,1,0
400,264,14632,1,0
400,264,14744,1,0
456,216,14966,1,0
456,216,15077,2,0,B|504:160|464:64,1,120
304,64,15632,2,0,B|304:184|152:184,1,180
128,184,16077,1,0
472,280,16744,6,0,B|424:352|264:352,1,180
312,170,17410,2,0,B|190:170|136:256,1,180
48,88,18077,1,0
168,112,18299,5,0
168,112,18410,1,0
272,56,18632,1,0
272,56,18744,1,0
376,112,18966,1,0
376,112,19077,1,0
464,192,19299,2,0,B|416:272|288:272,1,180
310,271,19744,1,0
200,304,19966,1,0
200,304,20077,2,0,B|112:344|0:304,1,180
40,192,20632,1,0
208,128,20966,1,0
208,128,21077,1,0
328,120,21299,2,0,B|392:160,1,60
463,236,21632,1,0
463,236,21744,2,0,B|408:296|288:272,1,180
208,128,22410,6,0,B|88:248,1,120
123,213,22744,1,0
256,328,23077,1,0
424,264,23410,2,0,B|488:232|488:136,1,120
486,167,23744,1,0
336,64,24077,1,0
208,191,24299,1,0
208,191,24410,2,0,B|160:264|32:256,2,180
392,192,25410,1,0
307,276,25632,2,0,B|203:276,1,60
216,96,26077,2,0,B|136:144|32:112,2,180
328,144,26966,1,0
328,144,27077,1,0
256,192,27299,12,0,28632
96,192,28966,6,0,B|184:192,1,60
256,128,29299,1,0
256,128,29410,1,0
360,192,29632,2,0,B|448:192,1,60
334,106,29966,1,0
56,328,38077,6,0,B|176:328|176:328|240:264|176:152,1,300
216,104,38744,1,8
216,104,38966,1,0
280,128,39077,1,0
408,80,39299,2,0,B|456:152|416:256,1,180
417,252,39744,1,0
336,344,39966,1,0
336,344,40077,1,0
256,296,40299,1,0
256,296,40410,1,0
160,344,40632,6,0,B|104:360|32:288|112:232,1,180
168,200,41077,1,0
256,120,41299,2,0,B|256:200,1,60,0|0
256,296,41632,2,0,B|256:237,1,60
368,152,41966,2,0,B|432:176|520:136|480:64|480:248,1,180
480,248,42410,2,0,B|464:328|352:328,1,120
344,288,42744,2,0,B|256:240|152:288,1,180,8|0
72,112,43410,6,0,B|128:192|264:192,1,180
344,160,43966,1,0
344,160,44077,1,0
440,224,44299,2,0,B|432:264|368:264,1,60
104,336,44966,5,0
104,336,45077,1,0
32,240,45299,1,0
32,240,45410,2,0,B|48:176|176:152,1,120
120,166,45744,1,0
232,120,45966,2,0,B|328:80|424:136,1,180
304,272,46632,6,0,B|192:272,1,60
136,224,46966,2,0,B|232:224,1,60
296,152,47299,2,0,B|384:104|496:176,2,180
296,152,48077,1,0
176,160,48299,1,0
176,160,48410,1,0
91,75,48632,1,0
91,75,48744,2,0,B|40:160|112:264,1,180
192,320,49299,1,0
192,320,49410,1,0
320,192,49744,1,0
376,40,50077,6,0,B|256:112,1,120
207,101,50410,1,0
122,16,50632,1,0
122,16,50744,2,0,B|42:64|26:144,1,120
160,232,51299,2,0,B|240:272|360:224,1,180
440,80,51966,2,0,B|440:176,1,60
440,259,52299,1,0
440,259,52410,1,0
336,328,52632,2,0,B|248:352|144:320,1,180
104,288,53077,1,0
24,216,53299,2,0,B|96:144,1,60
184,144,53632,2,0,B|136:192,1,60
256,328,54077,5,0
368,192,54410,1,0
312,88,54632,2,0,B|256:40,1,60
104,120,55077,1,0
168,288,55410,6,0,B|256:328|360:280,1,180
416,200,55966,1,0
360,160,56077,1,0
256,104,56299,1,0
200,144,56410,1,0
104,120,56632,2,0,B|72:208|104:312,1,180
272,336,57299,5,0
272,336,57410,2,0,B|328:296|432:320,1,120
440,280,57744,2,0,B|496:224|456:144,1,120
288,192,58299,1,0
152,80,58632,2,0,B|96:136,1,60
152,304,58966,2,0,B|96:248,1,60
208,192,59299,1,0
248,136,59410,2,0,B|320:88|440:112,2,180
256,192,60410,12,4,62077
56,192,62744,5,0
200,328,63077,2,0,B|248:264|248:264|312:344|312:344|400:248|504:344,1,360
472,120,64077,2,0,B|432:32|288:48,1,180
216,128,64632,1,0
216,128,64744,2,0,B|216:224|88:296,1,180
240,336,65299,1,0
240,336,65410,2,0,B|312:368|376:304|328:224,1,180
400,128,65966,1,0
368,128,66299,1,0
336,128,66632,1,0
144,80,66966,1,0
144,80,67077,1,0
56,184,67299,1,0
56,184,67410,2,0,B|96:272|256:272,1,180
403,269,68077,5,0
320,88,68410,2,0,B|248:168|88:128|88:128|-8:208|128:304|256:304,1,540,0|0
408,192,69744,1,0
320,88,69966,1,0
320,88,70077,2,0,B|232:120|112:88,1,180
24,240,70744,2,0,B|56:336|216:336,1,180
256,192,71299,12,0,72744
96,192,72966,5,0
96,192,73077,1,0
192,104,73299,1,0
192,104,73410,1,0
440,272,73966,1,0
242,272,74299,1,0
112,128,74632,1,0
112,128,74744,2,0,B|152:72|264:72,1,120
280,88,75077,2,0,B|335:61|416:88,1,120
456,104,75410,2,0,B|456:248,1,120
456,224,75744,1,0
362,317,75966,1,0
56,64,77410,5,8
160,144,77632,1,0
256,192,78188,12,0,80744
256,192,81410,5,0
256,192,82077,1,0
72,120,82410,2,0,B|24:192|72:304,1,180
192,344,82966,1,0
192,344,83077,1,0
312,296,83299,1,4
451,156,83632,6,0,B|451:76,1,60
336,40,83966,1,0
336,40,84077,1,0
216,88,84299,1,0
32,160,84632,2,0,B|0:264|104:328,1,180
87,317,85077,1,0
219,317,85299,1,0
219,317,85410,1,0
312,223,85632,1,0
312,223,85744,1,0
416,56,86077,2,0,B|328:88|240:56,1,180
120,112,86632,1,0
120,112,86744,1,0
24,288,87077,1,0
216,240,87410,6,0,B|304:200|424:256,1,180
464,160,87966,1,0
464,160,88077,1,0
384,56,88299,1,0
224,152,88632,2,0,B|136:192|40:152,1,180
48,155,89077,1,0
128,56,89299,1,0
128,56,89410,1,0
224,152,89632,1,0
224,152,89744,1,0
