osu file format v9

[General]
AudioFilename: Kitamura Eri - Taste of Paradise.mp3
AudioLeadIn: 1500
PreviewTime: 2798
Countdown: 0
SampleSet: Soft
StackLeniency: 0.6
Mode: 0
LetterboxInBreaks: 0

[Editor]
DistanceSpacing: 1
BeatDivisor: 4
GridSize: 8

[Metadata]
Title:Taste of Paradise
Artist:Kitamura Eri
Creator:quintitem
Version:Oniichan~
Source:Oniichan no Koto Nanka Zenzen Suki Janain Dakara ne!!
Tags:Anime Mayoi Neko Suzuka Asahina

[Difficulty]
HPDrainRate:9
CircleSize:5
OverallDifficulty:5
ApproachRate:7
SliderMultiplier:1.3
SliderTickRate:0.5

[Events]
//Background and Video events
0,0,"Nao_and_Iroha.jpg"
//Break Periods
2,19712,25940
2,82002,86398
2,146124,156017
2,190094,194490
//Storyboard Layer 0 (Background)
//Storyboard Layer 1 (Fail)
//Storyboard Layer 2 (Pass)
//Storyboard Layer 3 (Foreground)
Sprite,Foreground,TopLeft,"Storyboard\mapperq.png",320,240 M,0,20428,21344,60,95,75,95 F,0,20428,21344,0,1 M,0,25924,26840,75,95,75,110 F,0,25924,26840,1,0
Sprite,Foreground,TopLeft,"Storyboard\aa.png",320,240 M,0,3024,,100,400 F,0,3024,3253,0,1 F,0,6001,6230,1,0
Sprite,Foreground,TopLeft,"Storyboard\ab.png",320,240 M,0,6688,,100,400 F,0,6688,6917,0,1 F,0,9665,9894,1,0
Sprite,Foreground,TopLeft,"Storyboard\ac.png",320,240 M,0,10352,,100,400 F,0,10352,10581,0,1 F,0,18825,19054,1,0
Sprite,Foreground,TopLeft,"Storyboard\ad.png",320,240 M,0,16306,,330,400 F,0,16306,16535,0,1 F,0,18825,19054,1,0
Sprite,Foreground,TopLeft,"Storyboard\ae.png",320,240 F,0,19741,19970,0,1 M,0,19741,24550,60,365,100,365 F,0,24321,24550,1,0
Sprite,Foreground,TopLeft,"Storyboard\af.png",320,240 F,0,22489,22718,0,1 M,0,22489,24550,210,400,195,400 F,0,24321,24550,1,0
Sprite,Foreground,TopLeft,"Storyboard\ag.png",320,240 F,0,26153,26382,0,1 M,0,26153,26840,455,365,460,365 F,0,26611,26840,1,0
Sprite,Foreground,TopLeft,"Storyboard\ba.png",320,240 M,0,27069,,100,400 F,0,27069,27298,0,1 F,0,30046,30275,1,0
Sprite,Foreground,TopLeft,"Storyboard\bb.png",320,240 M,0,28901,,280,400 F,0,28901,29130,0,1 F,0,30046,30275,1,0
Sprite,Foreground,TopLeft,"Storyboard\bc.png",320,240 M,0,30733,,100,400 F,0,30733,30962,0,1 F,0,33711,33940,1,0
Sprite,Foreground,TopLeft,"Storyboard\bd.png",320,240 M,0,34398,,100,400 F,0,34398,34627,0,1 F,0,41039,41268,1,0
Sprite,Foreground,TopLeft,"Storyboard\be.png",320,240 M,0,36230,,268,400 F,0,36230,36459,0,1 F,0,41039,41268,1,0
Sprite,Foreground,TopLeft,"Storyboard\bf.png",320,240 M,0,37833,,348,400 F,0,37833,38062,0,1 F,0,41039,41268,1,0
Sprite,Foreground,TopLeft,"Storyboard\bg.png",320,240 M,0,39665,,414,400 F,0,39665,39894,0,1 F,0,41039,41268,1,0
Sprite,Foreground,TopLeft,"Storyboard\ca.png",320,240 M,0,41497,,100,400 F,0,41497,41726,0,1 F,0,44474,44703,1,0
Sprite,Foreground,TopLeft,"Storyboard\cb.png",320,240 M,0,43100,,240,400 F,0,43100,43329,0,1 F,0,44474,44703,1,0
Sprite,Foreground,TopLeft,"Storyboard\cc.png",320,240 M,0,45161,,100,400 F,0,45161,45390,0,1 F,0,50428,50657,1,0
Sprite,Foreground,TopLeft,"Storyboard\cd.png",320,240 M,0,46993,,143,400 F,0,46993,47222,0,1 F,0,50428,50657,1,0
Sprite,Foreground,TopLeft,"Storyboard\da.png",320,240 M,0,52489,,100,400 F,0,52489,52718,0,1 F,0,55466,55695,1,0
Sprite,Foreground,TopLeft,"Storyboard\db.png",320,240 F,0,55466,55695,0,1 M,0,55466,56153,300,375,305,375 F,0,55924,56153,1,0
Sprite,Foreground,TopLeft,"Storyboard\dc.png",320,240 M,0,56153,,100,400 F,0,56153,56382,0,1 F,0,59130,59359,1,0
Sprite,Foreground,TopLeft,"Storyboard\dd.png",320,240 F,0,59130,59359,0,1 M,0,59130,59817,515,375,520,375 F,0,59588,59817,1,0
Sprite,Foreground,TopLeft,"Storyboard\de.png",320,240 M,0,59817,,100,400 F,0,59817,60046,0,1 F,0,62795,63024,1,0
Sprite,Foreground,TopLeft,"Storyboard\df.png",320,240 M,0,63482,,100,400 F,0,63482,63711,0,1 F,0,66459,66688,1,0
Sprite,Foreground,TopLeft,"Storyboard\aa.png",320,240 M,0,67146,,100,400 F,0,67146,67375,0,1 F,0,70123,70352,1,0
Sprite,Foreground,TopLeft,"Storyboard\dh.png",320,240 F,0,70123,70352,0,1 M,0,70123,70810,325,375,330,375 F,0,70581,70810,1,0
Sprite,Foreground,TopLeft,"Storyboard\di.png",320,240 M,0,70810,,100,400 F,0,70810,71039,0,1 F,0,73787,74016,1,0
Sprite,Foreground,TopLeft,"Storyboard\dj.png",320,240 F,0,73787,74016,0,1 M,0,73787,74474,505,375,510,375 F,0,74245,74474,1,0
Sprite,Foreground,TopLeft,"Storyboard\dk.png",320,240 M,0,74474,,100,400 F,0,74474,74703,0,1 F,0,83405,83634,1,0
Sprite,Foreground,TopLeft,"Storyboard\dl.png",320,240 M,0,80428,,390,400 F,0,80428,80657,0,1 F,0,83405,83634,1,0
Sprite,Foreground,TopLeft,"Storyboard\ae.png",320,240 F,0,82031,82260,0,1 M,0,82031,86840,60,365,100,365 F,0,86611,86840,1,0
Sprite,Foreground,TopLeft,"Storyboard\af.png",320,240 F,0,84779,85008,0,1 M,0,84779,86840,210,400,195,400 F,0,86611,86840,1,0
Sprite,Foreground,TopLeft,"Storyboard\ag.png",320,240 F,0,88443,88672,0,1 M,0,88443,89130,455,365,460,365 F,0,88901,89130,1,0
Sprite,Foreground,TopLeft,"Storyboard\ea.png",320,240 M,0,89359,,100,400 F,0,89359,89588,0,1 F,0,92337,92566,1,0
Sprite,Foreground,TopLeft,"Storyboard\eb.png",320,240 M,0,91191,,300,400 F,0,91191,91421,0,1 F,0,92337,92566,1,0
Sprite,Foreground,TopLeft,"Storyboard\ec.png",320,240 M,0,93024,,100,400 F,0,93024,93253,0,1 F,0,96001,96230,1,0
Sprite,Foreground,TopLeft,"Storyboard\ed.png",320,240 M,0,96688,,100,400 F,0,96688,96917,0,1 F,0,103329,103558,1,0
Sprite,Foreground,TopLeft,"Storyboard\ee.png",320,240 M,0,98520,,186,400 F,0,98520,98749,0,1 F,0,103329,103558,1,0
Sprite,Foreground,TopLeft,"Storyboard\ef.png",320,240 M,0,100123,,326,400 F,0,100123,100352,0,1 F,0,103329,103558,1,0
Sprite,Foreground,TopLeft,"Storyboard\eg.png",320,240 M,0,101955,,409,400 F,0,101955,102184,0,1 F,0,103329,103558,1,0
Sprite,Foreground,TopLeft,"Storyboard\fa.png",320,240 M,0,103787,,100,400 F,0,103787,104016,0,1 F,0,108596,108825,1,0
Sprite,Foreground,TopLeft,"Storyboard\fb.png",320,240 M,0,105390,,215,400 F,0,105390,105619,0,1 F,0,108596,108825,1,0
Sprite,Foreground,TopLeft,"Storyboard\fc.png",320,240 M,0,107451,,343,400 F,0,107451,107680,0,1 F,0,108596,108825,1,0
Sprite,Foreground,TopLeft,"Storyboard\fd.png",320,240 M,0,109283,,100,400 F,0,109283,109512,0,1 F,0,112718,112947,1,0
Sprite,Foreground,TopLeft,"Storyboard\ga.png",320,240 M,0,114779,,100,400 F,0,114779,115008,0,1 F,0,117756,117985,1,0
Sprite,Foreground,TopLeft,"Storyboard\gb.png",320,240 F,0,117756,117985,0,1 M,0,117756,118443,305,375,310,375 F,0,118214,118443,1,0
Sprite,Foreground,TopLeft,"Storyboard\gc.png",320,240 M,0,118443,,100,400 F,0,118443,118672,0,1 F,0,121421,121650,1,0
Sprite,Foreground,TopLeft,"Storyboard\gd.png",320,240 F,0,121421,121650,0,1 M,0,121421,122108,525,375,530,375 F,0,121879,122108,1,0
Sprite,Foreground,TopLeft,"Storyboard\ge.png",320,240 M,0,122108,,100,400 F,0,122108,122337,0,1 F,0,125085,125314,1,0
Sprite,Foreground,TopLeft,"Storyboard\gf.png",320,240 M,0,125772,,100,400 F,0,125772,126001,0,1 F,0,128749,128978,1,0
Sprite,Foreground,TopLeft,"Storyboard\aa.png",320,240 M,0,129436,,100,400 F,0,129436,129665,0,1 F,0,132413,132642,1,0
Sprite,Foreground,TopLeft,"Storyboard\gh.png",320,240 F,0,132413,132642,0,1 M,0,132413,133100,325,375,330,375 F,0,132871,133100,1,0
Sprite,Foreground,TopLeft,"Storyboard\gi.png",320,240 M,0,133100,,100,400 F,0,133100,133329,0,1 F,0,136077,136306,1,0
Sprite,Foreground,TopLeft,"Storyboard\gj.png",320,240 F,0,136077,136306,0,1 M,0,136077,136764,450,375,455,375 F,0,136535,136764,1,0
Sprite,Foreground,TopLeft,"Storyboard\gk.png",320,240 M,0,136764,,100,400 F,0,136764,136993,0,1 F,0,145695,145924,1,0
Sprite,Foreground,TopLeft,"Storyboard\gl.png",320,240 M,0,142718,,455,400 F,0,142718,142947,0,1 F,0,145695,145924,1,0
Sprite,Foreground,TopLeft,"Storyboard\da.png",320,240 M,0,160581,,100,400 F,0,160581,160810,0,1 F,0,163558,163787,1,0
Sprite,Foreground,TopLeft,"Storyboard\db.png",320,240 F,0,163558,163787,0,1 M,0,163558,164245,305,375,310,375 F,0,164016,164245,1,0
Sprite,Foreground,TopLeft,"Storyboard\dc.png",320,240 M,0,164245,,100,400 F,0,164245,164474,0,1 F,0,167222,167451,1,0
Sprite,Foreground,TopLeft,"Storyboard\dd.png",320,240 F,0,167222,167451,0,1 M,0,167222,167909,515,375,520,375 F,0,167680,167909,1,0
Sprite,Foreground,TopLeft,"Storyboard\de.png",320,240 M,0,167909,,100,400 F,0,167909,168138,0,1 F,0,170886,171115,1,0
Sprite,Foreground,TopLeft,"Storyboard\df.png",320,240 M,0,171573,,100,400 F,0,171573,171802,0,1 F,0,174550,174779,1,0
Sprite,Foreground,TopLeft,"Storyboard\aa.png",320,240 M,0,175237,,100,400 F,0,175237,175466,0,1 F,0,178214,178443,1,0
Sprite,Foreground,TopLeft,"Storyboard\hh.png",320,240 F,0,178214,178443,0,1 M,0,178214,178901,325,375,330,375 F,0,178672,178901,1,0
Sprite,Foreground,TopLeft,"Storyboard\ab.png",320,240 M,0,178901,,100,400 F,0,178901,179130,0,1 F,0,181879,182108,1,0
Sprite,Foreground,TopLeft,"Storyboard\hj.png",320,240 F,0,181879,182108,0,1 M,0,181879,182566,515,375,520,375 F,0,182337,182566,1,0
Sprite,Foreground,TopLeft,"Storyboard\ac.png",320,240 M,0,182566,,100,400 F,0,182566,182795,0,1 F,0,191039,191268,1,0
Sprite,Foreground,TopLeft,"Storyboard\ad.png",320,240 M,0,188520,,325,400 F,0,188520,188749,0,1 F,0,191039,191268,1,0
Sprite,Foreground,TopLeft,"Storyboard\ae.png",320,240 F,0,189894,190123,0,1 M,0,189894,194932,60,365,100,365 F,0,194703,194932,1,0
Sprite,Foreground,TopLeft,"Storyboard\af.png",320,240 F,0,192871,193100,0,1 M,0,192871,194932,210,400,195,400 F,0,194703,194932,1,0
Sprite,Foreground,TopLeft,"Storyboard\ig.png",320,240 F,0,196535,196764,0,1 M,0,196535,197222,455,365,460,365 F,0,196993,197222,1,0
Sprite,Foreground,TopLeft,"Storyboard\ae.png",320,240 F,0,197451,197680,0,1 M,0,197451,202260,60,365,100,365 F,0,202031,202260,1,0
Sprite,Foreground,TopLeft,"Storyboard\af.png",320,240 F,0,200199,200428,0,1 M,0,200199,202260,210,400,195,400 F,0,202031,202260,1,0
Sprite,Foreground,TopLeft,"Storyboard\ag.png",320,240 F,0,203863,204092,0,1 M,0,203863,204550,455,365,460,365 F,0,204321,204550,1,0
//Storyboard Sound Samples
//Background Colour Transformations
3,100,163,162,255

[TimingPoints]
1192,458.015267175572,4,2,0,50,1,0
2566,-100,4,2,0,0,0,0
2795,-100,4,2,0,55,0,0
9321,-100,4,2,1,55,0,0
9894,-100,4,2,1,65,0,0
10352,-71.4285714285714,4,2,1,75,0,0
17451,-100,4,2,1,60,0,0
18253,-100,4,2,1,70,0,0
18940,-76.9230769230769,4,2,1,70,0,0
41497,-76.9230769230769,4,2,1,75,0,0
44130,-76.9230769230769,4,2,1,70,0,0
45161,-76.9230769230769,4,2,1,75,0,0
51115,-76.9230769230769,4,2,1,65,0,0
52489,-71.4285714285714,4,2,1,70,0,1
52604,-71.4285714285714,4,2,1,75,0,0
66115,-71.4285714285714,4,2,1,65,0,0
67146,-71.4285714285714,4,2,1,75,0,0
89130,-100,4,2,1,90,0,0
91421,-100,4,2,1,75,0,0
92680,-76.9230769230769,4,2,1,70,0,0
103787,-76.9230769230769,4,2,1,75,0,0
106421,-76.9230769230769,4,2,1,70,0,0
107451,-76.9230769230769,4,2,1,75,0,0
113405,-71.4285714285714,4,2,1,65,0,0
114779,-71.4285714285714,4,2,1,70,0,1
114894,-71.4285714285714,4,2,1,75,0,0
128405,-71.4285714285714,4,2,1,65,0,0
129436,-71.4285714285714,4,2,1,75,0,0
143062,-71.4285714285714,4,2,1,65,0,0
145924,-71.4285714285714,4,2,1,0,0,0
156459,-71.4285714285714,4,2,1,70,0,0
160581,-100,4,2,0,60,0,0
166191,-100,4,2,1,60,0,0
167108,-100,4,2,1,70,0,0
167909,-71.4285714285714,4,2,1,75,0,0
174207,-71.4285714285714,4,2,1,65,0,0
175237,-71.4285714285714,4,2,1,75,0,0
204092,-71.4285714285714,4,2,1,70,0,1
204207,-71.4285714285714,4,2,1,70,0,0

[Colours]
Combo1 : 241,176,80
Combo2 : 223,199,57
Combo3 : 116,84,165
Combo4 : 240,167,184

[HitObjects]
256,192,1192,12,0,2566
176,80,3024,6,0,B|40:80,2,130,4|8|0
340,40,4398,1,8
344,208,4856,2,0,B|480:208,2,130,4|8|0
292,276,6001,1,8
244,208,6230,1,8
100,296,6688,5,4
100,296,6917,1,0
100,296,7146,2,0,B|100:156,1,130,8|4
168,116,7833,1,0
168,116,8062,2,0,B|168:252,1,130,8|4
236,296,8749,2,0,B|236:372,2,65,0|8|0
304,248,9436,1,8
316,248,9550,1,8
328,248,9665,1,8
340,248,9779,1,8
352,248,9894,1,8
364,248,10008,1,8
376,248,10123,1,8
388,248,10237,1,8
400,248,10352,6,0,B|456:248|460:320,2,90.999997830391,10|8|0
400,168,11039,2,0,B|400:112|456:112,2,90.999997830391,8|2|8
324,136,11726,1,0
248,168,11955,2,0,B|248:216,2,45.4999989151955,8|0|2
204,100,12413,1,8
204,100,12642,1,2
124,76,12871,2,0,B|124:28,2,45.4999989151955,8|0|2
92,152,13329,2,0,B|36:152|36:80,2,90.999997830391,8|0|8
144,216,14016,5,2
92,280,14245,1,8
92,280,14359,2,0,B|240:280,1,136.499996745586,2|8
256,356,14932,1,2
336,336,15161,1,8
336,336,15275,2,0,B|419:327|419:228,1,136.499996745586,2|8
480,192,15848,5,4
256,32,16306,1,0
32,192,16764,1,0
256,352,17222,1,0
480,192,17680,6,0,B|480:108,2,65
404,224,18367,2,0,B|404:304,2,65
328,192,19054,1,8
316,192,19169,1,8
304,192,19283,1,8
292,192,19398,1,8
280,192,19512,1,8
152,124,26840,6,0,B|152:32,2,84.4999984890223,4|8|0
220,172,27527,1,8
288,124,27756,1,0
360,172,27985,2,0,B|404:172,2,42.2499992445111,8|0|0
360,260,28443,1,10
360,260,28672,6,0,B|360:352,2,84.4999984890223,2|8|0
292,212,29359,1,8
224,260,29588,1,0
152,212,29817,2,0,B|108:212,2,42.2499992445111,8|0|0
152,124,30275,1,10
228,92,30504,6,0,B|228:40|168:32,2,84.4999984890223,2|8|0
284,156,31192,1,8
284,156,31421,1,0
336,92,31650,1,8
336,92,31879,1,0
392,156,32108,1,8
392,156,32337,2,0,B|440:156|444:216,1,84.4999984890223,0|8
364,244,32795,2,0,B|312:248|312:300,1,84.4999984890223,2|8
256,360,33253,2,0,B|204:360|204:304,1,84.4999984890223,2|8
200,224,33711,1,2
188,224,33825,1,8
176,224,33940,1,8
164,224,34054,1,8
152,224,34169,6,0,B|108:152,1,84.4999984890223,10|8
160,84,34627,2,0,B|80:48,2,84.4999984890223,0|8|0
244,68,35314,2,0,B|244:24,2,42.2499992445111,8|0|0
328,84,35772,1,10
328,84,36001,6,0,B|372:156,1,84.4999984890223,2|8
320,224,36459,2,0,B|400:260,2,84.4999984890223,0|8|0
236,240,37146,2,0,B|236:284,2,42.2499992445111,8|0|0
152,224,37604,1,8
152,224,37833,6,0,B|100:224|100:160,1,84.4999984890223,2|8
100,136,38176,2,0,B|99:56|178:56,1,126.749997733533,2|8
256,88,38749,2,0,B|308:88|308:152,1,84.4999984890223,2|8
308,172,39092,2,0,B|307:251|386:251,1,126.749997733533,2|8
436,320,39665,6,0,B|480:248,1,84.4999984890223,2|8
416,192,40123,2,0,B|488:124,1,84.4999984890223,2|8
416,76,40581,1,2
416,76,40810,6,0,B|416:28,6,42.2499992445111,8|8|10|8|8|8|8
348,124,41726,2,0,B|308:88,1,42.2499992445111,8|0
252,40,42069,2,0,B|204:64,1,42.2499992445111,8|0
136,92,42413,2,0,B|44:92,2,84.4999984890223,0|0|10
160,172,43100,6,0,B|208:172,2,42.2499992445111,0|0|8
104,236,43558,2,0,B|132:280,1,42.2499992445111,8|0
192,324,43901,2,0,B|236:312,1,42.2499992445111,8|0
300,260,44245,1,2
312,260,44359,1,0
324,260,44474,1,10
336,260,44588,1,0
348,260,44703,1,10
360,260,44817,1,0
372,260,44932,1,2
384,260,45046,1,0
396,260,45161,5,8
464,212,45390,2,0,B|456:168,1,42.2499992445111,8|0
420,96,45733,2,0,B|384:72,1,42.2499992445111,8|0
308,40,46077,1,2
212,180,46535,1,10
116,40,46993,6,0,B|68:112,1,84.4999984890223,0|8
144,148,47451,2,0,B|76:196,1,84.4999984890223,0|8
140,252,47909,2,0,B|40:284,1,84.4999984890223,0|8
100,352,48367,2,0,B|-4:352,1,84.4999984890223,0|8
256,192,48825,12,2,50657
256,192,51573,6,0,B|256:240,8,42.2499992445111,10|8|8|8|8|8|8|8|10
308,128,52718,2,0,B|307:71|363:71,2,90.999997830391,8|0|8
364,188,53405,2,0,B|364:248|420:252,1,90.999997830391,0|8
428,332,53863,2,0,B|484:332|484:264,1,90.999997830391,0|8
480,200,54321,5,2
480,200,54550,1,8
412,152,54779,1,0
412,152,55008,2,0,B|412:108,2,45.4999989151955,8|0|2
348,200,55466,2,0,B|348:300,2,90.999997830391,8|0|8
280,152,56153,5,2
280,152,56382,2,0,B|280:104,2,45.4999989151955,8|0|0
260,232,56840,1,8
204,292,57069,1,0
192,292,57184,1,0
180,292,57298,1,8
168,292,57413,1,0
156,292,57527,2,0,B|60:292,2,90.999997830391,0|8|2
120,208,58214,1,8
120,208,58443,1,2
156,124,58672,1,8
156,124,58787,1,0
156,124,58901,2,0,B|156:64|216:60,1,90.999997830391,2|8
256,140,59359,2,0,B|307:136|307:76,1,90.999997830391,2|8
396,76,59817,6,0,B|396:17|345:13,2,90.999997830391,2|8|0
436,156,60504,2,0,B|486:152|486:93,2,90.999997830391,8|2|8
352,192,61191,1,0
432,236,61421,1,8
432,328,61650,1,2
352,372,61879,1,8
352,284,62108,1,2
352,284,62337,1,8
352,284,62451,1,0
352,284,62566,2,0,B|292:284|292:204,1,90.999997830391,2|8
276,140,63024,2,0,B|224:144|220:212,1,90.999997830391,0|8
204,292,63482,5,2
204,292,63596,1,0
204,292,63711,1,8
204,292,63825,1,0
204,292,63940,2,0,B|144:292|144:212,1,90.999997830391,2|8
128,144,64398,1,2
128,144,64512,1,0
128,144,64627,1,8
128,144,64741,1,0
128,144,64856,2,0,B|76:148|72:216,1,90.999997830391,2|8
32,288,65314,6,0,B|96:356,1,90.999997830391,2|8
116,356,65657,2,0,B|268:356,1,136.499996745586,2|10
328,320,66230,2,0,B|384:320,8,45.4999989151955,10|8|10|8|10|8|8|8|10
348,240,67375,6,0,B|348:144,2,90.999997830391,8|0|8
276,200,68062,2,0,B|276:108,1,90.999997830391,0|8
204,148,68520,2,0,B|204:52,1,90.999997830391,0|8
124,44,68978,1,2
124,44,69207,1,8
72,104,69436,1,0
72,104,69665,2,0,B|16:104,2,45.4999989151955,8|0|0
40,180,70123,2,0,B|40:272,2,90.999997830391,8|0|8
116,212,70810,5,2
128,212,70924,1,0
140,212,71039,1,8
152,212,71153,1,0
164,212,71268,1,0
176,212,71382,1,0
188,212,71497,1,8
200,212,71611,1,0
212,212,71726,1,2
284,268,71955,2,0,B|284:324,2,45.4999989151955,8|0|0
356,212,72413,1,8
356,212,72527,1,0
356,212,72642,2,0,B|412:212|412:276,2,90.999997830391,2|8|2
284,156,73329,2,0,B|236:156,2,45.4999989151955,8|0|2
356,100,73787,1,8
284,44,74016,1,2
272,44,74130,1,8
260,44,74245,1,8
248,44,74359,1,8
236,44,74474,6,0,B|132:44,2,90.999997830391,10|8|0
200,128,75161,1,8
200,128,75390,2,0,B|104:128,2,90.999997830391,2|8|0
260,196,76077,1,8
260,196,76191,1,0
260,196,76306,2,0,B|320:196|320:280,1,90.999997830391,2|8
384,300,76764,2,0,B|440:300|440:236,1,90.999997830391,2|8
492,180,77222,2,0,B|492:120|416:116,1,90.999997830391,2|8
404,44,77680,2,0,B|352:44|348:108,1,90.999997830391,0|8
268,116,78138,6,0,B|216:116|216:48,1,90.999997830391,2|8
188,44,78482,2,0,B|106:55|111:161,1,136.499996745586,2|8
128,220,79054,2,0,B|180:220|180:152,1,90.999997830391,2|8
208,148,79398,2,0,B|291:159|286:265,1,136.499996745586,2|8
288,324,79970,1,4
256,192,80199,12,8,81344
256,192,81802,5,6
256,192,87298,12,8,89130
256,192,90733,5,8
256,192,90962,1,8
256,192,91879,2,0,B|256:304,2,97.5,10|10|10
172,148,92795,5,2
172,148,93024,2,0,B|120:152|120:220,2,84.4999984890223,8|0|8
224,72,93711,1,0
224,72,93940,1,8
312,108,94169,1,0
312,108,94398,1,8
392,156,94627,6,0,B|448:160|448:232,1,84.4999984890223,0|8
400,351,95085,2,0,B|368:397|306:361,1,84.4999984890223,2|8
227,260,95543,2,0,B|202:209|264:173,1,84.4999984890223,2|8
392,156,96001,1,2
392,144,96115,1,8
392,132,96230,1,8
392,120,96344,1,8
392,108,96459,6,0,B|324:40,1,84.4999984890223,10|8
296,132,96917,2,0,B|216:92,1,84.4999984890223,0|8
136,132,97375,1,0
68,192,97604,1,8
68,192,97718,1,0
68,192,97833,2,0,B|28:272,1,84.4999984890223,0|10
120,276,98291,6,0,B|188:344,1,84.4999984890223,2|8
216,252,98749,2,0,B|296:292,1,84.4999984890223,0|8
376,252,99207,1,0
444,192,99436,1,8
444,192,99550,1,0
444,192,99665,2,0,B|484:112,1,84.4999984890223,0|8
440,36,100123,6,0,B|356:36,1,84.4999984890223,2|8
328,36,100466,2,0,B|252:51|253:130,1,126.749997733533,2|8
212,208,101039,2,0,B|128:208,1,84.4999984890223,2|8
100,208,101382,2,0,B|24:192|25:113,1,126.749997733533,2|8
112,92,101955,6,0,B|204:92,1,84.4999984890223,2|8
400,292,102413,2,0,B|308:292,1,84.4999984890223,2|8
256,192,102871,1,2
256,192,103100,6,0,B|256:144,6,42.2499992445111,8|8|10|8|8|8|8
212,276,104016,1,8
212,276,104130,1,0
136,328,104359,1,8
136,328,104474,2,0,B|48:328,2,84.4999984890223
108,240,105161,1,10
136,152,105390,6,0,B|188:152,2,42.2499992445111,0|0|8
60,96,105848,1,8
60,96,105962,1,0
136,44,106191,1,8
136,44,106306,1,0
216,92,106535,2,0,B|216:44,8,42.2499992445111,2|0|10|0|10|0|2|0|8
304,116,107680,6,0,B|340:152,1,42.2499992445111,8|0
360,236,108024,2,0,B|348:276,1,42.2499992445111,8|0
256,296,108367,1,2
256,296,108825,1,10
36,84,109283,6,0,B|92:152,1,84.4999984890223,0|8
36,300,109741,2,0,B|92:232,1,84.4999984890223,0|8
152,112,110199,2,0,B|236:152,1,84.4999984890223,0|8
152,272,110657,2,0,B|236:232,1,84.4999984890223,0|8
256,192,111115,12,2,112947
256,288,113863,5,10
256,276,113978,1,8
256,264,114092,1,8
256,252,114207,1,8
256,240,114321,1,8
256,228,114436,1,8
256,216,114550,1,8
256,204,114665,1,8
256,192,114779,6,0,B|324:116,1,90.999997830391,10|8
112,36,115237,2,0,B|44:112,1,90.999997830391,0|8
256,192,115695,6,0,B|188:268,1,90.999997830391,0|8
400,348,116153,2,0,B|468:272,1,90.999997830391,0|8
480,200,116611,5,2
404,148,116840,1,8
480,100,117069,1,0
404,52,117298,2,0,B|404:8,2,45.4999989151955,8|0|2
328,100,117756,1,8
328,100,117985,1,0
328,100,118214,1,8
252,52,118443,5,2
172,100,118672,1,8
172,100,118787,1,0
172,100,118901,2,0,B|116:104|116:172,1,90.999997830391,0|8
60,232,119359,1,0
60,232,119474,1,0
60,232,119588,1,8
60,232,119703,1,0
60,232,119817,2,0,B|60:296|124:296,1,90.999997830391,0|8
200,280,120275,2,0,B|260:280|260:356,2,90.999997830391,2|8|2
184,192,120962,2,0,B|140:192,2,45.4999989151955,8|0|2
256,136,121421,2,0,B|256:76|188:76,2,90.999997830391,8|2|8
344,108,122108,6,0,B|344:52|400:52,2,90.999997830391,2|8|0
424,152,122795,1,8
424,152,123024,2,0,B|480:152|480:216,2,90.999997830391,2|8|0
424,244,123711,1,8
424,244,123940,1,2
344,292,124169,1,8
344,292,124398,1,2
344,200,124627,2,0,B|292:200,2,45.4999989151955,8|0|2
344,108,125085,1,8
272,52,125314,1,0
200,108,125543,1,8
136,60,125772,5,2
136,60,125886,1,0
136,60,126001,1,8
136,60,126115,1,0
136,60,126230,2,0,B|76:60|76:132,1,90.999997830391,2|8
36,196,126688,1,2
36,196,126802,1,0
36,196,126917,1,8
36,196,127031,1,0
36,196,127146,2,0,B|96:196|96:276,1,90.999997830391,2|8
52,336,127604,5,2
144,336,127833,2,0,B|184:288,1,45.4999989151955,8|2
216,220,128176,2,0,B|248:252,1,45.4999989151955,0|10
328,300,128520,1,10
340,300,128634,1,8
352,300,128749,1,10
364,300,128863,1,8
376,300,128978,1,10
388,300,129092,1,8
400,300,129207,1,8
412,300,129321,1,8
424,300,129436,6,0,B|424:196,1,90.999997830391,10|8
336,48,129894,2,0,B|336:140,1,90.999997830391,0|8
248,300,130352,2,0,B|248:196,1,90.999997830391,0|8
160,48,130810,2,0,B|160:140,1,90.999997830391,0|8
76,300,131268,5,2
160,140,131497,1,8
248,300,131726,1,0
336,140,131955,2,0,B|336:96,2,45.4999989151955,8|0|2
424,300,132413,2,0,B|484:300|484:372,2,90.999997830391,8|0|8
424,208,133100,5,2
412,208,133214,1,0
400,208,133329,1,8
388,208,133443,1,0
376,208,133558,2,0,B|280:208,1,90.999997830391,0|8
208,160,134016,2,0,B|208:108,6,45.4999989151955,2|0|8|0|0|0|8
208,252,134932,2,0,B|208:304|264:316,2,90.999997830391,2|8|2
128,208,135619,2,0,B|80:208,2,45.4999989151955,8|0|2
164,124,136077,1,8
244,80,136306,1,2
256,80,136421,1,8
268,80,136535,1,8
280,80,136650,1,8
292,80,136764,6,0,B|348:80|348:12,2,90.999997830391,10|8|0
360,140,137451,1,8
292,200,137680,1,2
360,260,137909,1,8
292,320,138138,1,0
200,324,138367,1,8
200,324,138482,1,0
200,324,138596,6,0,B|240:284|196:240,1,90.999997830391,2|8
68,192,139054,2,0,B|108:232|152:188,1,90.999997830391,2|8
200,60,139512,2,0,B|160:100|204:144,1,90.999997830391,2|8
340,192,139970,2,0,B|300:152|256:196,2,90.999997830391,0|8|2
380,272,140657,5,8
380,272,140772,2,0,B|458:259|459:171,1,136.499996745586,2|8
412,96,141344,1,2
324,72,141573,1,8
324,72,141688,2,0,B|245:84|244:172,1,136.499996745586,2|8
228,256,142260,1,2
152,304,142489,2,0,B|60:304,2,90.999997830391,8|0|8
152,212,143176,2,0,B|152:156,8,45.4999989151955,0|8|8|8|8|8|8|8|8
256,192,144321,12,0,145924
256,192,156917,12,0,158291
256,192,158749,5,10
216,112,158978,2,0,B|168:84,1,45.4999989151955,8|2
128,164,159321,2,0,B|100:204,1,45.4999989151955,8|2
96,292,159665,2,0,B|44:292,8,45.4999989151955,10|8|8|8|8|8|8|8|4
272,340,161039,6,0,B|348:332|348:240,2,130,8|0|8
256,160,162413,2,0,B|256:78|180:70,1,130,4|8
92,228,163329,2,0,B|24:228,2,65,0|8|8
256,308,164245,6,0,B|216:308|216:364,2,65,4|0|8
424,236,165161,2,0,B|464:236|464:284,2,65,4|0|8
284,120,166077,1,4
284,120,166306,2,0,B|328:120,6,32.5,8|8|10|8|8|8|10
204,76,167222,2,0,B|204:28,6,32.5,8|8|10|8|8|8|10
128,124,168138,6,0,B|76:124|76:60,2,90.999997830391,8|0|8
128,216,168825,1,2
204,264,169054,1,8
204,172,169283,1,0
284,216,169512,1,8
284,308,169741,1,2
204,356,169970,1,8
204,356,170199,1,2
204,356,170428,2,0,B|152:356,2,45.4999989151955,8|0|2
284,308,170886,2,0,B|340:308|340:376,2,90.999997830391,8|0|8
332,232,171573,6,0,B|384:232,4,45.4999989151955,2|0|8|0|2
332,232,172260,1,8
332,140,172489,2,0,B|332:84,4,45.4999989151955,2|0|8|0|2
332,140,173176,1,8
256,192,173405,6,0,B|200:192|200:128,1,90.999997830391,2|8
176,108,173749,2,0,B|94:119|99:225,1,136.499996745586,2|10
92,296,174321,2,0,B|140:296,7,45.4999989151955,10|8|10|8|10|8|8|8
137,296,175237,6,0,B|236:296,1,90.999997830391,10|8
375,224,175695,2,0,B|276:224,1,90.999997830391,0|8
88,152,176153,2,0,B|188:152,1,90.999997830391,0|8
424,80,176611,2,0,B|324:80,1,90.999997830391,0|8
256,60,177069,5,2
256,60,177298,1,8
256,60,177527,1,0
256,60,177756,2,0,B|256:120,2,45.4999989151955,8|0|2
168,40,178214,1,8
168,40,178443,1,0
168,40,178672,1,8
120,116,178901,6,0,B|64:116|64:184,2,90.999997830391,2|8|0
204,148,179588,1,8
272,208,179817,1,2
272,208,179932,1,0
272,208,180046,2,0,B|272:268|336:272,1,90.999997830391,8|0
416,276,180504,2,0,B|416:328,2,45.4999989151955,8|0|2
496,232,180962,1,8
496,140,181192,1,2
416,96,181421,2,0,B|416:48,2,45.4999989151955,8|0|2
416,186,181879,1,8
324,188,182108,1,2
312,188,182222,1,8
300,188,182337,1,8
288,188,182451,1,8
276,188,182566,6,0,B|278:132|218:128,2,90.999997830391,10|8|0
206,244,183253,1,8
277,300,183482,2,0,B|278:356|218:360,2,90.999997830391,2|8|0
206,244,184169,1,8
206,244,184283,1,0
206,244,184398,2,0,B|106:244,1,90.999997830391,2|8
58,172,184856,2,0,B|158:172,1,90.999997830391,2|8
206,104,185314,2,0,B|102:104,1,90.999997830391,2|8
58,36,185772,2,0,B|162:36,1,90.999997830391,0|8
238,28,186230,6,0,B|294:28|294:92,1,90.999997830391,2|8
294,112,186573,2,0,B|430:112,1,136.499996745586,2|8
466,196,187146,2,0,B|410:196|410:260,1,90.999997830391,2|8
410,280,187489,2,0,B|274:280,1,136.499996745586,2|8
218,352,188062,1,4
256,192,188520,12,10,189894
256,192,195390,12,0,196764
284,104,197222,5,4
284,104,197451,2,0,B|464:104,2,181.999995660782,8|8|8
228,280,198825,2,0,B|48:280,2,181.999995660782,8|8|8
300,228,199970,1,2
300,228,200199,2,0,B|352:227|352:287,2,90.999997830391,8|0|8
232,168,200886,5,2
232,168,201115,2,0,B|232:108|296:108,2,90.999997830391,8|0|8
144,144,201802,1,2
144,144,202031,2,0,B|144:80|72:80,2,90.999997830391,8|0|8
60,176,202718,1,2
52,268,202947,2,0,B|88:308,1,45.4999989151955,8|2
168,336,203291,2,0,B|204:300,1,45.4999989151955,0|10
256,232,203634,2,0,B|352:232,2,90.999997830391,2|10|12
